osu file format v14

[General]
AudioFilename: audio.mp3
AudioLeadIn: 0
PreviewTime: -1
Countdown: 1
SampleSet: Soft
StackLeniency: 0.3
Mode: 0
LetterboxInBreaks: 0
WidescreenStoryboard: 1

[Editor]
Bookmarks: 4721,7679
DistanceSpacing: 1.1
BeatDivisor: 4
GridSize: 4
TimelineZoom: 1.400005

[Metadata]
Title:Harumachi Clover
TitleUnicode:春待ちクローバー
Artist:Hanasaka Yui(CV: M.A.O)
ArtistUnicode:花坂結衣(CV:M・A・O)
Creator:Yuii-
Version:skrrubse gop0-d for OSU !CATCHHG
Source:OneRoom
Tags:tvsize kantoku カントク one room ワンルーム
BeatmapID:1308968
BeatmapSetID:613933

[Difficulty]
HPDrainRate:1
CircleSize:6.4
OverallDifficulty:3
ApproachRate:9.7
SliderMultiplier:3
SliderTickRate:1

[Events]
//Background and Video events
0,0,"5i6AR3W.jpg",0,0
//Break Periods
//Storyboard Layer 0 (Background)
//Storyboard Layer 1 (Fail)
//Storyboard Layer 2 (Pass)
//Storyboard Layer 3 (Foreground)
//Storyboard Sound Samples

[TimingPoints]
-349,422.535211267606,4,2,0,60,1,0
179,-100,4,2,0,60,0,0
1341,-50,4,2,0,60,0,0
30390,-100,4,2,0,10,0,0

[HitObjects]
192,28,285,5,0,0:0:0:0:
140,284,496,1,0,0:0:0:0:
352,96,707,5,0,0:0:0:0:
95,129,918,1,0,0:0:0:0:
270,284,1129,1,0,0:0:0:0:
264,24,1341,6,0,L|304:348,1,300
432,176,1763,2,0,B|280:156|280:156|132:240,1,300
308,8,2186,5,0,0:0:0:0:
166,148,2397,1,0,0:0:0:0:
104,96,2608,5,0,0:0:0:0:
284,138,2820,1,0,0:0:0:0:
392,372,3031,6,0,B|400:216|400:216|328:76,1,300
192,16,3453,5,0,0:0:0:0:
512,216,3665,1,0,0:0:0:0:
200,352,3876,5,0,0:0:0:0:
424,4,4087,1,0,0:0:0:0:
308,368,4298,1,0,0:0:0:0:
32,208,4510,1,0,0:0:0:0:
89,259,4616,1,0,0:0:0:0:
1,116,4721,5,0,0:0:0:0:
0,32,4932,1,0,0:0:0:0:
128,324,5143,5,0,0:0:0:0:
184,56,5355,1,0,0:0:0:0:
303,165,5566,6,0,P|215:157|119:181,1,150
162,184,5777,2,0,P|250:192|346:168,1,150
225,255,5989,2,0,P|233:167|209:71,1,150
222,106,6200,2,0,P|214:194|238:290,1,150
276,356,6411,6,0,B|360:356|360:356|328:244|328:244|156:292,1,300
8,304,6834,5,0,0:0:0:0:
320,148,7045,1,0,0:0:0:0:
72,60,7256,5,0,0:0:0:0:
196,376,7467,1,0,0:0:0:0:
256,36,7679,5,0,0:0:0:0:
16,204,7890,1,0,0:0:0:0:
96,140,7996,1,0,0:0:0:0:
164,72,8101,5,0,0:0:0:0:
13,107,8312,1,0,0:0:0:0:
284,384,8524,6,0,B|300:240|300:240|228:64|228:64|520:40,1,600
20,212,9158,1,0,0:0:0:0:
500,120,9369,5,0,0:0:0:0:
56,24,9580,1,0,0:0:0:0:
184,348,9791,6,0,B|368:256|368:256|144:192,1,300
28,152,10214,5,0,0:0:0:0:
304,32,10425,1,0,0:0:0:0:
124,304,10636,5,0,0:0:0:0:
152,28,10848,1,0,0:0:0:0:
348,212,11059,5,0,0:0:0:0:
16,120,11270,1,0,0:0:0:0:
168,224,11376,1,0,0:0:0:0:
288,72,11481,5,0,0:0:0:0:
236,368,11693,1,0,0:0:0:0:
64,196,11904,5,0,0:0:0:0:
376,108,12115,1,0,0:0:0:0:
111,61,12327,5,0,0:0:0:0:
428,284,12538,1,0,0:0:0:0:
84,128,12749,5,0,0:0:0:0:
408,32,12960,1,0,0:0:0:0:
128,8,13172,5,0,0:0:0:0:
154,55,13383,1,0,0:0:0:0:
251,27,13594,5,0,0:0:0:0:
227,65,13805,1,0,0:0:0:0:
152,113,14017,5,0,0:0:0:0:
199,124,14228,1,0,0:0:0:0:
174,45,14439,5,0,0:0:0:0:
120,40,14651,5,0,0:0:0:0:
196,132,14756,1,0,0:0:0:0:
85,151,14862,1,0,0:0:0:0:
362,117,15073,5,0,0:0:0:0:
219,320,15284,2,0,B|404:303|404:304|180:160|180:160|198:148,1,300
12,79,15707,5,0,0:0:0:0:
336,92,15918,1,0,0:0:0:0:
60,233,16129,5,0,0:0:0:0:
112,202,16341,1,0,0:0:0:0:
196,1,16552,6,0,B|212:272|212:269|406:155,1,300
452,79,16974,5,0,0:0:0:0:
359,139,17186,1,0,0:0:0:0:
241,75,17397,5,0,0:0:0:0:
307,43,17608,1,0,0:0:0:0:
52,182,17820,5,0,0:0:0:0:
290,203,18031,1,0,0:0:0:0:
341,160,18136,1,0,0:0:0:0:
365,221,18242,5,0,0:0:0:0:
307,43,18453,5,0,0:0:0:0:
281,104,18665,1,0,0:0:0:0:
121,160,18876,5,0,0:0:0:0:
473,70,19087,1,0,0:0:0:0:
234,22,19298,5,0,0:0:0:0:
214,78,19510,1,0,0:0:0:0:
64,93,19721,5,0,0:0:0:0:
31,185,19932,2,0,B|181:167|181:167|183:110|24:86,1,300
123,256,20355,5,0,0:0:0:0:
357,39,20566,1,0,0:0:0:0:
313,42,20672,1,0,0:0:0:0:
277,44,20777,5,0,0:0:0:0:
129,44,20989,1,0,0:0:0:0:
260,369,21200,5,0,0:0:0:0:
49,254,21411,1,0,0:0:0:0:
76,267,21517,1,0,0:0:0:0:
80,226,21622,5,0,0:0:0:0:
143,360,21834,1,0,0:0:0:0:
71,90,22045,5,0,0:0:0:0:
377,220,22256,1,0,0:0:0:0:
375,99,22362,1,0,0:0:0:0:
375,218,22467,1,0,0:0:0:0:
143,152,22679,5,0,0:0:0:0:
503,105,22890,1,0,0:0:0:0:
262,24,23101,5,0,0:0:0:0:
77,332,23524,5,0,0:0:0:0:
79,290,23629,1,0,0:0:0:0:
108,309,23735,1,0,0:0:0:0:
250,10,23946,5,0,0:0:0:0:
161,56,24158,1,0,0:0:0:0:
13,131,24369,5,0,0:0:0:0:
204,25,24580,1,0,0:0:0:0:
384,227,24791,6,0,B|116:204|166:172|480:8|347:-21|192:-11|175:6|145:62|169:215|163:317|146:307|469:318,1,900
66,363,25636,5,0,0:0:0:0:
58,307,25742,1,0,0:0:0:0:
126,309,25848,1,0,0:0:0:0:
428,98,26059,5,0,0:0:0:0:
157,186,26270,1,0,0:0:0:0:
267,360,26481,6,0,B|271:176|273:151|135:80|135:80|305:72|398:250,1,600
402,263,27115,1,0,0:0:0:0:
359,37,27327,1,0,0:0:0:0:
399,100,27432,1,0,0:0:0:0:
289,16,27538,1,0,0:0:0:0:
58,25,27749,5,0,0:0:0:0:
289,16,27960,1,0,0:0:0:0:
45,205,28172,5,0,0:0:0:0:
49,253,28277,1,0,0:0:0:0:
42,155,28383,1,0,0:0:0:0:
