osu file format v14

[General]
AudioFilename: audio.mp3
AudioLeadIn: 0
PreviewTime: -1
Countdown: 0
SampleSet: Soft
StackLeniency: 0.3
Mode: 0
LetterboxInBreaks: 0
WidescreenStoryboard: 0

[Editor]
Bookmarks: 4721
DistanceSpacing: 0.8
BeatDivisor: 4
GridSize: 4
TimelineZoom: 1.400005

[Metadata]
Title:Harumachi Clover
TitleUnicode:春待ちクローバー
Artist:Hanasaka Yui(CV: M.A.O)
ArtistUnicode:花坂結衣(CV:M・A・O)
Creator:Yuii-
Version:sinnoh's F A N T A S T I C good4ctb mappu
Source:OneRoom
Tags:tvsize kantoku カントク one room ワンルームBeatmapID:1308987
BeatmapSetID:613933

[Difficulty]
HPDrainRate:6
CircleSize:5
OverallDifficulty:9
ApproachRate:9.8
SliderMultiplier:3
SliderTickRate:2

[Events]
//Background and Video events
0,0,"5i6AR3W.jpg",0,0
//Break Periods
//Storyboard Layer 0 (Background)
//Storyboard Layer 1 (Fail)
//Storyboard Layer 2 (Pass)
//Storyboard Layer 3 (Foreground)
//Storyboard Sound Samples

[TimingPoints]
-349,422.535211267606,4,2,0,60,1,0
179,-100,4,2,0,60,0,0
5566,-10,4,2,0,60,0,0
6305,-100,4,2,0,60,0,0
23101,-33.3333333333333,4,2,0,60,0,0
23735,-100,4,2,0,60,0,0
30390,-100,4,2,0,10,0,0

[Colours]
Combo1 : 128,128,255
Combo2 : 0,64,128
Combo3 : 0,128,192
Combo4 : 0,0,255

[HitObjects]
393,221,284,5,0,0:0:0:0:
119,221,496,2,0,L|97:71,1,150
393,221,918,2,0,L|415:71,1,150
133,268,1341,6,0,L|235:269,1,75
432,268,1552,2,0,L|288:267,1,75
75,219,1763,2,0,L|60:113,1,75
464,161,1974,2,0,L|476:75,1,75
179,299,2186,5,0,0:0:0:0:
357,73,2397,1,0,0:0:0:0:
179,299,2608,1,0,0:0:0:0:
352,316,2820,1,0,0:0:0:0:
179,299,2925,1,0,0:0:0:0:
12,289,3031,6,0,L|8:198,1,75
215,173,3242,2,0,L|330:173,1,75
501,132,3453,2,0,L|384:132,1,75
183,350,3665,2,0,L|108:350,1,75
426,132,3876,6,0,P|456:215|436:260,1,131.25
131,272,4088,2,0,P|101:216|115:153,1,131.25
344,45,4298,2,0,P|400:13|462:27,1,131.25
206,338,4509,2,0,P|149:368|86:354,1,131.25
487,203,4721,6,0,L|501:77,1,75
218,76,4932,2,0,L|333:68,1,75
17,216,5143,2,0,L|9:101,1,75
271,263,5355,2,0,L|166:266,1,75
496,216,5566,6,0,B|385:230|304:212|304:212|303:153|332:76|332:76|278:26|224:24|224:24|190:68|144:104|144:104|207:121|249:150|249:150|241:192|245:228|245:228|251:249|271:263|271:263|188:264|188:264|123:259|123:259|120:197|136:166|136:166|167:174|183:184|183:184|180:216|184:243|184:243|104:236|48:220|48:220|65:212|65:212|61:180|87:127|87:127|32:51|32:51|23:71,3,1500
116,36,6305,1,0,0:0:0:0:
416,32,6411,6,0,L|520:32,1,75
104,32,6622,2,0,L|8:32,1,75
416,348,6834,2,0,L|512:348,1,75
66,248,7045,1,0,0:0:0:0:
244,196,7151,1,0,0:0:0:0:
66,248,7256,6,0,P|62:172|131:118,1,150
275,290,7679,2,0,P|345:194|335:156,1,150
227,182,7996,1,0,0:0:0:0:
457,132,8101,6,0,L|486:35,1,75
280,76,8312,2,0,L|380:65,1,75
82,69,8524,2,0,L|171:57,1,75
379,177,8735,2,0,L|283:167,1,75
31,182,8946,6,0,L|166:161,1,75
336,278,9158,2,0,L|220:262,1,75
475,192,9368,2,0,L|466:80,1,75
232,136,9580,1,0,0:0:0:0:
424,48,9686,1,0,0:0:0:0:
185,69,9791,6,0,P|136:142|189:209,1,150
72,64,10214,1,0,0:0:0:0:
428,304,10426,1,0,0:0:0:0:
254,32,10636,6,0,P|224:115|244:160,1,131.25
427,228,10848,2,0,P|457:145|437:100,1,131.25
103,222,11059,2,0,P|73:139|93:94,1,131.25
443,108,11270,2,0,P|457:171|427:228,1,131.25
223,340,11481,6,0,P|205:260|206:176,1,150
370,321,11904,6,0,P|290:339|206:338,1,150
351,173,12327,6,0,P|369:253|368:337,1,150
203,191,12749,6,0,P|283:173|367:174,1,150
34,277,13172,1,0,0:0:0:0:
203,191,13383,1,0,0:0:0:0:
512,53,13594,1,0,0:0:0:0:
343,139,13805,1,0,0:0:0:0:
76,218,14017,2,0,L|1:218,1,75
436,218,14228,2,0,L|511:218,1,75
76,218,14439,2,0,L|1:218,1,75
436,218,14651,2,0,L|511:218,1,75
60,225,14862,6,0,L|174:224,1,100
352,117,15073,2,0,L|460:117,1,100
60,225,15284,2,0,L|174:224,1,100
352,117,15495,2,0,L|460:117,1,100
159,135,15707,6,0,L|59:135,1,100
451,243,15918,2,0,L|351:242,1,100
159,135,16129,2,0,L|59:135,1,100
451,243,16341,2,0,L|351:242,1,100
387,241,16446,1,0,0:0:0:0:
105,281,16552,6,0,L|96:189,1,75
301,199,16763,2,0,L|295:98,1,75
498,113,16974,2,0,L|493:27,1,75
296,124,17186,2,0,L|301:38,1,75
97,206,17397,6,0,L|102:120,1,75
475,203,17608,2,0,L|470:117,1,75
101,131,17819,2,0,L|97:206,1,75
384,216,18031,1,0,0:0:0:0:
272,248,18136,1,0,0:0:0:0:
164,308,18243,6,0,L|83:305,1,75
203,281,18453,2,0,L|284:278,1,75
3,334,18665,2,0,L|78:337,1,75
278,280,18876,2,0,L|203:282,1,75
412,242,19087,6,0,L|526:242,1,75
486,242,19298,2,0,L|412:242,1,75
486,242,19510,2,0,L|412:242,1,75
412,242,19721,2,0,L|510:243,1,75
189,65,19932,6,0,P|176:146|168:229,1,150
320,218,20355,1,0,0:0:0:0:
136,314,20566,1,0,0:0:0:0:
296,307,20672,1,0,0:0:0:0:
136,314,20777,5,0,0:0:0:0:
296,307,20989,1,0,0:0:0:0:
18,235,21200,2,0,P|64:292|135:314,1,150
458,72,21622,6,0,L|351:73,1,75
269,222,21834,2,0,L|366:220,1,75
199,73,22045,2,0,L|90:73,1,75
24,136,22256,1,0,0:0:0:0:
199,73,22362,1,0,0:0:0:0:
394,263,22467,2,0,B|245:260|245:260|280:247,2,150
36,88,23101,6,0,B|120:88|120:88|112:88|112:88|120:88|120:88|112:88|112:88|120:88|120:88|112:88|112:88|120:88|120:88|112:88|112:88|120:88|120:88|112:88|112:88|120:88|120:88|112:88|112:88|120:88|120:88|112:88|112:88|120:88|120:88|112:88|112:88|120:88|120:88|112:88|112:88|120:88|120:88|112:88|112:88|120:88|120:88|112:88|112:88|120:88|120:88|112:88|112:88|120:88|120:88|112:88|112:88|120:88|120:88|112:88|112:88|120:88|120:88|112:88|112:88|120:88|120:88|112:88|112:88|120:88|120:88|112:88|112:88|120:88|120:88|112:88|112:88|120:88|120:88|112:88|112:88|120:88|120:88|112:88|112:88|120:88|120:88|112:88|112:88|120:88|120:88|112:88|112:88|120:88|120:88|112:88|112:88|120:88|120:88|112:88|112:88|120:88|120:88|112:88|112:88|120:88|120:88|112:88|112:88|120:88|120:88|112:88|112:88|120:88|120:88|112:88|112:88|120:88|120:88|112:88|112:88|120:88|120:88|112:88|112:88|140:88|140:88|496:88,1,900.000034332277
276,276,23735,2,0,L|268:180,1,75
452,188,23946,2,0,L|460:100,1,75
120,212,24158,2,0,L|112:124,1,75
476,292,24369,2,0,L|492:204,1,75
200,76,24580,2,0,L|300:68,1,75
24,0,24791,6,0,L|24:348,1,300
448,408,25425,1,0,0:0:0:0:
268,300,25636,1,0,0:0:0:0:
356,292,25742,1,0,0:0:0:0:
268,300,25848,1,0,0:0:0:0:
440,284,26059,1,0,0:0:0:0:
141,310,26270,1,0,0:0:0:0:
440,284,26482,6,0,L|124:312,1,300
440,284,27115,1,0,0:0:0:0:
252,192,27327,1,0,0:0:0:0:
360,192,27432,1,0,0:0:0:0:
456,192,27538,1,0,0:0:0:0:
280,128,27749,1,0,0:0:0:0:
509,60,27960,1,0,0:0:0:0:
339,58,28065,1,0,0:0:0:0:
169,57,28171,1,0,0:0:0:0:
0,56,28276,1,0,0:0:0:0:
256,192,28383,12,0,32608,0:0:0:0:
509,60,28383,5,0,0:0:0:0:
256,192,29122,12,0,29651,0:0:0:0:
512,0,31340,5,0,0:0:0:0:
