osu file format v14

[General]
AudioFilename: audio.mp3
AudioLeadIn: 0
PreviewTime: -1
Countdown: 1
SampleSet: None
StackLeniency: 0.7
Mode: 0
LetterboxInBreaks: 0
WidescreenStoryboard: 1

[Editor]
DistanceSpacing: 1.2
BeatDivisor: 8
GridSize: 16
TimelineZoom: 1.6

[Metadata]
Title:Harumachi Clover
TitleUnicode:春待ちクローバー
Artist:Hanasaka Yui(CV: M.A.O)
ArtistUnicode:花坂結衣(CV:M・A・O)
Creator:Yuii-
Version:Weber's ExD ExD
Source:OneRoom
Tags:tvsize kantoku カントク one room ワンルーム
BeatmapID:1308988
BeatmapSetID:613933

[Difficulty]
HPDrainRate:4.8
CircleSize:3.5
OverallDifficulty:9
ApproachRate:9.5
SliderMultiplier:3.2
SliderTickRate:1

[Events]
//Background and Video events
0,0,"5i6AR3W.jpg",0,0
//Break Periods
//Storyboard Layer 0 (Background)
//Storyboard Layer 1 (Fail)
//Storyboard Layer 2 (Pass)
//Storyboard Layer 3 (Foreground)
//Storyboard Sound Samples

[TimingPoints]
-349,422.535211267606,4,2,0,60,1,0
179,-100,4,2,0,60,0,0
1341,-83.3333333333333,4,2,0,60,0,0
30390,-100,4,2,0,10,0,0

[HitObjects]
48,48,284,6,0,L|192:48,1,120
224,128,496,2,0,L|104:128,1,120
160,208,707,2,0,L|304:208,1,120
336,288,919,2,0,L|216:288,1,120
272,368,1129,2,0,L|392:368,1,120
464,48,1341,6,0,L|288:48,1,143.999995605469
192,48,1552,2,0,L|16:48,1,143.999995605469
48,144,1763,2,0,L|192:144,1,143.999995605469
320,144,1974,2,0,L|464:144,1,143.999995605469
464,240,2186,2,0,L|288:240,1,143.999995605469
192,240,2397,2,0,L|16:240,1,143.999995605469
48,336,2608,2,0,L|192:336,1,143.999995605469
320,336,2819,2,0,L|464:336,1,143.999995605469
464,240,3031,6,0,L|320:240,1,143.999995605469
192,240,3242,2,0,L|48:240,1,143.999995605469
48,144,3453,2,0,L|192:144,1,143.999995605469
320,144,3664,2,0,L|464:144,1,143.999995605469
464,336,3876,2,0,L|320:336,1,143.999995605469
192,336,4087,2,0,L|48:336,1,143.999995605469
48,48,4298,2,0,L|192:48,1,143.999995605469
320,48,4509,2,0,L|464:48,1,143.999995605469
464,144,4721,6,0,L|320:144,1,143.999995605469
192,240,4932,2,0,L|48:240,1,143.999995605469
48,144,5143,2,0,L|192:144,1,143.999995605469
320,240,5354,2,0,L|464:240,1,143.999995605469
464,48,5566,2,0,L|320:48,1,143.999995605469
192,336,5777,2,0,L|48:336,1,143.999995605469
48,48,5989,2,0,L|192:48,1,143.999995605469
320,336,6200,2,0,L|464:336,1,143.999995605469
464,240,6411,6,0,L|320:240,1,143.999995605469
192,48,6622,2,0,L|48:48,1,143.999995605469
48,240,6834,2,0,L|192:240,1,143.999995605469
320,48,7045,2,0,L|464:48,1,143.999995605469
464,336,7256,2,0,L|320:336,1,143.999995605469
192,144,7467,2,0,L|48:144,1,143.999995605469
48,336,7679,2,0,L|192:336,1,143.999995605469
320,144,7890,2,0,L|464:144,1,143.999995605469
464,48,8101,6,0,L|320:48,1,143.999995605469
48,336,8312,2,0,L|192:336,1,143.999995605469
192,48,8524,2,0,L|48:48,1,143.999995605469
320,336,8735,2,0,L|464:336,1,143.999995605469
464,144,8946,2,0,L|320:144,1,143.999995605469
48,240,9157,2,0,L|192:240,1,143.999995605469
192,144,9369,2,0,L|48:144,1,143.999995605469
320,240,9580,2,0,L|464:240,1,143.999995605469
464,336,9791,6,0,L|320:336,1,143.999995605469
48,48,10002,2,0,L|192:48,1,143.999995605469
192,336,10214,2,0,L|48:336,1,143.999995605469
320,48,10425,2,0,L|464:48,1,143.999995605469
464,240,10636,2,0,L|320:240,1,143.999995605469
48,144,10847,2,0,L|192:144,1,143.999995605469
192,240,11059,2,0,L|48:240,1,143.999995605469
320,144,11270,2,0,L|464:144,1,143.999995605469
320,48,11481,6,0,L|176:48,1,143.999995605469
176,336,11693,2,0,L|320:336,1,143.999995605469
320,48,11904,2,0,L|176:48,1,143.999995605469
176,336,12116,2,0,L|320:336,1,143.999995605469
320,48,12327,2,0,L|176:48,1,143.999995605469
176,336,12539,2,0,L|320:336,1,143.999995605469
320,48,12749,2,0,L|176:48,1,143.999995605469
176,336,12961,2,0,L|320:336,1,143.999995605469
48,192,13172,6,0,L|192:192,1,143.999995605469
464,192,13383,2,0,L|320:192,1,143.999995605469
48,192,13594,2,0,L|192:192,1,143.999995605469
464,192,13805,2,0,L|320:192,1,143.999995605469
48,192,14017,2,0,L|192:192,1,143.999995605469
464,192,14228,2,0,L|320:192,1,143.999995605469
48,48,14439,2,0,L|128:48,1,71.9999978027344
160,48,14545,2,0,L|240:48,1,71.9999978027344
272,48,14651,2,0,L|352:48,1,71.9999978027344
384,48,14756,2,0,L|464:48,1,71.9999978027344
464,144,14862,6,0,L|288:144,1,143.999995605469
192,144,15073,2,0,L|16:144,1,143.999995605469
48,240,15284,2,0,L|192:240,1,143.999995605469
320,240,15495,2,0,L|464:240,1,143.999995605469
464,48,15707,2,0,L|320:48,1,143.999995605469
192,48,15918,2,0,L|48:48,1,143.999995605469
48,336,16129,2,0,L|192:336,1,143.999995605469
320,336,16340,2,0,L|464:336,1,143.999995605469
48,144,16552,6,0,L|224:144,1,143.999995605469
320,144,16763,2,0,L|496:144,1,143.999995605469
464,240,16974,2,0,L|320:240,1,143.999995605469
192,240,17185,2,0,L|48:240,1,143.999995605469
48,48,17397,2,0,L|192:48,1,143.999995605469
320,48,17608,2,0,L|464:48,1,143.999995605469
464,336,17819,2,0,L|320:336,1,143.999995605469
192,336,18030,2,0,L|48:336,1,143.999995605469
48,48,18242,6,0,L|208:48,1,143.999995605469
192,336,18453,2,0,L|48:336,1,143.999995605469
48,144,18665,2,0,L|192:144,1,143.999995605469
192,240,18876,2,0,L|48:240,1,143.999995605469
464,336,19087,2,0,L|304:336,1,143.999995605469
320,48,19298,2,0,L|464:48,1,143.999995605469
464,240,19510,2,0,L|320:240,1,143.999995605469
320,144,19721,2,0,L|464:144,1,143.999995605469
464,336,19932,6,0,L|320:336,1,143.999995605469
48,336,20143,2,0,L|192:336,1,143.999995605469
464,240,20355,2,0,L|320:240,1,143.999995605469
48,240,20566,2,0,L|192:240,1,143.999995605469
464,144,20777,2,0,L|320:144,1,143.999995605469
48,144,20988,2,0,L|192:144,1,143.999995605469
464,48,21200,2,0,L|320:48,1,143.999995605469
48,48,21411,2,0,L|192:48,1,143.999995605469
464,256,21622,6,0,L|288:256,1,143.999995605469
48,128,21834,2,0,L|224:128,1,143.999995605469
464,256,22045,2,0,L|288:256,1,143.999995605469
48,128,22257,2,0,L|224:128,1,143.999995605469
48,256,22467,2,0,L|224:256,1,143.999995605469
464,128,22679,2,0,L|288:128,1,143.999995605469
48,256,22890,2,0,L|224:256,1,143.999995605469
464,128,23102,2,0,L|288:128,1,143.999995605469
464,336,23312,6,0,L|288:336,1,143.999995605469
48,48,23524,2,0,L|192:48,1,143.999995605469
464,336,23735,2,0,L|288:336,1,143.999995605469
48,48,23947,2,0,L|192:48,1,143.999995605469
48,336,24158,2,0,L|224:336,1,143.999995605469
464,48,24370,2,0,L|320:48,1,143.999995605469
48,336,24581,2,0,L|224:336,1,143.999995605469
464,48,24793,2,0,B|48:48|48:48|48:336|48:336|464:336|464:336|464:144,1,1295.99996044922
464,48,26481,6,0,L|96:48,1,335.999989746094
48,144,26904,2,0,L|192:144,1,143.999995605469
192,240,27115,2,0,L|48:240,1,143.999995605469
128,336,27327,2,0,L|464:336,1,335.999989746094
464,240,27749,2,0,L|304:240,1,143.999995605469
48,144,27960,2,0,L|192:144,1,143.999995605469
464,48,28172,2,0,L|320:48,1,143.999995605469
192,48,28383,2,0,B|48:48|48:48|48:352|48:352|464:352|464:352|464:144|464:144|144:144|144:144|144:256|144:256|384:256,1,1727.99994726563
