osu file format v14

[General]
AudioFilename: audio.mp3
AudioLeadIn: 0
PreviewTime: -1
Countdown: 1
SampleSet: None
StackLeniency: 0.3
Mode: 0
LetterboxInBreaks: 0
WidescreenStoryboard: 1

[Editor]
Bookmarks: 4721
DistanceSpacing: 0.8
BeatDivisor: 4
GridSize: 4
TimelineZoom: 1.400005

[Metadata]
Title:Harumachi Clover
TitleUnicode:春待ちクローバー
Artist:Hanasaka Yui(CV: M.A.O)
ArtistUnicode:花坂結衣(CV:M・A・O)
Creator:Yuii-
Version:HobbeZ2's A C T U A L subjective sh1t!! okhand
Source:OneRoom
Tags:tvsize kantoku カントク one room ワンルーム
BeatmapID:1308951
BeatmapSetID:613933

[Difficulty]
HPDrainRate:6
CircleSize:0
OverallDifficulty:5.7
ApproachRate:9.31415
SliderMultiplier:3
SliderTickRate:1

[Events]
//Background and Video events
0,0,"5i6AR3W.jpg",0,0
//Break Periods
//Storyboard Layer 0 (Background)
//Storyboard Layer 1 (Fail)
//Storyboard Layer 2 (Pass)
//Storyboard Layer 3 (Foreground)
//Storyboard Sound Samples

[TimingPoints]
-349,422.535211267606,4,2,0,60,1,0
179,-100,4,2,0,60,0,0
1341,-50,4,2,0,60,0,0
30390,-100,4,2,0,10,0,0

[HitObjects]
46,61,284,5,0,0:0:0:0:
192,49,496,1,0,0:0:0:0:
280,185,707,5,0,0:0:0:0:
134,173,919,1,0,0:0:0:0:
338,37,1129,5,0,0:0:0:0:
89,36,1341,6,0,P|134:176|70:328,1,300
280,185,1658,1,0,0:0:0:0:
357,300,1763,2,0,P|216:255|67:330,1,300
280,185,2080,1,0,0:0:0:0:
207,61,2186,6,0,P|261:113|279:185,1,150
359,305,2397,2,0,P|411:253|429:181,1,150
0,172,2608,2,0,L|150:172,1,150
509,305,2820,2,0,L|359:305,1,150
0,172,3031,5,0,0:0:0:0:
207,61,3242,1,0,0:0:0:0:
72,296,3453,1,0,0:0:0:0:
279,185,3665,1,0,0:0:0:0:
0,172,3876,6,0,P|150:180|205:43,1,300
80,72,4193,1,0,0:0:0:0:
279,185,4298,2,0,P|129:177|74:314,1,300
199,285,4615,1,0,0:0:0:0:
397,123,4721,6,0,P|411:196|385:266,1,150
279,185,4932,2,0,P|265:112|291:42,1,150
402,134,5143,6,0,P|403:208|365:272,1,150
274,174,5354,2,0,P|273:100|311:36,1,150
0,41,5566,6,0,L|152:29,1,150
365,272,5777,2,0,L|215:260,1,150
9,55,5989,6,0,L|161:43,1,150
374,286,6200,2,0,L|224:274,1,150
425,90,6411,5,0,0:0:0:0:
381,130,6622,1,0,0:0:0:0:
330,161,6834,1,0,0:0:0:0:
9,55,7045,6,0,P|70:201|74:228,1,150
215,311,7256,2,0,P|237:239|274:174,1,150
9,55,7467,1,0,0:0:0:0:
425,90,7679,1,0,0:0:0:0:
381,130,7784,1,0,0:0:0:0:
330,161,7890,1,0,0:0:0:0:
274,174,7996,1,0,0:0:0:0:
475,342,8101,6,0,B|464:290|464:290|478:194,1,150
37,342,8312,2,0,B|48:290|48:290|33:194,1,150
33,194,8524,2,0,B|18:98|18:98|29:46,1,150
478,194,8735,2,0,B|492:98|492:98|481:46,1,150
37,342,8946,5,0,0:0:0:0:
274,174,9158,1,0,0:0:0:0:
29,46,9369,1,0,0:0:0:0:
507,310,9580,6,0,B|473:-12|233:280|247:32,1,450
264,252,10003,2,0,P|195:216|152:157,1,150
385,81,10214,2,0,P|340:140|273:173,1,150
74,340,10425,2,0,P|32:274|24:202,1,150
216,315,10636,2,0,P|147:343|73:339,1,150
73,339,10848,1,0,0:0:0:0:
389,354,11059,1,0,0:0:0:0:
7,97,11270,6,0,B|235:159|234:158|237:151|237:151|316:21|336:19|356:10|387:11|427:14|466:28|489:44|487:48|487:47|488:45|488:47|496:55|499:80|502:123|495:153|492:182|495:187|495:187|486:229|478:251|448:279|423:294|381:285|337:261|319:247|279:223|259:211|257:207|254:198|252:192|249:192|249:192|247:185|244:182|247:166|512:242,1,1200
330,98,11481,5,0,0:0:0:0:
439,125,11904,1,0,0:0:0:0:
113,283,12327,5,0,0:0:0:0:
113,283,12538,1,0,0:0:0:0:
439,125,12749,5,0,0:0:0:0:
95,75,12960,2,0,B|68:175|68:175|91:249|91:249|54:362,1,300
193,166,13277,1,0,0:0:0:0:
72,58,13383,2,0,B|45:158|45:158|68:232|68:232|31:345,1,300
193,166,13700,1,0,0:0:0:0:
193,166,13805,1,0,0:0:0:0:
193,166,13911,1,0,0:0:0:0:
299,66,14017,6,0,P|194:162|182:199,3,150
324,225,14439,6,0,L|330:274,2,37.5
372,255,14545,2,0,L|378:304,2,37.5
420,285,14651,2,0,L|426:334,2,37.5
468,315,14756,2,0,L|474:364,2,37.5
161,441,14862,6,0,B|223:213|222:214|215:211|215:211|85:132|83:112|74:92|75:61|78:21|92:-18|108:-41|112:-39|111:-39|109:-40|111:-40|119:-48|144:-51|187:-54|217:-47|246:-44|251:-47|251:-47|293:-38|315:-30|343:0|358:25|349:67|325:111|311:129|287:169|275:189|271:191|262:194|256:196|256:199|256:199|249:201|246:204|230:201|306:-64,1,1200
162,118,15073,5,0,0:0:0:0:
189,9,15496,1,0,0:0:0:0:
409,328,15918,1,0,0:0:0:0:
21,356,16129,6,0,P|113:350|183:310,1,150
491,28,16341,2,0,P|399:34|329:74,1,150
409,328,16552,5,0,0:0:0:0:
257,192,16763,1,0,0:0:0:0:
409,328,16974,1,0,0:0:0:0:
257,192,17185,1,0,0:0:0:0:
409,328,17397,5,0,0:0:0:0:
257,192,17503,1,0,0:0:0:0:
409,328,17608,1,0,0:0:0:0:
257,192,17714,1,0,0:0:0:0:
409,328,17820,6,0,P|432:319|402:314,1,75
257,192,17925,2,0,P|234:201|264:206,1,75
409,328,18031,2,0,P|386:337|416:342,1,75
257,192,18136,2,0,P|280:183|250:178,1,75
65,246,18242,6,0,B|124:223|124:223|129:220|176:211|207:214|227:230|254:267|266:299|264:334|252:353|229:380|185:398|154:391|134:386|101:366|91:346|75:312|69:307|70:308|71:308|71:308|71:300|71:300|71:303|102:342|123:358|142:375|165:379|221:364|241:341|260:324|271:288|267:238|245:198|220:162|197:136|193:-11|193:-11|147:-28|218:197|147:-20,1,1200
273,73,19298,1,0,0:0:0:0:
65,246,19404,5,0,0:0:0:0:
137,229,19509,5,0,0:0:0:0:
211,240,19615,5,0,0:0:0:0:
274,279,19720,5,0,0:0:0:0:
319,339,19826,5,0,0:0:0:0:
273,73,19932,6,0,P|296:64|266:94,1,150
130,250,20143,2,0,P|107:259|137:229,1,150
465,154,20355,1,0,0:0:0:0:
319,339,20461,2,0,P|296:348|326:318,1,150
462,162,20672,2,0,P|485:153|455:183,1,150
462,162,20883,1,0,0:0:0:0:
405,113,20989,5,0,0:0:0:0:
375,106,21094,1,0,0:0:0:0:
318,177,21200,2,0,P|463:162|503:184,1,150
319,339,21411,2,0,P|174:354|134:332,1,150
46,95,21622,5,0,0:0:0:0:
318,177,21834,1,0,0:0:0:0:
93,260,22045,1,0,0:0:0:0:
345,171,22256,5,0,0:0:0:0:
46,95,22467,1,0,0:0:0:0:
372,165,22679,1,0,0:0:0:0:
93,260,22890,5,0,0:0:0:0:
399,159,23101,1,0,0:0:0:0:
46,95,23312,1,0,0:0:0:0:
93,260,23524,5,0,0:0:0:0:
399,159,23629,1,0,0:0:0:0:
46,95,23735,1,0,0:0:0:0:
76,266,23841,5,0,0:0:0:0:
413,155,23946,1,0,0:0:0:0:
24,85,24052,1,0,0:0:0:0:
303,316,24158,1,0,0:0:0:0:
214,169,24369,1,0,0:0:0:0:
497,334,24580,1,0,0:0:0:0:
161,0,24791,6,0,B|223:171|222:170|215:173|215:173|85:252|83:272|74:292|75:323|78:363|92:402|108:425|112:423|111:423|109:424|111:424|119:432|144:435|187:438|217:431|246:428|251:431|251:431|293:422|315:414|343:384|358:359|349:317|325:273|311:255|287:215|275:195|271:193|262:190|256:188|256:185|256:185|249:183|246:180|230:183|306:448,1,1200
162,266,25002,5,0,0:0:0:0:
189,375,25425,1,0,0:0:0:0:
72,102,25848,1,0,0:0:0:0:
421,23,26059,6,0,L|394:120,1,75
418,131,26165,2,0,L|391:228,1,75
463,10,26270,2,0,L|436:107,1,75
460,118,26376,2,0,L|433:215,1,75
419,314,26481,5,0,0:0:0:0:
98,229,26693,1,0,0:0:0:0:
252,86,26904,1,0,0:0:0:0:
207,350,27115,1,0,0:0:0:0:
54,91,27327,1,0,0:0:0:0:
98,229,27538,1,0,0:0:0:0:
252,86,27643,1,0,0:0:0:0:
207,350,27749,1,0,0:0:0:0:
54,91,27960,5,0,0:0:0:0:
98,230,28065,1,0,0:0:0:0:
227,298,28171,1,0,0:0:0:0:
367,254,28276,1,0,0:0:0:0:
471,92,28383,6,0,B|360:-13|342:10|338:8|308:-11|229:-14|183:-7|150:-8|48:32|46:58|52:108|51:155|52:173|52:176|52:176|49:265|47:349|124:382|279:390|387:401|460:385|491:300|444:243|460:202|472:166|472:112|466:86|461:75|457:73|461:74|461:74|462:74|56:52|56:51|55:51|54:50|56:58|150:152|162:140|200:168|217:116|222:110|230:101|265:70|277:74|282:65|282:65|303:225|390:77|344:204|381:152|406:133|410:162|423:149|453:96|461:94,1,2100
109,273,28489,2,0,P|253:323|428:268,1,300
109,273,28805,2,0,P|253:323|428:268,1,300
109,273,29122,2,0,P|253:323|428:268,1,300
109,273,29439,2,0,P|253:323|428:268,1,300
109,273,29967,2,0,P|253:323|428:268,1,300
