osu file format v14

[General]
AudioFilename: audio.mp3
AudioLeadIn: 0
PreviewTime: 55358
Countdown: 0
SampleSet: None
StackLeniency: 0.7
Mode: 3
LetterboxInBreaks: 0
SpecialStyle: 0
WidescreenStoryboard: 0

[Editor]
Bookmarks: 41203
DistanceSpacing: 1
BeatDivisor: 4
GridSize: 4
TimelineZoom: 1.8

[Metadata]
Title:Harumachi Clover
TitleUnicode:春待ちクローバー
Artist:Hanasaka Yui(CV: M.A.O)
ArtistUnicode:花坂結衣(CV:M・A・O)
Creator:Remuring
Version:Waiting for Spring
Source:OneRoom
Tags:
BeatmapID:1826641
BeatmapSetID:873907

[Difficulty]
HPDrainRate:9
CircleSize:7
OverallDifficulty:7
ApproachRate:5
SliderMultiplier:1.4
SliderTickRate:1

[Events]
//Background and Video events
0,0,"OneRoom.png",0,0
//Break Periods
//Storyboard Layer 0 (Background)
//Storyboard Layer 1 (Fail)
//Storyboard Layer 2 (Pass)
//Storyboard Layer 3 (Foreground)
//Storyboard Sound Samples

[TimingPoints]
692,422.535211267606,4,1,0,0,1,0

[HitObjects]
329,192,481,5,0,0:0:0:0:
256,192,587,1,0,0:0:0:0:
182,192,692,1,0,0:0:0:0:
402,192,692,1,0,0:0:0:0:
475,192,692,1,0,0:0:0:0:
36,192,692,128,0,1326:0:0:0:0:
109,192,692,1,0,0:0:0:0:
329,192,904,1,0,0:0:0:0:
256,192,1115,1,0,0:0:0:0:
475,192,1115,1,0,0:0:0:0:
109,192,1115,1,0,0:0:0:0:
402,192,1326,1,0,0:0:0:0:
182,192,1326,128,0,1960:0:0:0:0:
329,192,1537,1,0,0:0:0:0:
475,192,1749,1,0,0:0:0:0:
36,192,1960,128,0,2382:0:0:0:0:
109,192,1960,1,0,0:0:0:0:
402,192,1960,1,0,0:0:0:0:
256,192,1960,1,0,0:0:0:0:
182,192,2171,1,0,0:0:0:0:
329,192,2171,1,0,0:0:0:0:
475,192,2382,128,0,3016:0:0:0:0:
256,192,2382,1,0,0:0:0:0:
402,192,2382,1,0,0:0:0:0:
109,192,2382,1,0,0:0:0:0:
182,192,2594,1,0,0:0:0:0:
256,192,2805,1,0,0:0:0:0:
109,192,2805,1,0,0:0:0:0:
36,192,2805,1,0,0:0:0:0:
329,192,3016,128,0,4073:0:0:0:0:
182,192,3016,1,0,0:0:0:0:
256,192,3228,1,0,0:0:0:0:
109,192,3439,1,0,0:0:0:0:
36,192,3439,1,0,0:0:0:0:
182,192,3650,1,0,0:0:0:0:
256,192,3650,1,0,0:0:0:0:
402,192,3650,1,0,0:0:0:0:
475,192,3650,1,0,0:0:0:0:
109,192,3861,1,0,0:0:0:0:
36,192,3861,1,0,0:0:0:0:
36,192,4073,128,0,4706:0:0:0:0:
182,192,4073,1,0,0:0:0:0:
475,192,4073,1,0,0:0:0:0:
402,192,4073,1,0,0:0:0:0:
329,192,4284,1,0,0:0:0:0:
256,192,4495,1,0,0:0:0:0:
475,192,4495,1,0,0:0:0:0:
109,192,4495,1,0,0:0:0:0:
182,192,4706,128,0,5129:0:0:0:0:
402,192,4706,1,0,0:0:0:0:
329,192,4918,1,0,0:0:0:0:
475,192,5129,1,0,0:0:0:0:
36,192,5129,128,0,5763:0:0:0:0:
109,192,5340,1,0,0:0:0:0:
256,192,5340,1,0,0:0:0:0:
402,192,5340,1,0,0:0:0:0:
182,192,5551,1,0,0:0:0:0:
329,192,5551,1,0,0:0:0:0:
475,192,5763,128,0,6397:0:0:0:0:
402,192,5763,1,0,0:0:0:0:
256,192,5763,1,0,0:0:0:0:
109,192,5763,1,0,0:0:0:0:
182,192,5974,1,0,0:0:0:0:
109,192,6185,1,0,0:0:0:0:
36,192,6185,1,0,0:0:0:0:
256,192,6185,1,0,0:0:0:0:
329,192,6397,128,0,7453:0:0:0:0:
402,192,6397,1,0,0:0:0:0:
109,192,6608,1,0,0:0:0:0:
36,192,6608,1,0,0:0:0:0:
182,192,6819,1,0,0:0:0:0:
256,192,6819,1,0,0:0:0:0:
475,192,6819,1,0,0:0:0:0:
182,192,7030,1,0,0:0:0:0:
109,192,7030,1,0,0:0:0:0:
402,192,7030,1,0,0:0:0:0:
36,192,7030,1,0,0:0:0:0:
182,192,7242,1,0,0:0:0:0:
256,192,7242,1,0,0:0:0:0:
475,192,7242,1,0,0:0:0:0:
402,192,7453,1,0,0:0:0:0:
36,192,7453,128,0,8087:0:0:0:0:
109,192,7453,1,0,0:0:0:0:
182,192,7453,1,0,0:0:0:0:
475,192,7453,1,0,0:0:0:0:
256,192,7664,1,0,0:0:0:0:
329,192,7875,1,0,0:0:0:0:
475,192,7875,1,0,0:0:0:0:
109,192,7875,1,0,0:0:0:0:
182,192,8087,128,0,8509:0:0:0:0:
402,192,8087,1,0,0:0:0:0:
256,192,8298,1,0,0:0:0:0:
36,192,8509,128,0,9143:0:0:0:0:
329,192,8509,1,0,0:0:0:0:
109,192,8720,1,0,0:0:0:0:
256,192,8720,1,0,0:0:0:0:
402,192,8720,1,0,0:0:0:0:
329,192,8932,1,0,0:0:0:0:
182,192,8932,1,0,0:0:0:0:
475,192,9143,128,0,9777:0:0:0:0:
256,192,9143,1,0,0:0:0:0:
402,192,9143,1,0,0:0:0:0:
109,192,9143,1,0,0:0:0:0:
329,192,9354,1,0,0:0:0:0:
182,192,9566,1,0,0:0:0:0:
109,192,9566,1,0,0:0:0:0:
36,192,9566,1,0,0:0:0:0:
329,192,9777,128,0,10833:0:0:0:0:
256,192,9777,1,0,0:0:0:0:
182,192,9988,1,0,0:0:0:0:
109,192,9988,1,0,0:0:0:0:
36,192,10199,1,0,0:0:0:0:
256,192,10199,1,0,0:0:0:0:
109,192,10411,1,0,0:0:0:0:
182,192,10411,1,0,0:0:0:0:
475,192,10411,1,0,0:0:0:0:
402,192,10411,1,0,0:0:0:0:
256,192,10622,1,0,0:0:0:0:
36,192,10622,1,0,0:0:0:0:
36,192,10833,128,0,11467:0:0:0:0:
109,192,10833,1,0,0:0:0:0:
256,192,10833,1,0,0:0:0:0:
402,192,10833,1,0,0:0:0:0:
475,192,10833,1,0,0:0:0:0:
182,192,11044,1,0,0:0:0:0:
329,192,11044,1,0,0:0:0:0:
109,192,11256,1,0,0:0:0:0:
256,192,11256,1,0,0:0:0:0:
402,192,11256,1,0,0:0:0:0:
475,192,11467,128,0,11890:0:0:0:0:
329,192,11467,1,0,0:0:0:0:
182,192,11467,1,0,0:0:0:0:
109,192,11678,1,0,0:0:0:0:
256,192,11678,1,0,0:0:0:0:
402,192,11678,1,0,0:0:0:0:
182,192,11890,1,0,0:0:0:0:
329,192,11890,1,0,0:0:0:0:
256,192,12101,1,0,0:0:0:0:
402,192,12101,1,0,0:0:0:0:
475,192,12101,1,0,0:0:0:0:
109,192,12101,1,0,0:0:0:0:
36,192,12101,1,0,0:0:0:0:
182,192,12312,128,0,12735:0:0:0:0:
329,192,12312,1,0,0:0:0:0:
256,192,12523,1,0,0:0:0:0:
475,192,12523,1,0,0:0:0:0:
36,192,12523,1,0,0:0:0:0:
402,192,12523,1,0,0:0:0:0:
109,192,12523,1,0,0:0:0:0:
329,192,12735,128,0,12946:0:0:0:0:
109,192,12735,1,0,0:0:0:0:
182,192,12840,1,0,0:0:0:0:
475,192,12946,128,0,13157:0:0:0:0:
256,192,12946,1,0,0:0:0:0:
36,192,12946,1,0,0:0:0:0:
402,192,12946,1,0,0:0:0:0:
36,192,13157,128,0,14213:0:0:0:0:
182,192,13157,1,0,0:0:0:0:
329,192,13157,1,0,0:0:0:0:
402,192,13263,1,0,0:0:0:0:
475,192,13368,1,0,0:0:0:0:
256,192,13368,1,0,0:0:0:0:
109,192,13368,1,0,0:0:0:0:
182,192,13580,1,0,0:0:0:0:
329,192,13580,1,0,0:0:0:0:
109,192,13791,1,0,0:0:0:0:
256,192,13791,1,0,0:0:0:0:
402,192,13791,1,0,0:0:0:0:
475,192,13791,1,0,0:0:0:0:
329,192,14002,1,0,0:0:0:0:
182,192,14002,1,0,0:0:0:0:
109,192,14213,1,0,0:0:0:0:
182,192,14213,1,0,0:0:0:0:
329,192,14213,1,0,0:0:0:0:
402,192,14213,1,0,0:0:0:0:
475,192,14213,1,0,0:0:0:0:
36,192,14425,1,0,0:0:0:0:
256,192,14425,1,0,0:0:0:0:
109,192,14636,1,0,0:0:0:0:
329,192,14636,1,0,0:0:0:0:
475,192,14636,1,0,0:0:0:0:
182,192,14847,1,0,0:0:0:0:
402,192,14847,1,0,0:0:0:0:
256,192,15059,1,0,0:0:0:0:
475,192,15059,1,0,0:0:0:0:
36,192,15059,1,0,0:0:0:0:
109,192,15270,1,0,0:0:0:0:
329,192,15270,1,0,0:0:0:0:
182,192,15481,1,0,0:0:0:0:
402,192,15481,1,0,0:0:0:0:
475,192,15481,1,0,0:0:0:0:
256,192,15692,1,0,0:0:0:0:
36,192,15692,1,0,0:0:0:0:
109,192,15904,1,0,0:0:0:0:
329,192,15904,1,0,0:0:0:0:
475,192,15904,1,0,0:0:0:0:
402,192,16115,1,0,0:0:0:0:
182,192,16115,1,0,0:0:0:0:
256,192,16326,1,0,0:0:0:0:
475,192,16326,1,0,0:0:0:0:
36,192,16326,1,0,0:0:0:0:
182,192,16537,1,0,0:0:0:0:
402,192,16537,1,0,0:0:0:0:
109,192,16749,1,0,0:0:0:0:
36,192,16749,1,0,0:0:0:0:
329,192,16749,1,0,0:0:0:0:
182,192,16960,1,0,0:0:0:0:
402,192,16960,1,0,0:0:0:0:
402,192,17171,1,0,0:0:0:0:
182,192,17171,1,0,0:0:0:0:
36,192,17171,1,0,0:0:0:0:
109,192,17382,1,0,0:0:0:0:
329,192,17382,1,0,0:0:0:0:
36,192,17594,1,0,0:0:0:0:
256,192,17594,1,0,0:0:0:0:
475,192,17594,1,0,0:0:0:0:
182,192,17805,1,0,0:0:0:0:
402,192,17805,1,0,0:0:0:0:
256,192,18016,1,0,0:0:0:0:
475,192,18016,1,0,0:0:0:0:
36,192,18016,1,0,0:0:0:0:
109,192,18228,1,0,0:0:0:0:
329,192,18228,1,0,0:0:0:0:
182,192,18439,1,0,0:0:0:0:
402,192,18439,1,0,0:0:0:0:
475,192,18439,1,0,0:0:0:0:
256,192,18650,1,0,0:0:0:0:
36,192,18650,1,0,0:0:0:0:
109,192,18861,1,0,0:0:0:0:
329,192,18861,1,0,0:0:0:0:
475,192,18861,1,0,0:0:0:0:
182,192,19073,1,0,0:0:0:0:
402,192,19073,1,0,0:0:0:0:
256,192,19284,1,0,0:0:0:0:
475,192,19284,1,0,0:0:0:0:
36,192,19284,1,0,0:0:0:0:
109,192,19495,1,0,0:0:0:0:
329,192,19495,1,0,0:0:0:0:
182,192,19706,1,0,0:0:0:0:
402,192,19706,1,0,0:0:0:0:
475,192,19706,1,0,0:0:0:0:
329,192,19918,1,0,0:0:0:0:
109,192,19918,1,0,0:0:0:0:
36,192,20129,1,0,0:0:0:0:
256,192,20129,1,0,0:0:0:0:
475,192,20129,1,0,0:0:0:0:
182,192,20340,1,0,0:0:0:0:
402,192,20340,1,0,0:0:0:0:
402,192,20551,1,0,0:0:0:0:
182,192,20551,1,0,0:0:0:0:
36,192,20551,1,0,0:0:0:0:
109,192,20763,1,0,0:0:0:0:
329,192,20763,1,0,0:0:0:0:
36,192,20974,1,0,0:0:0:0:
256,192,20974,1,0,0:0:0:0:
475,192,20974,1,0,0:0:0:0:
182,192,21185,1,0,0:0:0:0:
402,192,21185,1,0,0:0:0:0:
109,192,21397,1,0,0:0:0:0:
36,192,21397,1,0,0:0:0:0:
329,192,21397,1,0,0:0:0:0:
182,192,21608,1,0,0:0:0:0:
402,192,21608,1,0,0:0:0:0:
475,192,21819,1,0,0:0:0:0:
256,192,21819,1,0,0:0:0:0:
36,192,21819,1,0,0:0:0:0:
109,192,22030,1,0,0:0:0:0:
329,192,22030,1,0,0:0:0:0:
182,192,22242,1,0,0:0:0:0:
402,192,22242,1,0,0:0:0:0:
475,192,22242,1,0,0:0:0:0:
329,192,22453,1,0,0:0:0:0:
109,192,22453,1,0,0:0:0:0:
36,192,22664,1,0,0:0:0:0:
256,192,22664,1,0,0:0:0:0:
475,192,22664,1,0,0:0:0:0:
109,192,22875,1,0,0:0:0:0:
329,192,22875,1,0,0:0:0:0:
182,192,23087,1,0,0:0:0:0:
402,192,23087,1,0,0:0:0:0:
475,192,23087,1,0,0:0:0:0:
329,192,23298,1,0,0:0:0:0:
109,192,23298,1,0,0:0:0:0:
36,192,23509,1,0,0:0:0:0:
256,192,23509,1,0,0:0:0:0:
475,192,23509,1,0,0:0:0:0:
182,192,23720,1,0,0:0:0:0:
402,192,23720,1,0,0:0:0:0:
109,192,23932,1,0,0:0:0:0:
36,192,23932,1,0,0:0:0:0:
329,192,23932,1,0,0:0:0:0:
182,192,24143,1,0,0:0:0:0:
402,192,24143,1,0,0:0:0:0:
256,192,24354,1,0,0:0:0:0:
475,192,24354,1,0,0:0:0:0:
36,192,24354,1,0,0:0:0:0:
109,192,24566,1,0,0:0:0:0:
329,192,24566,1,0,0:0:0:0:
402,192,24566,1,0,0:0:0:0:
109,192,24777,1,0,0:0:0:0:
256,192,24777,1,0,0:0:0:0:
402,192,24777,1,0,0:0:0:0:
109,192,24988,1,0,0:0:0:0:
182,192,24988,1,0,0:0:0:0:
402,192,24988,1,0,0:0:0:0:
109,192,25199,1,0,0:0:0:0:
256,192,25199,1,0,0:0:0:0:
402,192,25199,1,0,0:0:0:0:
329,192,25411,1,0,0:0:0:0:
402,192,25411,1,0,0:0:0:0:
109,192,25411,1,0,0:0:0:0:
109,192,25622,1,0,0:0:0:0:
256,192,25622,1,0,0:0:0:0:
402,192,25622,1,0,0:0:0:0:
182,192,25833,1,0,0:0:0:0:
329,192,25833,1,0,0:0:0:0:
256,192,26044,1,0,0:0:0:0:
402,192,26044,1,0,0:0:0:0:
475,192,26044,1,0,0:0:0:0:
109,192,26044,1,0,0:0:0:0:
36,192,26044,1,0,0:0:0:0:
109,192,26256,1,0,0:0:0:0:
182,192,26256,1,0,0:0:0:0:
329,192,26256,1,0,0:0:0:0:
402,192,26256,1,0,0:0:0:0:
182,192,26467,1,0,0:0:0:0:
256,192,26467,1,0,0:0:0:0:
329,192,26467,1,0,0:0:0:0:
182,192,26678,1,0,0:0:0:0:
109,192,26678,1,0,0:0:0:0:
36,192,26678,1,0,0:0:0:0:
329,192,26678,1,0,0:0:0:0:
402,192,26678,1,0,0:0:0:0:
475,192,26678,1,0,0:0:0:0:
182,192,27101,1,0,0:0:0:0:
109,192,27101,1,0,0:0:0:0:
329,192,27101,1,0,0:0:0:0:
402,192,27101,1,0,0:0:0:0:
182,192,27312,1,0,0:0:0:0:
256,192,27312,1,0,0:0:0:0:
329,192,27312,1,0,0:0:0:0:
109,192,27523,1,0,0:0:0:0:
329,192,27523,1,0,0:0:0:0:
402,192,27523,1,0,0:0:0:0:
182,192,27523,1,0,0:0:0:0:
182,192,27735,1,0,0:0:0:0:
256,192,27735,1,0,0:0:0:0:
329,192,27735,1,0,0:0:0:0:
475,192,27735,1,0,0:0:0:0:
36,192,27735,1,0,0:0:0:0:
109,192,27946,1,0,0:0:0:0:
402,192,27946,1,0,0:0:0:0:
256,192,28157,1,0,0:0:0:0:
475,192,28157,1,0,0:0:0:0:
36,192,28157,1,0,0:0:0:0:
182,192,28368,1,0,0:0:0:0:
329,192,28368,1,0,0:0:0:0:
36,192,28580,1,0,0:0:0:0:
256,192,28580,1,0,0:0:0:0:
475,192,28580,1,0,0:0:0:0:
109,192,28791,1,0,0:0:0:0:
402,192,28791,1,0,0:0:0:0:
182,192,29002,1,0,0:0:0:0:
329,192,29002,1,0,0:0:0:0:
475,192,29002,1,0,0:0:0:0:
109,192,29213,1,0,0:0:0:0:
256,192,29213,1,0,0:0:0:0:
36,192,29425,1,0,0:0:0:0:
182,192,29425,1,0,0:0:0:0:
402,192,29425,1,0,0:0:0:0:
109,192,29636,1,0,0:0:0:0:
329,192,29636,1,0,0:0:0:0:
256,192,29847,1,0,0:0:0:0:
36,192,29847,1,0,0:0:0:0:
475,192,29847,1,0,0:0:0:0:
182,192,30059,1,0,0:0:0:0:
402,192,30059,1,0,0:0:0:0:
329,192,30270,1,0,0:0:0:0:
109,192,30270,1,0,0:0:0:0:
36,192,30270,1,0,0:0:0:0:
182,192,30481,1,0,0:0:0:0:
402,192,30481,1,0,0:0:0:0:
256,192,30692,1,0,0:0:0:0:
475,192,30692,1,0,0:0:0:0:
36,192,30692,1,0,0:0:0:0:
109,192,30904,1,0,0:0:0:0:
329,192,30904,1,0,0:0:0:0:
182,192,31115,1,0,0:0:0:0:
402,192,31115,1,0,0:0:0:0:
475,192,31115,1,0,0:0:0:0:
256,192,31326,1,0,0:0:0:0:
36,192,31326,1,0,0:0:0:0:
109,192,31537,1,0,0:0:0:0:
329,192,31537,1,0,0:0:0:0:
475,192,31537,1,0,0:0:0:0:
182,192,31749,1,0,0:0:0:0:
402,192,31749,1,0,0:0:0:0:
256,192,31960,1,0,0:0:0:0:
475,192,31960,1,0,0:0:0:0:
36,192,31960,1,0,0:0:0:0:
109,192,32171,1,0,0:0:0:0:
329,192,32171,1,0,0:0:0:0:
182,192,32382,1,0,0:0:0:0:
402,192,32382,1,0,0:0:0:0:
475,192,32382,1,0,0:0:0:0:
109,192,32594,1,0,0:0:0:0:
329,192,32594,1,0,0:0:0:0:
256,192,32805,1,0,0:0:0:0:
36,192,32805,1,0,0:0:0:0:
475,192,32805,1,0,0:0:0:0:
182,192,33016,1,0,0:0:0:0:
402,192,33016,1,0,0:0:0:0:
109,192,33228,1,0,0:0:0:0:
36,192,33228,1,0,0:0:0:0:
329,192,33228,1,0,0:0:0:0:
256,192,33439,1,0,0:0:0:0:
475,192,33439,1,0,0:0:0:0:
182,192,33650,1,0,0:0:0:0:
36,192,33650,1,0,0:0:0:0:
402,192,33650,1,0,0:0:0:0:
256,192,33861,1,0,0:0:0:0:
475,192,33861,1,0,0:0:0:0:
329,192,34073,1,0,0:0:0:0:
109,192,34073,1,0,0:0:0:0:
36,192,34073,1,0,0:0:0:0:
182,192,34284,1,0,0:0:0:0:
402,192,34284,1,0,0:0:0:0:
256,192,34495,1,0,0:0:0:0:
329,192,34495,1,0,0:0:0:0:
475,192,34495,1,0,0:0:0:0:
109,192,34495,1,0,0:0:0:0:
36,192,34495,1,0,0:0:0:0:
182,192,34706,1,0,0:0:0:0:
402,192,34706,1,0,0:0:0:0:
256,192,34918,1,0,0:0:0:0:
475,192,34918,1,0,0:0:0:0:
36,192,34918,1,0,0:0:0:0:
109,192,35129,1,0,0:0:0:0:
329,192,35129,1,0,0:0:0:0:
182,192,35340,1,0,0:0:0:0:
402,192,35340,1,0,0:0:0:0:
475,192,35340,1,0,0:0:0:0:
256,192,35551,1,0,0:0:0:0:
36,192,35551,1,0,0:0:0:0:
109,192,35763,1,0,0:0:0:0:
329,192,35763,1,0,0:0:0:0:
475,192,35763,1,0,0:0:0:0:
256,192,35974,1,0,0:0:0:0:
402,192,35974,1,0,0:0:0:0:
182,192,36185,1,0,0:0:0:0:
36,192,36185,1,0,0:0:0:0:
475,192,36185,1,0,0:0:0:0:
329,192,36397,1,0,0:0:0:0:
109,192,36397,1,0,0:0:0:0:
182,192,36608,1,0,0:0:0:0:
402,192,36608,1,0,0:0:0:0:
475,192,36608,1,0,0:0:0:0:
329,192,36819,1,0,0:0:0:0:
36,192,36819,1,0,0:0:0:0:
109,192,37030,1,0,0:0:0:0:
256,192,37030,1,0,0:0:0:0:
475,192,37030,1,0,0:0:0:0:
182,192,37242,1,0,0:0:0:0:
402,192,37242,1,0,0:0:0:0:
256,192,37453,1,0,0:0:0:0:
475,192,37453,1,0,0:0:0:0:
36,192,37453,1,0,0:0:0:0:
182,192,37664,1,0,0:0:0:0:
329,192,37664,1,0,0:0:0:0:
109,192,37875,1,0,0:0:0:0:
402,192,37875,1,0,0:0:0:0:
475,192,37875,1,0,0:0:0:0:
256,192,37875,1,0,0:0:0:0:
36,192,37875,1,0,0:0:0:0:
182,192,38087,1,0,0:0:0:0:
329,192,38087,1,0,0:0:0:0:
256,192,38298,1,0,0:0:0:0:
475,192,38298,1,0,0:0:0:0:
36,192,38298,1,0,0:0:0:0:
109,192,38509,1,0,0:0:0:0:
402,192,38509,1,0,0:0:0:0:
182,192,38720,1,0,0:0:0:0:
329,192,38720,1,0,0:0:0:0:
475,192,38720,1,0,0:0:0:0:
256,192,38932,1,0,0:0:0:0:
109,192,38932,1,0,0:0:0:0:
36,192,39143,1,0,0:0:0:0:
329,192,39143,1,0,0:0:0:0:
475,192,39143,1,0,0:0:0:0:
109,192,39354,1,0,0:0:0:0:
256,192,39354,1,0,0:0:0:0:
182,192,39566,1,0,0:0:0:0:
402,192,39566,1,0,0:0:0:0:
475,192,39566,1,0,0:0:0:0:
36,192,39566,1,0,0:0:0:0:
329,192,39566,1,0,0:0:0:0:
329,192,39777,1,0,0:0:0:0:
109,192,39777,1,0,0:0:0:0:
475,192,39777,1,0,0:0:0:0:
36,192,39988,1,0,0:0:0:0:
182,192,39988,1,0,0:0:0:0:
402,192,39988,1,0,0:0:0:0:
256,192,39988,1,0,0:0:0:0:
109,192,40199,1,0,0:0:0:0:
36,192,40199,1,0,0:0:0:0:
256,192,40199,1,0,0:0:0:0:
402,192,40199,1,0,0:0:0:0:
475,192,40199,1,0,0:0:0:0:
109,192,40411,1,0,0:0:0:0:
182,192,40411,1,0,0:0:0:0:
329,192,40411,1,0,0:0:0:0:
402,192,40411,1,0,0:0:0:0:
256,192,40516,1,0,0:0:0:0:
475,192,40516,1,0,0:0:0:0:
36,192,40516,1,0,0:0:0:0:
109,192,40622,1,0,0:0:0:0:
182,192,40622,1,0,0:0:0:0:
402,192,40622,1,0,0:0:0:0:
329,192,40622,1,0,0:0:0:0:
256,192,40728,1,0,0:0:0:0:
109,192,40833,1,0,0:0:0:0:
36,192,40833,1,0,0:0:0:0:
402,192,40833,1,0,0:0:0:0:
475,192,40833,1,0,0:0:0:0:
182,192,40939,1,0,0:0:0:0:
329,192,40939,1,0,0:0:0:0:
256,192,41044,1,0,0:0:0:0:
182,192,41150,1,0,0:0:0:0:
329,192,41150,1,0,0:0:0:0:
256,192,41256,1,0,0:0:0:0:
402,192,41256,1,0,0:0:0:0:
475,192,41256,1,0,0:0:0:0:
109,192,41256,1,0,0:0:0:0:
36,192,41256,1,0,0:0:0:0:
36,192,41678,1,0,0:0:0:0:
109,192,41678,1,0,0:0:0:0:
182,192,41678,1,0,0:0:0:0:
256,192,41678,1,0,0:0:0:0:
402,192,41890,1,0,0:0:0:0:
475,192,41890,1,0,0:0:0:0:
329,192,41890,1,0,0:0:0:0:
402,192,42312,1,0,0:0:0:0:
475,192,42312,1,0,0:0:0:0:
329,192,42312,1,0,0:0:0:0:
182,192,42523,1,0,0:0:0:0:
109,192,42523,1,0,0:0:0:0:
36,192,42523,1,0,0:0:0:0:
256,192,42523,1,0,0:0:0:0:
182,192,42946,1,0,0:0:0:0:
109,192,42946,1,0,0:0:0:0:
36,192,42946,1,0,0:0:0:0:
402,192,43368,1,0,0:0:0:0:
256,192,43368,1,0,0:0:0:0:
329,192,43368,1,0,0:0:0:0:
475,192,43368,1,0,0:0:0:0:
182,192,43580,1,0,0:0:0:0:
36,192,43580,1,0,0:0:0:0:
109,192,43580,1,0,0:0:0:0:
182,192,44002,1,0,0:0:0:0:
109,192,44002,1,0,0:0:0:0:
36,192,44002,1,0,0:0:0:0:
256,192,44213,1,0,0:0:0:0:
329,192,44213,1,0,0:0:0:0:
402,192,44213,1,0,0:0:0:0:
475,192,44213,1,0,0:0:0:0:
182,192,44636,1,0,0:0:0:0:
256,192,44636,1,0,0:0:0:0:
329,192,44636,1,0,0:0:0:0:
109,192,45059,1,0,0:0:0:0:
36,192,45059,1,0,0:0:0:0:
402,192,45059,1,0,0:0:0:0:
475,192,45059,1,0,0:0:0:0:
182,192,45270,1,0,0:0:0:0:
256,192,45270,1,0,0:0:0:0:
329,192,45270,1,0,0:0:0:0:
182,192,45692,1,0,0:0:0:0:
256,192,45692,1,0,0:0:0:0:
329,192,45692,1,0,0:0:0:0:
402,192,45904,1,0,0:0:0:0:
475,192,45904,1,0,0:0:0:0:
109,192,45904,1,0,0:0:0:0:
36,192,45904,1,0,0:0:0:0:
109,192,46115,1,0,0:0:0:0:
402,192,46115,1,0,0:0:0:0:
182,192,46326,1,0,0:0:0:0:
329,192,46326,1,0,0:0:0:0:
256,192,46326,1,0,0:0:0:0:
109,192,46749,1,0,0:0:0:0:
36,192,46749,1,0,0:0:0:0:
402,192,46749,1,0,0:0:0:0:
475,192,46749,1,0,0:0:0:0:
329,192,46960,1,0,0:0:0:0:
256,192,46960,1,0,0:0:0:0:
182,192,46960,1,0,0:0:0:0:
182,192,47382,1,0,0:0:0:0:
256,192,47382,1,0,0:0:0:0:
329,192,47382,1,0,0:0:0:0:
402,192,47594,1,0,0:0:0:0:
475,192,47594,1,0,0:0:0:0:
109,192,47594,1,0,0:0:0:0:
36,192,47594,1,0,0:0:0:0:
182,192,47805,1,0,0:0:0:0:
256,192,47805,1,0,0:0:0:0:
329,192,47805,1,0,0:0:0:0:
109,192,48016,1,0,0:0:0:0:
36,192,48016,1,0,0:0:0:0:
402,192,48016,1,0,0:0:0:0:
475,192,48016,1,0,0:0:0:0:
256,192,48016,1,0,0:0:0:0:
109,192,48228,1,0,0:0:0:0:
182,192,48228,1,0,0:0:0:0:
329,192,48228,1,0,0:0:0:0:
402,192,48228,1,0,0:0:0:0:
182,192,48439,1,0,0:0:0:0:
256,192,48439,1,0,0:0:0:0:
402,192,48439,1,0,0:0:0:0:
475,192,48439,1,0,0:0:0:0:
36,192,48439,1,0,0:0:0:0:
182,192,48650,1,0,0:0:0:0:
109,192,48650,1,0,0:0:0:0:
36,192,48650,1,0,0:0:0:0:
329,192,48650,1,0,0:0:0:0:
402,192,48650,1,0,0:0:0:0:
475,192,48650,1,0,0:0:0:0:
182,192,49073,1,0,0:0:0:0:
329,192,49073,1,0,0:0:0:0:
256,192,49284,1,0,0:0:0:0:
402,192,49284,1,0,0:0:0:0:
475,192,49284,1,0,0:0:0:0:
109,192,49284,1,0,0:0:0:0:
36,192,49284,1,0,0:0:0:0:
182,192,49495,1,0,0:0:0:0:
329,192,49495,1,0,0:0:0:0:
36,192,49706,1,0,0:0:0:0:
475,192,49706,1,0,0:0:0:0:
109,192,49706,1,0,0:0:0:0:
402,192,49706,1,0,0:0:0:0:
256,192,49706,1,0,0:0:0:0:
329,192,49918,1,0,0:0:0:0:
182,192,49918,1,0,0:0:0:0:
402,192,49918,1,0,0:0:0:0:
109,192,49918,1,0,0:0:0:0:
109,192,50129,1,0,0:0:0:0:
475,192,50129,1,0,0:0:0:0:
256,192,50129,1,0,0:0:0:0:
329,192,50129,1,0,0:0:0:0:
36,192,50129,1,0,0:0:0:0:
109,192,50340,1,0,0:0:0:0:
329,192,50340,1,0,0:0:0:0:
475,192,50340,1,0,0:0:0:0:
36,192,50340,1,0,0:0:0:0:
182,192,50340,1,0,0:0:0:0:
402,192,50340,1,0,0:0:0:0:
182,192,50763,1,0,0:0:0:0:
329,192,50763,1,0,0:0:0:0:
256,192,50974,1,0,0:0:0:0:
402,192,50974,1,0,0:0:0:0:
475,192,50974,1,0,0:0:0:0:
109,192,50974,1,0,0:0:0:0:
36,192,50974,1,0,0:0:0:0:
182,192,51185,1,0,0:0:0:0:
329,192,51185,1,0,0:0:0:0:
36,192,51397,128,0,51819:0:0:0:0:
109,192,51397,1,0,0:0:0:0:
256,192,51397,1,0,0:0:0:0:
402,192,51397,1,0,0:0:0:0:
475,192,51397,1,0,0:0:0:0:
182,192,51608,128,0,51819:0:0:0:0:
329,192,51608,1,0,0:0:0:0:
402,192,51608,1,0,0:0:0:0:
475,192,51819,128,0,52242:0:0:0:0:
256,192,51819,1,0,0:0:0:0:
402,192,51819,1,0,0:0:0:0:
109,192,51819,1,0,0:0:0:0:
329,192,52030,128,0,52242:0:0:0:0:
182,192,52030,1,0,0:0:0:0:
36,192,52030,1,0,0:0:0:0:
182,192,52242,128,0,52664:0:0:0:0:
36,192,52242,1,0,0:0:0:0:
256,192,52242,1,0,0:0:0:0:
402,192,52242,1,0,0:0:0:0:
36,192,52453,128,0,52664:0:0:0:0:
329,192,52453,1,0,0:0:0:0:
475,192,52453,1,0,0:0:0:0:
329,192,52664,128,0,53087:0:0:0:0:
109,192,52664,1,0,0:0:0:0:
256,192,52664,1,0,0:0:0:0:
402,192,52664,1,0,0:0:0:0:
475,192,52875,128,0,53087:0:0:0:0:
182,192,52875,1,0,0:0:0:0:
36,192,52875,1,0,0:0:0:0:
182,192,53087,1,0,0:0:0:0:
109,192,53087,1,0,0:0:0:0:
36,192,53087,1,0,0:0:0:0:
256,192,53087,1,0,0:0:0:0:
402,192,53087,1,0,0:0:0:0:
36,192,53298,1,0,0:0:0:0:
109,192,53298,1,0,0:0:0:0:
182,192,53298,1,0,0:0:0:0:
256,192,53298,1,0,0:0:0:0:
402,192,53298,1,0,0:0:0:0:
329,192,53509,1,0,0:0:0:0:
402,192,53509,1,0,0:0:0:0:
475,192,53509,1,0,0:0:0:0:
182,192,53509,1,0,0:0:0:0:
109,192,53509,1,0,0:0:0:0:
36,192,53509,1,0,0:0:0:0:
182,192,53720,1,0,0:0:0:0:
256,192,53720,1,0,0:0:0:0:
329,192,53720,1,0,0:0:0:0:
256,192,53932,1,0,0:0:0:0:
329,192,53932,1,0,0:0:0:0:
402,192,53932,1,0,0:0:0:0:
475,192,53932,1,0,0:0:0:0:
109,192,53932,1,0,0:0:0:0:
109,192,54143,1,0,0:0:0:0:
256,192,54143,1,0,0:0:0:0:
329,192,54143,1,0,0:0:0:0:
402,192,54143,1,0,0:0:0:0:
475,192,54143,1,0,0:0:0:0:
329,192,54354,5,0,0:0:0:0:
402,192,54354,1,0,0:0:0:0:
475,192,54354,1,0,0:0:0:0:
182,192,54354,1,0,0:0:0:0:
109,192,54354,1,0,0:0:0:0:
36,192,54354,1,0,0:0:0:0:
182,192,54566,1,0,0:0:0:0:
256,192,54566,1,0,0:0:0:0:
329,192,54566,1,0,0:0:0:0:
36,192,54777,1,0,0:0:0:0:
109,192,54777,1,0,0:0:0:0:
182,192,54777,1,0,0:0:0:0:
256,192,54777,1,0,0:0:0:0:
329,192,54777,1,0,0:0:0:0:
402,192,54777,1,0,0:0:0:0:
475,192,54777,1,0,0:0:0:0:
182,192,54988,1,0,0:0:0:0:
36,192,54988,1,0,0:0:0:0:
329,192,54988,1,0,0:0:0:0:
475,192,54988,1,0,0:0:0:0:
329,192,55199,1,0,0:0:0:0:
402,192,55199,1,0,0:0:0:0:
475,192,55199,1,0,0:0:0:0:
182,192,55199,1,0,0:0:0:0:
109,192,55199,1,0,0:0:0:0:
36,192,55199,1,0,0:0:0:0:
182,192,55411,128,0,55833:0:0:0:0:
36,192,55411,128,0,55622:0:0:0:0:
329,192,55622,128,0,56044:0:0:0:0:
475,192,55622,128,0,55833:0:0:0:0:
36,192,55833,128,0,56256:0:0:0:0:
109,192,55833,128,0,56044:0:0:0:0:
475,192,56044,128,0,56467:0:0:0:0:
402,192,56044,128,0,56256:0:0:0:0:
256,192,56256,128,0,56467:0:0:0:0:
109,192,56467,128,0,56573:0:0:0:0:
182,192,56467,128,0,56573:0:0:0:0:
329,192,56467,128,0,56573:0:0:0:0:
402,192,56467,128,0,56573:0:0:0:0:
36,192,56467,128,0,56784:0:0:0:0:
256,192,56678,128,0,56784:0:0:0:0:
402,192,56678,128,0,56995:0:0:0:0:
475,192,56678,128,0,56784:0:0:0:0:
475,192,56890,128,0,56995:0:0:0:0:
109,192,56890,128,0,56995:0:0:0:0:
329,192,56890,128,0,56995:0:0:0:0:
182,192,56890,128,0,57206:0:0:0:0:
256,192,57101,128,0,57206:0:0:0:0:
109,192,57101,128,0,57206:0:0:0:0:
36,192,57101,128,0,57418:0:0:0:0:
402,192,57312,128,0,57418:0:0:0:0:
475,192,57312,128,0,57629:0:0:0:0:
182,192,57312,128,0,57418:0:0:0:0:
329,192,57312,128,0,57418:0:0:0:0:
402,192,57523,128,0,57629:0:0:0:0:
109,192,57523,128,0,57840:0:0:0:0:
256,192,57523,128,0,57629:0:0:0:0:
36,192,57735,128,0,57840:0:0:0:0:
182,192,57735,128,0,57840:0:0:0:0:
329,192,57735,128,0,58051:0:0:0:0:
475,192,57946,128,0,58051:0:0:0:0:
256,192,57946,128,0,58051:0:0:0:0:
36,192,57946,128,0,58051:0:0:0:0:
109,192,57946,128,0,58051:0:0:0:0:
402,192,57946,128,0,58051:0:0:0:0:
109,192,58157,128,0,58685:0:0:0:0:
256,192,58157,1,0,0:0:0:0:
402,192,58157,1,0,0:0:0:0:
36,192,58157,1,0,0:0:0:0:
475,192,58157,1,0,0:0:0:0:
182,192,58263,128,0,58580:0:0:0:0:
329,192,58263,1,0,0:0:0:0:
256,192,58368,128,0,58474:0:0:0:0:
402,192,58368,1,0,0:0:0:0:
329,192,58474,1,0,0:0:0:0:
402,192,58580,128,0,59108:0:0:0:0:
256,192,58580,1,0,0:0:0:0:
36,192,58580,1,0,0:0:0:0:
475,192,58580,1,0,0:0:0:0:
329,192,58685,128,0,59002:0:0:0:0:
256,192,58791,128,0,58897:0:0:0:0:
109,192,58791,128,0,59002:0:0:0:0:
182,192,58897,128,0,59108:0:0:0:0:
36,192,59002,128,0,59213:0:0:0:0:
475,192,59002,128,0,59425:0:0:0:0:
256,192,59002,128,0,59213:0:0:0:0:
329,192,59108,128,0,59319:0:0:0:0:
402,192,59213,128,0,59425:0:0:0:0:
109,192,59213,128,0,59319:0:0:0:0:
182,192,59319,128,0,59425:0:0:0:0:
36,192,59425,128,0,59636:0:0:0:0:
256,192,59425,128,0,59636:0:0:0:0:
109,192,59425,128,0,59636:0:0:0:0:
182,192,59636,128,0,59847:0:0:0:0:
402,192,59636,128,0,59847:0:0:0:0:
475,192,59636,128,0,59847:0:0:0:0:
36,192,59847,128,0,60164:0:0:0:0:
109,192,59847,128,0,59953:0:0:0:0:
256,192,59847,128,0,59953:0:0:0:0:
329,192,59847,128,0,59953:0:0:0:0:
182,192,60059,128,0,60375:0:0:0:0:
402,192,60059,128,0,60164:0:0:0:0:
475,192,60059,128,0,60164:0:0:0:0:
109,192,60270,128,0,60375:0:0:0:0:
256,192,60270,128,0,60375:0:0:0:0:
475,192,60270,128,0,60375:0:0:0:0:
329,192,60270,128,0,60587:0:0:0:0:
182,192,60481,128,0,60587:0:0:0:0:
36,192,60481,128,0,60798:0:0:0:0:
402,192,60481,128,0,60587:0:0:0:0:
109,192,60692,128,0,60798:0:0:0:0:
475,192,60692,128,0,60798:0:0:0:0:
329,192,60692,128,0,60798:0:0:0:0:
256,192,60692,128,0,61009:0:0:0:0:
109,192,60904,128,0,61009:0:0:0:0:
329,192,60904,128,0,61009:0:0:0:0:
475,192,60904,128,0,61220:0:0:0:0:
36,192,61115,128,0,61220:0:0:0:0:
182,192,61115,128,0,61432:0:0:0:0:
256,192,61115,128,0,61220:0:0:0:0:
402,192,61115,128,0,61220:0:0:0:0:
36,192,61326,128,0,61432:0:0:0:0:
109,192,61326,128,0,61432:0:0:0:0:
256,192,61326,128,0,61432:0:0:0:0:
402,192,61326,128,0,61432:0:0:0:0:
475,192,61326,128,0,61432:0:0:0:0:
475,192,61537,128,0,62066:0:0:0:0:
182,192,61537,128,0,61749:0:0:0:0:
109,192,61537,1,0,0:0:0:0:
36,192,61537,1,0,0:0:0:0:
256,192,61643,128,0,61854:0:0:0:0:
402,192,61643,128,0,61960:0:0:0:0:
329,192,61749,128,0,61854:0:0:0:0:
36,192,61749,1,0,0:0:0:0:
109,192,61854,1,0,0:0:0:0:
182,192,61960,1,0,0:0:0:0:
36,192,61960,128,0,62488:0:0:0:0:
329,192,61960,128,0,62171:0:0:0:0:
109,192,62066,128,0,62382:0:0:0:0:
256,192,62066,128,0,62277:0:0:0:0:
182,192,62171,128,0,62277:0:0:0:0:
475,192,62171,128,0,62382:0:0:0:0:
402,192,62277,128,0,62488:0:0:0:0:
329,192,62382,128,0,62594:0:0:0:0:
182,192,62382,1,0,0:0:0:0:
256,192,62488,128,0,62699:0:0:0:0:
109,192,62488,1,0,0:0:0:0:
182,192,62594,128,0,62805:0:0:0:0:
475,192,62594,128,0,62805:0:0:0:0:
36,192,62594,1,0,0:0:0:0:
109,192,62699,128,0,62911:0:0:0:0:
329,192,62699,1,0,0:0:0:0:
402,192,62805,128,0,63016:0:0:0:0:
256,192,62805,1,0,0:0:0:0:
36,192,62805,128,0,63016:0:0:0:0:
182,192,62911,1,0,0:0:0:0:
109,192,63016,1,0,0:0:0:0:
475,192,63016,128,0,63228:0:0:0:0:
329,192,63016,1,0,0:0:0:0:
256,192,63122,1,0,0:0:0:0:
36,192,63228,128,0,63439:0:0:0:0:
182,192,63228,128,0,63333:0:0:0:0:
402,192,63228,128,0,63333:0:0:0:0:
329,192,63228,128,0,63333:0:0:0:0:
256,192,63333,128,0,63439:0:0:0:0:
109,192,63439,128,0,63650:0:0:0:0:
329,192,63439,128,0,63544:0:0:0:0:
402,192,63544,128,0,63650:0:0:0:0:
36,192,63650,128,0,63861:0:0:0:0:
475,192,63650,128,0,63756:0:0:0:0:
256,192,63650,128,0,63756:0:0:0:0:
329,192,63756,128,0,63861:0:0:0:0:
109,192,63861,128,0,64073:0:0:0:0:
402,192,63861,128,0,63967:0:0:0:0:
475,192,63967,128,0,64073:0:0:0:0:
36,192,64073,128,0,64284:0:0:0:0:
182,192,64073,128,0,64178:0:0:0:0:
256,192,64073,128,0,64178:0:0:0:0:
329,192,64178,128,0,64284:0:0:0:0:
109,192,64284,128,0,64495:0:0:0:0:
402,192,64284,128,0,64390:0:0:0:0:
475,192,64390,128,0,64495:0:0:0:0:
36,192,64495,128,0,64918:0:0:0:0:
256,192,64495,128,0,64601:0:0:0:0:
329,192,64495,128,0,64601:0:0:0:0:
182,192,64706,128,0,64918:0:0:0:0:
329,192,64706,128,0,64812:0:0:0:0:
402,192,64706,128,0,64812:0:0:0:0:
475,192,64918,128,0,65129:0:0:0:0:
329,192,64918,128,0,65023:0:0:0:0:
109,192,64918,128,0,65023:0:0:0:0:
402,192,64918,128,0,65023:0:0:0:0:
256,192,65023,128,0,65129:0:0:0:0:
402,192,65129,128,0,65340:0:0:0:0:
182,192,65129,128,0,65235:0:0:0:0:
109,192,65235,128,0,65340:0:0:0:0:
475,192,65340,128,0,65551:0:0:0:0:
36,192,65340,128,0,65446:0:0:0:0:
256,192,65340,128,0,65446:0:0:0:0:
182,192,65446,128,0,65551:0:0:0:0:
402,192,65551,128,0,65763:0:0:0:0:
109,192,65551,128,0,65657:0:0:0:0:
36,192,65657,128,0,65763:0:0:0:0:
475,192,65763,128,0,65974:0:0:0:0:
256,192,65763,128,0,65868:0:0:0:0:
329,192,65763,128,0,65868:0:0:0:0:
182,192,65868,128,0,65974:0:0:0:0:
402,192,65974,128,0,66185:0:0:0:0:
109,192,65974,128,0,66080:0:0:0:0:
36,192,66080,128,0,66185:0:0:0:0:
475,192,66185,128,0,67453:0:0:0:0:
329,192,66185,128,0,66291:0:0:0:0:
182,192,66185,128,0,66291:0:0:0:0:
36,192,66397,128,0,67453:0:0:0:0:
109,192,66397,128,0,66502:0:0:0:0:
402,192,66397,128,0,66502:0:0:0:0:
256,192,66502,128,0,66608:0:0:0:0:
182,192,66608,128,0,66713:0:0:0:0:
329,192,66608,128,0,66713:0:0:0:0:
109,192,66713,128,0,66819:0:0:0:0:
402,192,66819,128,0,66925:0:0:0:0:
256,192,66819,128,0,66925:0:0:0:0:
182,192,66925,128,0,67030:0:0:0:0:
109,192,67030,128,0,67136:0:0:0:0:
329,192,67030,128,0,67136:0:0:0:0:
256,192,67136,128,0,67242:0:0:0:0:
182,192,67242,128,0,67347:0:0:0:0:
402,192,67242,128,0,67347:0:0:0:0:
329,192,67347,128,0,67453:0:0:0:0:
109,192,67453,128,0,67559:0:0:0:0:
256,192,67453,128,0,67559:0:0:0:0:
402,192,67559,128,0,67664:0:0:0:0:
182,192,67664,128,0,67770:0:0:0:0:
329,192,67664,128,0,67770:0:0:0:0:
475,192,67770,128,0,67875:0:0:0:0:
36,192,67875,128,0,67981:0:0:0:0:
109,192,67875,128,0,67981:0:0:0:0:
402,192,67875,128,0,67981:0:0:0:0:
256,192,67875,128,0,67981:0:0:0:0:
182,192,68087,128,0,68192:0:0:0:0:
329,192,68087,128,0,68192:0:0:0:0:
475,192,68087,128,0,69037:0:0:0:0:
36,192,68087,128,0,69037:0:0:0:0:
109,192,68298,128,0,68404:0:0:0:0:
402,192,68298,128,0,68404:0:0:0:0:
182,192,68298,128,0,68615:0:0:0:0:
329,192,68298,128,0,68615:0:0:0:0:
109,192,68509,128,0,68615:0:0:0:0:
402,192,68509,128,0,68615:0:0:0:0:
109,192,68720,128,0,69037:0:0:0:0:
182,192,68720,128,0,68826:0:0:0:0:
329,192,68720,128,0,68826:0:0:0:0:
402,192,68720,128,0,69037:0:0:0:0:
182,192,68932,128,0,69037:0:0:0:0:
329,192,68932,128,0,69037:0:0:0:0:
475,192,69143,128,0,69566:0:0:0:0:
36,192,69143,128,0,69566:0:0:0:0:
109,192,69143,1,0,0:0:0:0:
402,192,69143,1,0,0:0:0:0:
256,192,69143,1,0,0:0:0:0:
329,192,69249,1,0,0:0:0:0:
182,192,69249,1,0,0:0:0:0:
109,192,69354,1,0,0:0:0:0:
402,192,69354,1,0,0:0:0:0:
182,192,69460,1,0,0:0:0:0:
329,192,69460,1,0,0:0:0:0:
109,192,69566,1,0,0:0:0:0:
402,192,69566,1,0,0:0:0:0:
256,192,69566,1,0,0:0:0:0:
182,192,69671,1,0,0:0:0:0:
329,192,69671,1,0,0:0:0:0:
402,192,69777,1,0,0:0:0:0:
109,192,69777,1,0,0:0:0:0:
256,192,69882,1,0,0:0:0:0:
475,192,69988,128,0,70305:0:0:0:0:
402,192,69988,128,0,70094:0:0:0:0:
329,192,69988,128,0,70094:0:0:0:0:
109,192,69988,128,0,70094:0:0:0:0:
36,192,69988,128,0,70094:0:0:0:0:
182,192,69988,128,0,70305:0:0:0:0:
329,192,70199,128,0,70516:0:0:0:0:
402,192,70199,128,0,70305:0:0:0:0:
36,192,70199,128,0,70305:0:0:0:0:
109,192,70199,128,0,70305:0:0:0:0:
475,192,70411,128,0,70728:0:0:0:0:
402,192,70411,128,0,70516:0:0:0:0:
109,192,70411,128,0,70516:0:0:0:0:
182,192,70411,128,0,70516:0:0:0:0:
36,192,70411,128,0,70728:0:0:0:0:
402,192,70622,128,0,70728:0:0:0:0:
256,192,70622,128,0,70728:0:0:0:0:
109,192,70622,128,0,70728:0:0:0:0:
329,192,70622,128,0,70728:0:0:0:0:
36,192,70833,128,0,71150:0:0:0:0:
109,192,70833,128,0,70939:0:0:0:0:
182,192,70833,128,0,70939:0:0:0:0:
402,192,70833,128,0,70939:0:0:0:0:
475,192,70833,128,0,70939:0:0:0:0:
329,192,70833,128,0,71150:0:0:0:0:
475,192,71044,128,0,71150:0:0:0:0:
182,192,71044,128,0,71361:0:0:0:0:
109,192,71044,128,0,71150:0:0:0:0:
402,192,71044,128,0,71150:0:0:0:0:
36,192,71256,128,0,71573:0:0:0:0:
475,192,71256,128,0,71573:0:0:0:0:
402,192,71256,128,0,71361:0:0:0:0:
109,192,71256,128,0,71361:0:0:0:0:
329,192,71256,128,0,71361:0:0:0:0:
256,192,71467,128,0,71573:0:0:0:0:
109,192,71467,128,0,71573:0:0:0:0:
182,192,71467,128,0,71573:0:0:0:0:
402,192,71467,128,0,71573:0:0:0:0:
475,192,71678,128,0,72206:0:0:0:0:
329,192,71678,1,0,0:0:0:0:
109,192,71678,1,0,0:0:0:0:
36,192,71678,1,0,0:0:0:0:
182,192,71678,1,0,0:0:0:0:
402,192,71784,128,0,72101:0:0:0:0:
256,192,71784,1,0,0:0:0:0:
329,192,71890,128,0,71995:0:0:0:0:
182,192,71890,1,0,0:0:0:0:
36,192,71890,1,0,0:0:0:0:
256,192,71995,1,0,0:0:0:0:
329,192,72101,1,0,0:0:0:0:
36,192,72101,128,0,72629:0:0:0:0:
182,192,72101,1,0,0:0:0:0:
402,192,72206,1,0,0:0:0:0:
109,192,72206,128,0,72523:0:0:0:0:
182,192,72312,128,0,72418:0:0:0:0:
329,192,72312,1,0,0:0:0:0:
475,192,72312,1,0,0:0:0:0:
256,192,72418,1,0,0:0:0:0:
182,192,72523,1,0,0:0:0:0:
329,192,72523,128,0,72840:0:0:0:0:
402,192,72523,128,0,72840:0:0:0:0:
475,192,72523,128,0,72840:0:0:0:0:
109,192,72629,1,0,0:0:0:0:
182,192,72735,128,0,72840:0:0:0:0:
36,192,72735,128,0,72840:0:0:0:0:
256,192,72735,128,0,72840:0:0:0:0:
36,192,72946,128,0,73263:0:0:0:0:
109,192,72946,128,0,73263:0:0:0:0:
182,192,72946,128,0,73263:0:0:0:0:
329,192,72946,1,0,0:0:0:0:
402,192,72946,1,0,0:0:0:0:
475,192,72946,1,0,0:0:0:0:
256,192,73157,128,0,73263:0:0:0:0:
329,192,73157,128,0,73263:0:0:0:0:
475,192,73157,128,0,73263:0:0:0:0:
402,192,73157,128,0,73263:0:0:0:0:
36,192,73368,128,0,73685:0:0:0:0:
109,192,73368,128,0,73474:0:0:0:0:
256,192,73368,128,0,73474:0:0:0:0:
402,192,73368,128,0,73474:0:0:0:0:
475,192,73368,128,0,73474:0:0:0:0:
329,192,73368,128,0,73685:0:0:0:0:
182,192,73580,128,0,73897:0:0:0:0:
109,192,73580,128,0,73685:0:0:0:0:
475,192,73580,128,0,73685:0:0:0:0:
256,192,73580,128,0,73685:0:0:0:0:
36,192,73791,128,0,74108:0:0:0:0:
109,192,73791,128,0,73897:0:0:0:0:
402,192,73791,128,0,73897:0:0:0:0:
329,192,73791,128,0,73897:0:0:0:0:
475,192,73791,128,0,74108:0:0:0:0:
109,192,74002,128,0,74108:0:0:0:0:
256,192,74002,128,0,74108:0:0:0:0:
402,192,74002,128,0,74108:0:0:0:0:
182,192,74002,128,0,74108:0:0:0:0:
182,192,74213,128,0,74319:0:0:0:0:
36,192,74213,128,0,74319:0:0:0:0:
475,192,74213,128,0,74530:0:0:0:0:
402,192,74213,128,0,74319:0:0:0:0:
329,192,74213,128,0,74319:0:0:0:0:
402,192,74425,128,0,74530:0:0:0:0:
329,192,74425,128,0,74742:0:0:0:0:
109,192,74425,128,0,74530:0:0:0:0:
256,192,74425,128,0,74530:0:0:0:0:
402,192,74636,128,0,74742:0:0:0:0:
475,192,74636,128,0,74953:0:0:0:0:
182,192,74636,128,0,74742:0:0:0:0:
36,192,74636,128,0,74953:0:0:0:0:
109,192,74636,128,0,74742:0:0:0:0:
402,192,74847,128,0,74953:0:0:0:0:
256,192,74847,128,0,74953:0:0:0:0:
109,192,74847,128,0,74953:0:0:0:0:
329,192,74847,128,0,74953:0:0:0:0:
36,192,75059,128,0,75587:0:0:0:0:
182,192,75059,1,0,0:0:0:0:
402,192,75059,1,0,0:0:0:0:
475,192,75059,1,0,0:0:0:0:
329,192,75059,1,0,0:0:0:0:
109,192,75164,128,0,75481:0:0:0:0:
256,192,75164,1,0,0:0:0:0:
182,192,75270,128,0,75375:0:0:0:0:
329,192,75270,1,0,0:0:0:0:
475,192,75270,1,0,0:0:0:0:
256,192,75375,1,0,0:0:0:0:
182,192,75481,1,0,0:0:0:0:
475,192,75481,128,0,76009:0:0:0:0:
329,192,75481,1,0,0:0:0:0:
109,192,75587,1,0,0:0:0:0:
402,192,75587,128,0,75904:0:0:0:0:
329,192,75692,128,0,75798:0:0:0:0:
182,192,75692,1,0,0:0:0:0:
36,192,75692,1,0,0:0:0:0:
256,192,75798,1,0,0:0:0:0:
329,192,75904,1,0,0:0:0:0:
182,192,75904,1,0,0:0:0:0:
109,192,75904,1,0,0:0:0:0:
36,192,75904,1,0,0:0:0:0:
402,192,76009,1,0,0:0:0:0:
109,192,76115,1,0,0:0:0:0:
182,192,76115,1,0,0:0:0:0:
329,192,76115,1,0,0:0:0:0:
36,192,76115,1,0,0:0:0:0:
475,192,76115,1,0,0:0:0:0:
475,192,76326,128,0,76643:0:0:0:0:
402,192,76326,128,0,76643:0:0:0:0:
329,192,76326,128,0,76643:0:0:0:0:
182,192,76326,1,0,0:0:0:0:
109,192,76326,1,0,0:0:0:0:
36,192,76326,1,0,0:0:0:0:
256,192,76537,1,0,0:0:0:0:
36,192,76537,1,0,0:0:0:0:
182,192,76643,1,0,0:0:0:0:
109,192,76749,128,0,76854:0:0:0:0:
36,192,76749,128,0,76854:0:0:0:0:
329,192,76749,128,0,76854:0:0:0:0:
402,192,76749,128,0,76854:0:0:0:0:
475,192,76749,128,0,76854:0:0:0:0:
256,192,76749,128,0,76854:0:0:0:0:
182,192,76960,128,0,77066:0:0:0:0:
329,192,76960,128,0,77066:0:0:0:0:
109,192,76960,128,0,77066:0:0:0:0:
475,192,76960,128,0,77066:0:0:0:0:
182,192,77171,128,0,77277:0:0:0:0:
329,192,77171,128,0,77277:0:0:0:0:
256,192,77171,128,0,77277:0:0:0:0:
475,192,77171,128,0,77277:0:0:0:0:
36,192,77171,128,0,77277:0:0:0:0:
109,192,77382,128,0,77488:0:0:0:0:
36,192,77382,128,0,77488:0:0:0:0:
256,192,77382,128,0,77488:0:0:0:0:
402,192,77382,128,0,77488:0:0:0:0:
182,192,77488,128,0,77594:0:0:0:0:
109,192,77594,128,0,77699:0:0:0:0:
329,192,77594,128,0,77699:0:0:0:0:
475,192,77594,128,0,77699:0:0:0:0:
256,192,77594,128,0,77699:0:0:0:0:
402,192,77594,128,0,77699:0:0:0:0:
36,192,77805,128,0,77911:0:0:0:0:
182,192,77805,128,0,77911:0:0:0:0:
329,192,77805,128,0,77911:0:0:0:0:
475,192,77805,128,0,77911:0:0:0:0:
109,192,77805,128,0,77911:0:0:0:0:
475,192,78016,128,0,78333:0:0:0:0:
329,192,78016,128,0,78122:0:0:0:0:
182,192,78016,128,0,78122:0:0:0:0:
36,192,78016,128,0,78333:0:0:0:0:
256,192,78016,128,0,78122:0:0:0:0:
402,192,78228,128,0,78756:0:0:0:0:
109,192,78228,128,0,78756:0:0:0:0:
256,192,78228,128,0,78756:0:0:0:0:
36,192,78650,128,0,78756:0:0:0:0:
182,192,78650,128,0,78756:0:0:0:0:
329,192,78650,128,0,78756:0:0:0:0:
475,192,78650,128,0,78756:0:0:0:0:
36,192,78861,128,0,79073:0:0:0:0:
109,192,78861,128,0,78967:0:0:0:0:
256,192,78861,128,0,78967:0:0:0:0:
402,192,78861,128,0,78967:0:0:0:0:
182,192,79073,128,0,79178:0:0:0:0:
329,192,79073,128,0,79178:0:0:0:0:
475,192,79073,128,0,79284:0:0:0:0:
36,192,79284,128,0,79390:0:0:0:0:
256,192,79284,128,0,79390:0:0:0:0:
402,192,79284,128,0,79390:0:0:0:0:
109,192,79284,128,0,79390:0:0:0:0:
182,192,79495,128,0,79601:0:0:0:0:
475,192,79495,128,0,79601:0:0:0:0:
329,192,79495,128,0,79601:0:0:0:0:
402,192,79495,128,0,79601:0:0:0:0:
109,192,79706,128,0,79812:0:0:0:0:
256,192,79706,128,0,79812:0:0:0:0:
329,192,79706,128,0,79812:0:0:0:0:
36,192,79706,128,0,79812:0:0:0:0:
475,192,79918,128,0,80974:0:0:0:0:
182,192,79918,128,0,80340:0:0:0:0:
256,192,79918,128,0,80551:0:0:0:0:
329,192,79918,128,0,80763:0:0:0:0:
402,192,79918,128,0,80974:0:0:0:0:
109,192,80340,1,0,0:0:0:0:
36,192,80340,1,0,0:0:0:0:
109,192,80551,1,0,0:0:0:0:
182,192,80551,1,0,0:0:0:0:
182,192,80763,1,0,0:0:0:0:
256,192,80763,1,0,0:0:0:0:
256,192,80974,1,0,0:0:0:0:
329,192,80974,1,0,0:0:0:0:
109,192,80974,1,0,0:0:0:0:
36,192,80974,1,0,0:0:0:0:
109,192,81185,1,0,0:0:0:0:
182,192,81185,1,0,0:0:0:0:
329,192,81185,1,0,0:0:0:0:
402,192,81185,1,0,0:0:0:0:
182,192,81397,1,0,0:0:0:0:
402,192,81397,1,0,0:0:0:0:
475,192,81397,1,0,0:0:0:0:
256,192,81397,1,0,0:0:0:0:
256,192,81607,1,0,0:0:0:0:
329,192,81607,1,0,0:0:0:0:
475,192,81607,1,0,0:0:0:0:
36,192,81607,128,0,82241:0:0:0:0:
109,192,81607,128,0,82241:0:0:0:0:
402,192,82030,128,0,82663:0:0:0:0:
475,192,82030,128,0,82663:0:0:0:0:
182,192,82241,128,0,82452:0:0:0:0:
329,192,82241,128,0,82346:0:0:0:0:
36,192,82452,128,0,83086:0:0:0:0:
329,192,82452,1,0,0:0:0:0:
182,192,82558,1,0,0:0:0:0:
109,192,82663,1,0,0:0:0:0:
256,192,82663,1,0,0:0:0:0:
329,192,82663,1,0,0:0:0:0:
182,192,82875,128,0,83086:0:0:0:0:
329,192,82875,1,0,0:0:0:0:
329,192,83086,128,0,85621:0:0:0:0:
402,192,83086,1,0,0:0:0:0:
475,192,83086,1,0,0:0:0:0:
36,192,83297,1,0,0:0:0:0:
109,192,83403,1,0,0:0:0:0:
475,192,83508,128,0,84353:0:0:0:0:
256,192,83508,1,0,0:0:0:0:
182,192,83508,128,0,85621:0:0:0:0:
