osu file format v14

[General]
AudioFilename: audio.mp3
AudioLeadIn: 0
PreviewTime: 58476
Countdown: 0
SampleSet: None
StackLeniency: 0.7
Mode: 0
LetterboxInBreaks: 0
WidescreenStoryboard: 0

[Editor]
DistanceSpacing: 0.5
BeatDivisor: 4
GridSize: 4
TimelineZoom: 2.2

[Metadata]
Title:Harumachi Clover
TitleUnicode:春待ちクローバー
Artist:Hanasaka Yui(CV: M.A.O)
ArtistUnicode:花坂結衣(CV:M・A・O)
Creator:Onlybiscuit
Version:Spring
Source:oneroom
Tags:Hanasaka Yui Harumachi Clover Anime opening kantoku カントク typhoon graphics ワンルーム one room Full Song
BeatmapID:1581573
BeatmapSetID:735877

[Difficulty]
HPDrainRate:5
CircleSize:4
OverallDifficulty:9
ApproachRate:9
SliderMultiplier:2
SliderTickRate:1

[Events]
//Background and Video events
0,0,"snapshot20170402114802.jpg",0,0
//Break Periods
//Storyboard Layer 0 (Background)
//Storyboard Layer 1 (Fail)
//Storyboard Layer 2 (Pass)
//Storyboard Layer 3 (Foreground)
//Storyboard Sound Samples

[TimingPoints]
3547,422.535211267606,4,1,0,80,1,0
3547,-133.333333333333,4,1,0,80,0,0
44321,-100,4,1,0,80,0,0
59532,-100,4,1,0,80,0,1
89955,-66.6666666666667,4,1,0,80,0,0
90377,-133.333333333333,4,1,0,80,0,0
118687,-100,4,1,0,80,0,1
145730,-100,4,1,0,80,0,0
162420,-66.6666666666667,4,1,0,80,0,0
172983,-133.333333333333,4,1,0,80,0,0
174145,-100,4,1,0,80,0,0
204885,-100,4,1,0,80,0,1
204985,-100,4,1,0,80,0,1
219885,-200,4,1,0,80,0,1
224321,-100,4,1,0,80,0,0
238793,-100,4,1,0,40,0,0

[Colours]
Combo1 : 255,255,255
Combo2 : 255,128,255

[HitObjects]
387,196,3547,5,0,0:0:0:0:
387,196,3652,1,0,0:0:0:0:
387,196,3758,2,0,L|320:140,1,75.0000028610231
214,141,4180,1,0,0:0:0:0:
252,242,4392,2,0,L|185:303,2,75.0000028610231
329,147,5025,5,0,0:0:0:0:
252,68,5237,1,0,0:0:0:0:
185,130,5448,1,0,0:0:0:0:
185,130,5554,1,0,0:0:0:0:
185,130,5659,2,0,L|252:192,1,75.0000028610231
242,339,6082,5,0,0:0:0:0:
242,339,6187,1,0,0:0:0:0:
242,339,6293,2,0,L|168:268,1,75.0000028610231
185,130,6716,2,0,L|117:182,1,75.0000028610231
114,268,7138,6,0,P|53:228|41:130,1,150.000005722046
117,90,7772,1,0,0:0:0:0:
117,90,7877,1,0,0:0:0:0:
117,90,7983,2,0,L|180:150,1,75.0000028610231
266,74,8406,1,0,0:0:0:0:
386,148,8617,5,0,0:0:0:0:
386,148,8723,1,0,0:0:0:0:
386,148,8828,2,0,L|320:216,1,75.0000028610231
431,277,9251,1,0,0:0:0:0:
306,327,9462,1,0,0:0:0:0:
333,201,9673,5,2,0:3:0:0:
240,290,9885,1,2,0:3:0:0:
220,126,10096,1,2,0:3:0:0:
306,327,10307,1,2,0:3:0:0:
151,305,10518,6,0,P|174:240|253:197,1,150.000005722046
306,327,11152,1,0,0:0:0:0:
306,327,11258,1,0,0:0:0:0:
306,327,11363,2,0,L|214:275,1,75.0000028610231
220,126,11786,6,0,L|244:208,1,75.0000028610231
344,173,12208,2,0,L|320:88,1,75.0000028610231
258,38,12631,1,0,0:0:0:0:
154,90,12842,1,0,0:0:0:0:
154,90,12948,1,0,0:0:0:0:
154,90,13054,2,0,L|246:140,1,75.0000028610231
323,100,13476,1,0,0:0:0:0:
323,100,13899,5,0,0:0:0:0:
184,251,14110,2,0,L|253:187,1,75.0000028610231
399,89,14532,1,0,0:0:0:0:
168,129,14744,1,0,0:0:0:0:
310,235,14955,1,0,0:0:0:0:
71,231,15166,5,0,0:0:0:0:
83,243,15377,2,0,L|142:289,1,75.0000028610231
278,260,15800,1,0,0:0:0:0:
303,236,15906,1,0,0:0:0:0:
320,205,16011,1,0,0:0:0:0:
325,171,16117,1,0,0:0:0:0:
319,137,16223,1,0,0:0:0:0:
180,70,16434,5,0,0:0:0:0:
240,181,16645,1,0,0:0:0:0:
81,169,16856,2,0,P|22:205|4:286,1,150.000005722046
88,257,17701,6,0,L|160:320,1,75.0000028610231
271,246,18124,2,0,L|204:188,1,75.0000028610231
155,86,18547,1,0,0:0:0:0:
166,82,18758,2,0,L|238:42,1,75.0000028610231
364,116,19180,5,0,0:0:0:0:
416,272,19392,1,0,0:0:0:0:
300,211,19603,2,0,L|240:266,1,75.0000028610231
121,211,20025,1,0,0:0:0:0:
167,318,20237,1,0,0:0:0:0:
263,97,20448,1,0,0:0:0:0:
179,163,20659,2,0,L|118:215,1,75.0000028610231
97,346,21082,2,0,L|183:311,1,75.0000028610231
272,284,21504,1,0,0:0:0:0:
398,272,21716,5,0,0:0:0:0:
318,142,21927,1,0,0:0:0:0:
272,284,22138,1,0,0:0:0:0:
186,171,22349,2,0,L|140:245,1,75.0000028610231
169,320,22772,1,0,0:0:0:0:
333,207,22983,1,0,0:0:0:0:
186,171,23194,1,0,0:0:0:0:
169,320,23406,5,0,0:0:0:0:
28,196,23617,1,0,0:0:0:0:
282,262,23828,1,0,0:0:0:0:
131,119,24039,2,0,L|195:180,1,75.0000028610231
333,207,24462,6,0,L|277:269,1,75.0000028610231
185,170,24885,2,0,L|236:108,1,75.0000028610231
364,145,25307,1,0,0:0:0:0:
282,262,25518,2,0,L|210:209,1,75.0000028610231
157,123,25941,1,0,0:0:0:0:
311,147,26152,1,0,0:0:0:0:
187,40,26363,2,0,L|254:93,1,75.0000028610231
365,219,26786,5,0,0:0:0:0:
182,232,26997,1,0,0:0:0:0:
238,157,27208,1,0,0:0:0:0:
304,296,27420,1,0,0:0:0:0:
389,125,27631,1,0,0:0:0:0:
245,86,27842,1,0,0:0:0:0:
391,244,28054,1,0,0:0:0:0:
180,281,28265,6,0,L|255:220,1,75.0000028610231
245,86,28687,2,0,L|280:52,2,37.5000014305115
292,285,29110,2,0,L|225:222,1,75.0000028610231
71,275,29532,1,0,0:0:0:0:
245,86,29744,1,0,0:0:0:0:
236,98,29955,2,0,L|167:166,1,75.0000028610231
146,293,30377,5,0,0:0:0:0:
281,186,30589,1,0,0:0:0:0:
335,334,30800,1,0,0:0:0:0:
360,170,31223,6,0,P|339:124|238:116,1,150.000005722046
240,128,32068,1,0,0:0:0:0:
344,234,32279,2,0,L|254:287,1,75.0000028610231
144,212,32701,1,0,0:0:0:0:
186,334,32913,1,0,0:0:0:0:
279,272,33124,2,0,L|291:174,1,75.0000028610231
412,114,33547,5,0,0:0:0:0:
277,59,33758,1,0,0:0:0:0:
394,262,33969,1,0,0:0:0:0:
218,159,34180,2,0,L|296:203,1,75.0000028610231
349,336,34603,2,0,L|275:298,1,75.0000028610231
194,261,35025,1,0,0:0:0:0:
106,219,35237,1,0,0:0:0:0:
220,177,35448,1,0,0:0:0:0:
125,316,35659,1,0,0:0:0:0:
112,137,35870,5,0,0:0:0:0:
209,82,36082,1,0,0:0:0:0:
168,208,36293,1,0,0:0:0:0:
49,104,36504,1,0,0:0:0:0:
269,149,36716,1,0,0:0:0:0:
72,238,36927,1,0,0:0:0:0:
209,82,37138,1,0,0:0:0:0:
262,283,37349,1,0,0:0:0:0:
196,168,37561,6,0,L|272:148,1,75.0000028610231
439,186,37983,2,0,L|383:241,1,75.0000028610231
262,283,38406,2,0,L|313:342,1,75.0000028610231
429,302,38828,1,0,0:0:0:0:
342,184,39039,2,0,L|239:183,1,75.0000028610231
182,263,39462,1,0,0:0:0:0:
76,192,39673,1,0,0:0:0:0:
158,114,39885,2,0,L|246:114,1,75.0000028610231
282,228,40307,5,0,0:0:0:0:
76,192,40518,1,0,0:0:0:0:
252,64,40730,1,0,0:0:0:0:
282,228,40941,2,0,L|389:106,1,150.000005722046
345,25,41575,1,0,0:0:0:0:
252,64,41786,2,0,L|187:139,1,75.0000028610231
254,174,42208,2,0,L|199:117,1,75.0000028610231
80,71,42631,5,0,0:0:0:0:
44,171,42842,1,0,0:0:0:0:
201,120,43054,1,0,0:0:0:0:
111,268,43265,1,0,0:0:0:0:
273,212,43476,5,0,0:0:0:0:
273,212,43582,1,0,0:0:0:0:
273,212,43687,1,0,0:0:0:0:
289,222,43793,1,0,0:0:0:0:
322,231,43899,1,0,0:0:0:0:
357,232,44004,1,0,0:0:0:0:
391,223,44110,1,0,0:0:0:0:
413,94,44321,6,0,P|373:67|299:74,1,100
291,172,44744,1,0,0:0:0:0:
158,110,44955,2,0,P|127:151|135:216,1,100
291,172,45377,1,0,0:0:0:0:
228,287,45589,1,0,0:0:0:0:
387,238,45800,1,0,0:0:0:0:
307,349,46011,2,0,L|206:270,1,100
94,140,46434,6,0,P|62:181|67:232,1,100
119,298,46856,2,0,P|150:256|148:199,1,100
100,63,47279,1,0,0:0:0:0:
220,155,47490,1,0,0:0:0:0:
201,32,47701,2,0,L|303:81,1,100
387,159,48124,5,0,0:0:0:0:
219,214,48335,1,0,0:0:0:0:
291,75,48547,1,0,0:0:0:0:
349,261,48758,1,0,0:0:0:0:
220,141,48969,1,0,0:0:0:0:
432,255,49180,2,0,P|422:305|379:336,1,100
282,219,49603,5,0,0:0:0:0:
387,113,49814,1,0,0:0:0:0:
375,98,50025,2,0,P|328:76|274:90,1,100
308,200,50448,1,0,0:0:0:0:
159,159,50659,1,0,0:0:0:0:
129,167,50765,1,0,0:0:0:0:
102,183,50870,1,0,0:0:0:0:
153,323,51082,5,0,0:0:0:0:
213,171,51293,1,0,0:0:0:0:
316,297,51504,1,0,0:0:0:0:
70,333,51716,2,0,P|79:282|121:246,1,100
233,322,52138,5,0,0:0:0:0:
140,177,52349,1,0,0:0:0:0:
333,215,52561,2,0,P|378:239|399:292,1,100
193,254,52983,1,0,0:0:0:0:
301,109,53194,1,0,0:0:0:0:
56,188,53406,2,0,P|76:235|127:259,1,100
183,69,53828,5,0,0:0:0:0:
196,78,54039,2,0,P|241:101|258:154,1,100
239,232,54462,2,0,P|193:208|173:153,1,100
289,61,54885,1,0,0:0:0:0:
290,201,55096,1,0,0:0:0:0:
408,87,55307,1,0,0:0:0:0:
392,257,55518,1,0,0:0:0:0:
275,119,55730,2,0,P|229:142|207:195,1,100
330,325,56152,5,0,0:0:0:0:
190,271,56363,1,0,0:0:0:0:
290,201,56575,1,0,0:0:0:0:
258,334,56786,1,0,0:0:0:0:
107,260,56997,2,0,P|127:212|173:189,1,100
258,334,57420,5,0,0:0:0:0:
358,197,57631,1,0,0:0:0:0:
149,223,57842,1,0,0:0:0:0:
379,299,58054,1,0,0:0:0:0:
269,105,58265,1,0,0:0:0:0:
199,272,58476,5,0,0:0:0:0:
391,133,58687,1,0,0:0:0:0:
108,120,58899,1,0,0:0:0:0:
380,264,59110,1,0,0:0:0:0:
108,294,59321,1,0,0:0:0:0:
120,78,59532,5,0,0:0:0:0:
204,197,59744,1,0,0:0:0:0:
218,46,59955,1,0,0:0:0:0:
116,256,60166,1,0,0:0:0:0:
196,116,60377,5,0,0:1:0:0:
272,320,60589,1,0,0:0:0:0:
372,136,60800,1,0,0:0:0:0:
130,185,61011,1,0,0:0:0:0:
339,256,61223,1,0,0:0:0:0:
221,69,61434,1,0,0:0:0:0:
238,298,61645,1,0,0:0:0:0:
172,196,61856,5,4,0:2:0:0:
399,88,62068,1,4,0:2:0:0:
198,281,62279,1,4,0:2:0:0:
334,32,62490,1,4,0:2:0:0:
130,194,62701,5,0,0:0:0:0:
231,85,62913,1,0,0:0:0:0:
246,287,63124,1,0,0:0:0:0:
120,68,63335,1,0,0:0:0:0:
364,200,63547,1,0,0:0:0:0:
104,152,63758,1,0,0:0:0:0:
252,312,63969,5,0,0:0:0:0:
223,57,64180,1,0,0:0:0:0:
396,152,64392,1,0,0:0:0:0:
163,253,64603,1,0,0:0:0:0:
320,140,64814,1,0,0:0:0:0:
139,98,65025,1,0,0:0:0:0:
321,247,65237,5,4,0:2:0:0:
183,173,65448,1,4,0:2:0:0:
440,224,65659,1,4,0:2:0:0:
136,296,65870,1,4,0:2:0:0:
408,156,66082,5,0,0:0:0:0:
212,76,66293,1,0,0:0:0:0:
384,264,66504,1,0,0:0:0:0:
368,48,66716,1,0,0:0:0:0:
204,196,66927,1,0,0:0:0:0:
388,148,67138,1,0,0:0:0:0:
180,88,67349,1,0,0:0:0:0:
264,333,67561,1,0,0:0:0:0:
131,230,67772,5,0,0:0:0:0:
98,188,67877,1,0,0:0:0:0:
85,138,67983,1,0,0:0:0:0:
122,43,68194,1,0,0:0:0:0:
305,67,68406,5,0,0:0:0:0:
167,178,68617,1,0,0:0:0:0:
410,133,68828,1,0,0:0:0:0:
167,111,69039,1,0,0:0:0:0:
367,246,69251,1,0,0:0:0:0:
130,275,69462,5,0,0:0:0:0:
130,275,69568,1,0,0:0:0:0:
130,275,69673,2,0,L|173:178,1,100
285,57,70096,2,0,L|324:195,1,100
357,339,70518,2,0,L|236:259,1,100
110,183,70941,5,0,0:0:0:0:
220,94,71152,1,0,0:0:0:0:
224,308,71363,1,4,0:2:0:0:
112,85,71575,1,0,0:0:0:0:
323,186,71786,1,4,0:2:0:0:
76,272,71997,1,0,0:0:0:0:
233,74,72208,1,4,0:2:0:0:
8,168,72420,1,0,0:0:0:0:
212,145,72631,5,4,0:2:0:0:
263,149,72737,1,4,0:2:0:0:
308,175,72842,1,4,0:2:0:0:
340,216,72948,1,4,0:2:0:0:
351,268,73054,1,4,0:2:0:0:
88,328,73265,5,0,0:0:0:0:
252,220,73476,1,0,0:0:0:0:
40,168,73687,1,0,0:0:0:0:
188,64,73899,1,0,0:0:0:0:
64,156,74110,1,0,0:0:0:0:
304,172,74321,1,0,0:0:0:0:
140,260,74532,5,0,0:0:0:0:
288,60,74744,1,0,0:0:0:0:
372,248,74955,1,0,0:0:0:0:
124,168,75166,1,0,0:0:0:0:
292,119,75377,5,4,0:2:0:0:
128,264,75589,1,4,0:2:0:0:
172,80,75800,1,4,0:2:0:0:
260,316,76011,1,4,0:2:0:0:
136,208,76223,5,0,0:0:0:0:
233,69,76434,1,0,0:0:0:0:
388,251,76645,1,0,0:0:0:0:
326,74,76856,1,0,0:0:0:0:
308,344,77068,1,0,0:0:0:0:
144,168,77279,1,0,0:0:0:0:
274,308,77490,5,0,0:0:0:0:
319,98,77701,1,0,0:0:0:0:
448,228,77913,1,0,0:0:0:0:
207,128,78124,1,0,0:0:0:0:
345,331,78335,1,0,0:0:0:0:
422,89,78547,1,0,0:0:0:0:
264,256,78758,5,4,0:2:0:0:
200,56,78969,1,4,0:2:0:0:
424,224,79180,1,4,0:2:0:0:
240,96,79392,5,4,0:2:0:0:
193,72,79497,1,0,0:0:0:0:
141,69,79603,1,0,0:0:0:0:
92,87,79708,1,0,0:0:0:0:
55,123,79814,1,0,0:0:0:0:
207,316,80025,5,0,0:0:0:0:
174,177,80237,1,0,0:0:0:0:
316,320,80448,1,0,0:0:0:0:
11,245,80659,1,0,0:0:0:0:
153,105,80870,1,0,0:0:0:0:
100,328,81082,5,0,0:0:0:0:
304,208,81293,2,0,P|236:120|113:118,1,200
200,304,81927,1,0,0:0:0:0:
64,200,82138,1,0,0:0:0:0:
284,228,82349,1,0,0:0:0:0:
40,128,82561,1,0,0:0:0:0:
244,64,82772,1,0,0:0:0:0:
172,268,82983,1,0,0:0:0:0:
216,252,83406,5,0,0:0:0:0:
92,92,83617,1,0,0:0:0:0:
64,256,83828,1,0,0:0:0:0:
64,256,83934,1,0,0:0:0:0:
68,260,84039,2,0,P|112:296|194:288,1,100
144,108,84462,1,0,0:0:0:0:
164,248,84673,5,0,0:0:0:0:
272,56,84885,1,0,0:0:0:0:
352,252,85096,1,0,0:0:0:0:
144,108,85307,1,0,0:0:0:0:
376,136,85518,1,0,0:0:0:0:
164,248,85730,1,0,0:0:0:0:
246,82,85941,1,0,0:0:0:0:
88,208,86152,5,0,0:0:0:0:
91,259,86258,1,0,0:0:0:0:
117,305,86363,1,0,0:0:0:0:
255,279,86575,5,0,0:0:0:0:
401,225,86786,1,0,0:0:0:0:
268,120,86997,1,0,0:0:0:0:
184,276,87208,5,0,0:0:0:0:
424,188,87420,1,0,0:0:0:0:
152,124,87631,1,0,0:0:0:0:
288,308,87842,5,0,0:0:0:0:
388,96,88054,1,0,0:0:0:0:
76,144,88265,1,0,0:0:0:0:
328,248,88476,5,0,0:0:0:0:
272,32,88687,1,0,0:0:0:0:
120,188,88899,1,0,0:0:0:0:
408,256,89110,2,0,P|386:302|334:332,1,100
112,119,89532,2,0,P|48:189|116:259,1,200
204,92,90377,6,0,L|259:163,1,75.0000028610231
418,258,90800,2,0,L|363:183,1,75.0000028610231
320,121,91223,1,0,0:0:0:0:
264,316,91434,2,0,L|347:258,1,75.0000028610231
444,172,91856,1,0,0:0:0:0:
224,64,92068,1,0,0:0:0:0:
254,206,92279,2,0,L|281:119,1,75.0000028610231
356,48,92701,5,0,0:0:0:0:
444,172,92913,1,0,0:0:0:0:
276,134,93124,2,0,L|303:223,2,75.0000028610231
220,29,93758,5,0,0:0:0:0:
81,121,93969,1,0,0:0:0:0:
211,214,94180,1,0,0:0:0:0:
264,84,94392,5,0,0:0:0:0:
148,160,94603,1,0,0:0:0:0:
248,280,94814,2,0,L|199:193,1,75.0000028610231
92,172,95237,5,0,0:0:0:0:
176,64,95448,1,0,0:0:0:0:
160,272,95659,1,0,0:0:0:0:
92,56,95870,1,0,0:0:0:0:
334,236,96082,1,0,0:0:0:0:
64,208,96293,1,0,0:0:0:0:
276,145,96504,1,0,0:0:0:0:
92,56,96716,2,0,L|177:72,1,75.0000028610231
312,80,97138,6,0,L|271:155,1,75.0000028610231
192,231,97561,2,0,L|286:217,1,75.0000028610231
420,216,97983,1,0,0:0:0:0:
406,211,98194,2,0,L|327:175,1,75.0000028610231
260,68,98617,1,0,0:0:0:0:
230,234,98828,1,0,0:0:0:0:
128,120,99039,1,0,0:0:0:0:
120,144,99462,5,0,0:0:0:0:
230,234,99673,1,0,0:0:0:0:
111,303,99885,1,0,0:0:0:0:
228,156,100096,2,0,P|288:172|297:263,1,150.000005722046
159,320,100730,1,0,0:0:0:0:
232,79,100941,2,0,P|167:98|156:175,1,150.000005722046
413,224,101575,1,0,0:0:0:0:
228,156,101786,5,0,0:0:0:0:
443,129,101997,1,0,0:0:0:0:
298,264,102208,1,0,0:0:0:0:
347,36,102420,1,0,0:0:0:0:
188,100,102631,5,0,0:0:0:0:
156,116,102737,1,0,0:0:0:0:
132,144,102842,1,0,0:0:0:0:
259,203,103054,1,0,0:0:0:0:
291,187,103159,1,0,0:0:0:0:
315,159,103265,1,0,0:0:0:0:
241,39,103476,6,0,L|164:56,1,75.0000028610231
48,144,103899,1,0,0:0:0:0:
177,183,104110,2,0,L|250:161,1,75.0000028610231
324,47,104532,1,0,0:0:0:0:
388,179,104744,1,0,0:0:0:0:
236,132,104955,1,0,0:0:0:0:
352,313,105166,2,0,L|312:249,1,75.0000028610231
428,73,105589,2,0,L|371:126,1,75.0000028610231
190,292,106011,2,0,L|243:231,1,75.0000028610231
321,39,106434,5,0,0:0:0:0:
202,101,106645,1,0,0:0:0:0:
340,230,106856,2,0,L|269:170,1,75.0000028610231
321,39,107279,2,0,L|394:98,1,75.0000028610231
340,230,107701,1,0,0:0:0:0:
164,214,107913,5,0,0:0:0:0:
109,351,108124,1,0,0:0:0:0:
268,244,108335,2,0,L|184:301,1,75.0000028610231
58,251,108758,1,0,0:0:0:0:
196,71,108969,1,0,0:0:0:0:
23,73,109180,2,0,L|98:137,1,75.0000028610231
195,215,109603,1,0,0:0:0:0:
196,34,109814,2,0,L|196:89,2,37.5000014305115
358,161,110237,5,0,0:0:0:0:
189,128,110448,1,0,0:0:0:0:
278,278,110659,1,0,0:0:0:0:
307,63,110870,1,0,0:0:0:0:
308,77,111293,5,0,0:0:0:0:
163,224,111504,1,0,0:0:0:0:
366,148,111716,2,0,L|411:135,2,37.5000014305115
234,42,112138,1,0,0:0:0:0:
287,262,112349,1,0,0:0:0:0:
99,149,112561,1,0,0:0:0:0:
99,149,112983,5,0,0:0:0:0:
224,104,113194,1,0,0:0:0:0:
181,267,113406,1,0,0:0:0:0:
90,76,113617,1,0,0:0:0:0:
283,184,113828,1,0,0:0:0:0:
54,220,114039,1,0,0:0:0:0:
260,37,114251,1,0,0:0:0:0:
340,232,114462,6,0,L|283:184,1,75.0000028610231
54,220,114885,2,0,L|129:169,1,75.0000028610231
242,64,115307,5,0,0:0:0:0:
299,218,115518,1,0,0:0:0:0:
315,50,115730,1,0,0:0:0:0:
261,317,115941,1,0,0:0:0:0:
192,123,116152,1,0,0:0:0:0:
335,310,116363,1,0,0:0:0:0:
80,224,116575,1,0,0:0:0:0:
400,329,116786,1,0,0:0:0:0:
192,123,116997,6,0,L|126:167,2,75.0000028610231
414,200,117631,5,0,0:0:0:0:
129,164,117842,1,0,0:0:0:0:
440,128,118054,1,0,0:0:0:0:
84,228,118265,1,0,0:0:0:0:
314,61,118476,1,0,0:0:0:0:
354,257,118687,6,0,L|288:167,1,100
115,73,119110,2,0,L|181:163,1,100
167,322,119532,2,0,L|233:232,1,100
350,99,119955,5,0,0:0:0:0:
226,241,120166,1,0,0:0:0:0:
435,223,120377,1,0,0:0:0:0:
134,200,120589,2,0,L|247:250,1,100
378,167,121011,5,4,0:2:0:0:
231,50,121223,1,4,0:2:0:0:
269,256,121434,1,4,0:2:0:0:
318,42,121645,1,4,0:2:0:0:
187,266,121856,5,0,0:0:0:0:
262,84,122068,1,0,0:0:0:0:
89,152,122279,1,0,0:0:0:0:
326,214,122490,1,0,0:0:0:0:
162,67,122701,1,0,0:0:0:0:
195,323,122913,1,0,0:0:0:0:
269,123,123124,5,0,0:0:0:0:
93,235,123335,1,0,0:0:0:0:
374,211,123547,1,0,0:0:0:0:
190,78,123758,1,0,0:0:0:0:
110,271,123969,1,0,0:0:0:0:
233,119,124180,1,0,0:0:0:0:
33,293,124392,5,4,0:2:0:0:
118,106,124603,1,4,0:2:0:0:
273,261,124814,1,4,0:2:0:0:
233,61,125025,1,4,0:2:0:0:
128,280,125237,5,0,0:0:0:0:
224,136,125448,1,0,0:0:0:0:
340,296,125659,1,0,0:0:0:0:
160,200,125870,1,0,0:0:0:0:
283,83,126082,1,0,0:0:0:0:
307,274,126293,1,0,0:0:0:0:
100,139,126504,2,0,P|163:91|224:65,1,100
383,138,126927,5,0,0:0:0:0:
383,138,127032,1,0,0:0:0:0:
383,138,127138,2,0,L|443:117,2,50
157,249,127561,1,0,0:0:0:0:
271,148,127772,1,0,0:0:0:0:
227,367,127983,1,0,0:0:0:0:
349,228,128194,1,0,0:0:0:0:
84,280,128406,5,0,0:0:0:0:
271,148,128617,1,0,0:0:0:0:
36,76,128828,1,0,0:0:0:0:
136,218,129039,1,0,0:0:0:0:
244,79,129251,1,0,0:0:0:0:
254,282,129462,1,0,0:0:0:0:
355,75,129673,1,0,0:0:0:0:
152,143,129885,1,0,0:0:0:0:
170,336,130096,2,0,L|267:274,1,100
400,210,130518,5,4,0:2:0:0:
204,47,130730,1,0,0:0:0:0:
496,134,130941,1,4,0:2:0:0:
223,246,131152,1,0,0:0:0:0:
420,40,131363,1,4,0:2:0:0:
196,143,131575,5,4,0:2:0:0:
163,159,131680,1,4,0:2:0:0:
133,181,131786,1,4,0:2:0:0:
107,207,131892,1,4,0:2:0:0:
86,237,131997,1,4,0:2:0:0:
285,326,132208,5,0,0:0:0:0:
214,136,132420,1,0,0:0:0:0:
190,336,132631,1,0,0:0:0:0:
301,82,132842,1,0,0:0:0:0:
236,303,133054,1,0,0:0:0:0:
232,50,133265,1,0,0:0:0:0:
293,281,133476,6,0,L|229:193,1,100
146,46,133899,1,0,0:0:0:0:
351,128,134110,1,0,0:0:0:0:
213,319,134321,1,0,0:0:0:0:
103,147,134532,5,4,0:2:0:0:
330,119,134744,1,4,0:2:0:0:
213,319,134955,1,4,0:2:0:0:
185,105,135166,1,4,0:2:0:0:
333,292,135377,5,0,0:0:0:0:
400,123,135589,1,0,0:0:0:0:
167,183,135800,1,0,0:0:0:0:
322,34,136011,1,0,0:0:0:0:
408,265,136223,1,0,0:0:0:0:
184,139,136434,1,0,0:0:0:0:
439,124,136645,1,0,0:0:0:0:
237,279,136856,1,0,0:0:0:0:
288,59,137068,5,0,0:0:0:0:
408,255,137279,1,0,0:0:0:0:
183,182,137490,1,0,0:0:0:0:
473,194,137701,1,0,0:0:0:0:
319,60,137913,1,4,0:2:0:0:
274,35,138018,1,4,0:2:0:0:
223,43,138124,1,4,0:2:0:0:
95,203,138335,1,4,0:2:0:0:
272,123,138547,1,4,0:2:0:0:
334,335,138758,5,0,0:0:0:0:
152,208,138969,1,0,0:0:0:0:
404,268,139180,1,0,0:0:0:0:
304,96,139392,1,0,0:0:0:0:
224,344,139603,1,0,0:0:0:0:
164,108,139814,1,0,0:0:0:0:
268,280,140025,5,0,0:0:0:0:
272,104,140237,1,0,0:0:0:0:
100,288,140448,2,0,P|142:332|177:324,1,100
148,88,140870,5,0,0:0:0:0:
366,221,141082,1,0,0:0:0:0:
106,243,141293,1,0,0:0:0:0:
351,74,141504,1,0,0:0:0:0:
285,320,141716,1,0,0:0:0:0:
113,148,141927,5,0,0:0:0:0:
276,36,142138,2,0,P|323:34|351:73,1,100
224,256,142561,1,0,0:0:0:0:
441,88,142772,1,0,0:0:0:0:
401,293,142983,1,0,0:0:0:0:
249,112,143194,1,0,0:0:0:0:
480,195,143406,1,0,0:0:0:0:
212,272,143617,1,0,0:0:0:0:
380,77,143828,5,0,0:0:0:0:
300,279,144039,1,0,0:0:0:0:
480,195,144251,1,0,0:0:0:0:
245,125,144462,1,0,0:0:0:0:
387,249,144673,5,0,0:0:0:0:
416,269,144779,1,0,0:0:0:0:
432,302,144885,1,0,0:0:0:0:
318,326,145096,1,0,0:0:0:0:
306,212,145307,1,0,0:0:0:0:
322,179,145413,1,0,0:0:0:0:
352,159,145518,1,0,0:0:0:0:
287,38,145730,5,0,0:0:0:0:
187,67,145941,2,0,L|109:154,1,100
171,277,146363,1,0,0:0:0:0:
229,147,146786,1,0,0:0:0:0:
301,257,146997,1,0,0:0:0:0:
117,222,147208,2,0,P|87:290|187:349,1,200
256,191,147842,1,0,0:0:0:0:
157,92,148265,1,0,0:0:0:0:
88,203,148476,1,0,0:0:0:0:
256,191,148687,6,0,L|345:105,1,100
457,82,149110,1,0,0:0:0:0:
457,213,149321,2,0,L|376:295,1,100
182,169,149744,1,0,0:0:0:0:
370,161,150166,1,0,0:0:0:0:
172,275,150377,1,0,0:0:0:0:
120,221,150589,2,0,P|90:289|190:348,1,200
272,116,151223,1,0,0:0:0:0:
182,169,151434,5,0,0:0:0:0:
41,100,151645,1,0,0:0:0:0:
192,57,151856,2,0,L|288:128,1,100
303,180,152490,5,0,0:0:0:0:
120,221,152701,1,0,0:0:0:0:
214,297,152913,1,0,0:0:0:0:
170,117,153124,2,0,L|231:232,1,100
355,235,153547,2,0,L|287:348,1,100
121,334,153969,2,0,L|247:285,1,100
286,134,154392,1,0,0:0:0:0:
355,235,154603,1,0,0:0:0:0:
139,283,155025,5,0,0:0:0:0:
139,283,155131,1,0,0:0:0:0:
139,283,155237,2,0,L|222:209,1,100
401,167,155870,6,0,P|361:77|235:46,1,200
215,85,156504,2,0,B|225:115|293:118|293:118|283:227|187:169,1,200
167,146,157138,2,0,P|120:175|105:244,1,100
293,232,157561,5,0,0:0:0:0:
168,328,157772,1,0,0:0:0:0:
184,132,157983,1,0,0:0:0:0:
301,345,158194,1,0,0:0:0:0:
255,66,158406,1,0,0:0:0:0:
100,248,158617,1,0,0:0:0:0:
154,55,158828,1,0,0:0:0:0:
308,274,159039,1,0,0:0:0:0:
368,74,159251,5,0,0:0:0:0:
183,149,159462,1,0,0:0:0:0:
368,243,159673,1,0,0:0:0:0:
266,102,159885,1,0,0:0:0:0:
240,75,159990,1,0,0:0:0:0:
205,65,160096,1,0,0:0:0:0:
43,202,160307,5,0,0:0:0:0:
217,145,160518,1,0,0:0:0:0:
90,312,160730,1,0,0:0:0:0:
136,87,160941,1,0,0:0:0:0:
227,278,161152,1,0,0:0:0:0:
324,124,161363,1,0,0:0:0:0:
353,101,161469,1,0,0:0:0:0:
389,96,161575,1,0,0:0:0:0:
399,243,161786,5,0,0:0:0:0:
232,121,161997,1,0,0:0:0:0:
284,340,162208,1,0,0:0:0:0:
447,158,162420,2,0,B|399:188|399:188|364:187|364:187|309:220,2,150.000005722046
388,282,163054,1,0,0:0:0:0:
241,218,163265,1,0,0:0:0:0:
383,115,163476,1,0,0:0:0:0:
250,80,163687,6,0,P|277:124|268:207,1,75.0000028610231
197,148,163899,2,0,P|175:178|165:214,1,75.0000028610231
252,236,164110,2,0,B|231:306|131:317|131:317|59:257|77:156,1,300.000011444092
12,136,164744,2,0,P|71:98|134:144,1,150.000005722046
73,189,165166,2,0,B|43:216|43:216|74:241|74:241|69:321|240:288|289:187,1,300.000011444092
229,148,165800,2,0,P|322:174|245:321,1,300.000011444092
107,236,166434,6,0,B|183:250|183:250|261:231,1,150.000005722046
389,93,166856,2,0,L|279:121,1,75.0000028610231
111,99,167068,2,0,L|212:125,1,75.0000028610231
395,187,167279,2,0,L|285:215,1,75.0000028610231
105,191,167491,2,0,L|206:217,1,75.0000028610231
316,111,168124,5,0,0:0:0:0:
229,85,168335,2,0,B|182:112|182:112|213:144|213:144|189:171|189:171|162:289|271:336|435:145,1,450.000017166138
316,111,169180,1,0,0:0:0:0:
159,37,169392,2,0,B|105:84|105:84|113:197,1,150.000005722046
229,85,169814,1,0,0:0:0:0:
314,205,170025,1,0,0:0:0:0:
314,205,170131,1,0,0:0:0:0:
314,205,170237,2,0,L|177:282,1,150.000005722046
55,203,170659,5,0,0:0:0:0:
156,103,170870,2,0,B|182:125|161:170|161:170|243:206|283:144,1,150.000005722046
275,51,171293,1,0,0:0:0:0:
344,155,171504,1,0,0:0:0:0:
420,48,171716,1,0,0:0:0:0:
420,48,171822,1,0,0:0:0:0:
420,48,171928,2,0,L|458:200,1,150.000005722046
348,274,172349,1,0,0:0:0:0:
310,153,172561,2,0,P|235:95|98:76,1,225.000008583069
83,95,172982,5,0,0:0:0:0:
58,123,173088,1,0,0:0:0:0:
47,158,173193,1,0,0:0:0:0:
51,195,173299,1,0,0:0:0:0:
69,227,173405,1,0,0:0:0:0:
81,263,173511,5,0,0:0:0:0:
116,234,173616,1,0,0:0:0:0:
156,214,173722,1,0,0:0:0:0:
199,202,173827,1,0,0:0:0:0:
244,200,173933,1,0,0:0:0:0:
288,207,174039,1,0,0:0:0:0:
323,220,174145,2,0,P|381:252|455:212,1,150
381,109,174673,5,0,0:0:0:0:
249,29,174885,1,0,0:0:0:0:
185,148,175096,1,0,0:0:0:0:
174,170,175201,1,0,0:0:0:0:
163,192,175307,1,0,0:0:0:0:
190,341,175518,1,0,0:0:0:0:
263,131,175730,1,0,0:0:0:0:
49,261,175941,1,0,0:0:0:0:
345,114,176152,6,0,P|316:66|236:54,1,100
96,119,176575,1,0,0:0:0:0:
260,176,176786,1,0,0:0:0:0:
344,199,177208,6,0,P|315:247|235:259,1,100
260,176,177631,2,0,P|215:197|192:240,1,100
356,343,178265,1,0,0:0:0:0:
260,176,178476,1,0,0:0:0:0:
107,268,178687,2,0,P|136:316|216:328,1,100
217,108,179110,1,0,0:0:0:0:
396,197,179321,2,0,P|367:245|287:257,1,100
143,110,179955,5,0,0:0:0:0:
284,83,180166,1,0,0:0:0:0:
329,262,180589,5,0,0:0:0:0:
260,170,180800,1,0,0:0:0:0:
233,291,181011,2,0,L|332:260,1,100
359,159,181434,1,0,0:0:0:0:
246,82,181645,1,0,0:0:0:0:
231,180,181856,2,0,L|247:73,1,100
375,52,182279,5,0,0:0:0:0:
231,180,182490,1,0,0:0:0:0:
207,205,182595,1,0,0:0:0:0:
175,218,182701,1,0,0:0:0:0:
126,41,182913,6,0,P|79:56|52:97,1,100
283,112,183335,1,0,0:0:0:0:
130,122,183547,1,0,0:0:0:0:
130,122,183969,5,0,0:0:0:0:
196,270,184180,1,0,0:0:0:0:
244,118,184392,2,0,L|324:203,1,100
353,336,184814,1,0,0:0:0:0:
196,270,185025,1,0,0:0:0:0:
364,116,185237,1,0,0:0:0:0:
364,116,185659,5,0,0:0:0:0:
351,114,185870,2,0,L|232:114,1,100
93,64,186293,1,0,0:0:0:0:
193,171,186504,1,0,0:0:0:0:
243,38,186716,1,0,0:0:0:0:
66,233,186927,1,0,0:0:0:0:
273,159,187138,2,0,P|262:220|220:247,1,100
193,171,187561,2,0,P|158:205|154:254,1,100
323,307,187983,5,0,0:0:0:0:
271,187,188194,1,0,0:0:0:0:
145,295,188406,1,0,0:0:0:0:
384,238,188617,1,0,0:0:0:0:
245,321,188828,1,0,0:0:0:0:
309,110,189039,1,0,0:0:0:0:
90,236,189251,5,0,0:0:0:0:
360,175,189462,1,0,0:0:0:0:
98,79,189673,1,0,0:0:0:0:
237,287,189885,1,0,0:0:0:0:
337,37,190096,1,0,0:0:0:0:
119,171,190307,5,0,0:0:0:0:
309,110,190518,1,0,0:0:0:0:
317,283,190730,1,0,0:0:0:0:
194,72,190941,1,0,0:0:0:0:
409,151,191152,1,0,0:0:0:0:
175,254,191363,1,0,0:0:0:0:
292,89,192631,5,0,0:0:0:0:
351,218,193054,1,0,0:0:0:0:
180,220,194744,5,0,0:0:0:0:
152,81,196011,1,0,0:0:0:0:
298,169,196434,1,0,0:0:0:0:
232,124,196856,1,0,0:0:0:0:
143,216,197068,1,0,0:0:0:0:
117,74,197279,1,0,0:0:0:0:
328,171,197491,5,0,0:0:0:0:
356,198,197596,1,0,0:0:0:0:
375,233,197702,1,0,0:0:0:0:
387,270,197807,1,0,0:0:0:0:
387,310,197913,1,0,0:0:0:0:
135,305,198124,5,0,0:0:0:0:
298,261,198335,1,0,0:0:0:0:
127,169,198547,1,0,0:0:0:0:
229,336,198758,1,0,0:0:0:0:
257,120,198969,1,0,0:0:0:0:
106,259,199180,1,0,0:0:0:0:
355,198,199392,1,0,0:0:0:0:
100,101,199603,1,0,0:0:0:0:
209,210,199814,1,0,0:0:0:0:
319,74,200025,5,0,0:0:0:0:
249,221,200237,1,0,0:0:0:0:
259,109,200448,1,0,0:0:0:0:
344,272,200660,1,0,0:0:0:0:
408,120,200870,1,0,0:0:0:0:
188,224,201082,1,0,0:0:0:0:
267,81,201293,5,0,0:0:0:0:
267,81,201399,1,0,0:0:0:0:
267,81,201504,2,0,L|306:186,1,100
213,281,201927,1,0,0:0:0:0:
84,207,202138,1,0,0:0:0:0:
213,156,202349,1,0,0:0:0:0:
73,86,202561,1,0,0:0:0:0:
262,41,202772,5,0,0:0:0:0:
158,225,202983,1,0,0:0:0:0:
187,56,203194,5,4,0:2:0:0:
261,278,203406,1,0,0:0:0:0:
270,101,203617,5,4,0:2:0:0:
128,278,203828,1,0,0:0:0:0:
348,239,204039,1,4,0:2:0:0:
217,117,204251,5,4,0:2:0:0:
172,94,204356,1,4,0:2:0:0:
123,90,204462,1,4,0:2:0:0:
76,107,204567,1,4,0:2:0:0:
41,142,204673,1,4,0:2:0:0:
104,303,204885,5,0,0:0:0:0:
169,154,205096,1,0,0:0:0:0:
236,318,205307,1,0,0:0:0:0:
243,92,205518,1,0,0:0:0:0:
176,271,205730,1,0,0:0:0:0:
122,62,205941,1,0,0:0:0:0:
277,196,206152,1,0,0:0:0:0:
56,119,206363,5,0,0:0:0:0:
233,299,206575,1,0,0:0:0:0:
198,63,206786,1,0,0:0:0:0:
94,284,206997,1,0,0:0:0:0:
306,159,207208,5,4,0:2:0:0:
116,64,207420,1,4,0:2:0:0:
216,293,207631,1,4,0:2:0:0:
64,192,207842,1,4,0:2:0:0:
215,98,208054,5,0,0:0:0:0:
336,230,208265,1,0,0:0:0:0:
93,168,208476,1,0,0:0:0:0:
367,93,208687,1,0,0:0:0:0:
85,48,208899,1,0,0:0:0:0:
292,274,209110,1,0,0:0:0:0:
207,57,209321,1,0,0:0:0:0:
71,234,209532,5,0,0:0:0:0:
254,163,209744,1,0,0:0:0:0:
74,116,209955,1,0,0:0:0:0:
283,41,210166,1,0,0:0:0:0:
86,136,210377,1,0,0:0:0:0:
244,187,210589,1,0,0:0:0:0:
90,274,210800,1,0,0:0:0:0:
235,325,211011,2,4,L|287:352,2,50,4|4|4,0:2|0:2|0:2,0:2:0:0:
73,181,211434,5,0,0:0:0:0:
208,64,211645,1,0,0:0:0:0:
210,262,211856,1,0,0:0:0:0:
117,62,212068,1,0,0:0:0:0:
287,228,212279,1,0,0:0:0:0:
182,29,212490,1,0,0:0:0:0:
133,258,212701,1,0,0:0:0:0:
53,88,212913,1,0,0:0:0:0:
235,148,213124,2,0,L|302:179,2,50
44,168,213547,5,0,0:0:0:0:
180,57,213758,1,0,0:0:0:0:
177,280,213969,1,0,0:0:0:0:
99,70,214180,1,0,0:0:0:0:
325,147,214392,1,0,0:0:0:0:
89,281,214603,1,0,0:0:0:0:
339,59,214814,1,0,0:0:0:0:
420,256,215025,1,0,0:0:0:0:
206,63,215237,5,0,0:0:0:0:
109,182,215448,1,0,0:0:0:0:
290,150,215659,1,0,0:0:0:0:
290,150,215765,1,0,0:0:0:0:
290,150,215870,2,0,L|206:224,1,100
72,206,216293,1,0,0:0:0:0:
312,69,216504,6,0,P|360:102|366:175,1,100
224,205,216927,1,0,0:0:0:0:
113,95,217138,1,0,0:0:0:0:
62,269,217349,1,0,0:0:0:0:
71,302,217454,1,0,0:0:0:0:
97,324,217560,1,0,0:0:0:0:
221,267,217772,1,0,0:0:0:0:
239,125,217983,5,0,0:0:0:0:
267,104,218088,1,0,0:0:0:0:
299,91,218194,1,0,0:0:0:0:
334,84,218299,1,0,0:0:0:0:
369,85,218405,1,0,0:0:0:0:
380,286,218617,5,0,0:0:0:0:
239,125,218828,1,0,0:0:0:0:
177,299,219039,2,0,L|189:359,2,50
104,105,219462,1,0,0:0:0:0:
385,253,219673,1,0,0:0:0:0:
290,59,219885,6,0,P|237:45|187:69,1,100
244,129,220518,2,0,L|243:196,2,50
102,145,221152,1,0,0:0:0:0:
326,241,221363,1,0,0:0:0:0:
149,188,221786,5,0,0:0:0:0:
357,101,221997,1,0,0:0:0:0:
280,309,222208,1,0,0:0:0:0:
124,98,222420,5,0,0:0:0:0:
409,170,222631,1,0,0:0:0:0:
149,316,222842,1,0,0:0:0:0:
291,44,223054,5,0,0:0:0:0:
91,263,223265,1,0,0:0:0:0:
420,227,223476,1,0,0:0:0:0:
82,58,223687,5,0,0:0:0:0:
410,118,223899,1,0,0:0:0:0:
66,194,224110,1,0,0:0:0:0:
360,268,224321,6,0,L|332:152,1,100
263,59,224744,2,0,L|215:184,1,100
231,336,225166,2,0,L|273:219,1,100
112,160,225589,2,0,L|160:285,1,100
360,268,226011,2,0,P|327:185|190:166,1,200
265,242,226856,6,0,L|202:319,1,100
193,175,227279,1,0,0:0:0:0:
64,327,227490,2,0,L|126:249,1,100
111,130,227913,1,0,0:0:0:0:
256,100,228124,1,0,0:0:0:0:
230,253,228335,5,0,0:0:0:0:
230,253,228441,1,0,0:0:0:0:
230,253,228547,2,0,L|142:173,1,100
195,79,228969,1,0,0:0:0:0:
300,122,229180,2,0,L|392:201,1,100
187,319,229814,5,0,0:0:0:0:
189,306,230237,2,0,L|203:165,1,100
134,106,230659,1,0,0:2:0:0:
127,210,230870,1,0,0:0:0:0:
279,81,231082,1,0,0:2:0:0:
303,277,231293,1,0,0:0:0:0:
68,150,231504,1,0,0:2:0:0:
367,130,231716,1,0,0:0:0:0:
227,247,231927,6,0,P|229:315|348:346,1,200
304,276,232561,2,0,P|284:184|191:172,1,200
227,247,233194,2,0,L|116:330,1,100
83,213,233617,2,0,L|93:66,1,100
196,52,234039,1,0,0:0:0:0:
215,158,234251,2,0,L|302:240,1,100
323,239,234885,1,0,0:0:0:0:
338,99,235307,5,0,0:0:0:0:
156,50,235518,1,0,0:0:0:0:
179,139,235730,1,0,0:0:0:0:
349,34,235941,5,0,0:0:0:0:
484,166,236152,1,0,0:0:0:0:
394,240,236363,1,0,0:0:0:0:
448,53,236575,5,0,0:0:0:0:
330,188,236786,2,0,P|307:231|321:278,1,100
454,192,237208,1,0,0:0:0:0:
449,162,237313,1,0,0:0:0:0:
440,133,237419,1,0,0:0:0:0:
426,107,237524,1,0,0:0:0:0:
407,83,237630,1,0,0:0:0:0:
385,63,237736,1,0,0:0:0:0:
360,47,237841,1,0,0:0:0:0:
333,35,237947,1,0,0:0:0:0:
303,28,238053,1,0,0:0:0:0:
177,74,238265,5,0,0:0:0:0:
256,192,238476,1,0,0:0:0:0:
256,192,238582,1,0,0:0:0:0:
256,192,238687,1,0,0:0:0:0:
256,192,238793,12,0,242068,0:0:0:0:
