osu file format v14

[General]
AudioFilename: audio.mp3
AudioLeadIn: 0
PreviewTime: 58476
Countdown: 0
SampleSet: Normal
StackLeniency: 0.9
Mode: 0
LetterboxInBreaks: 0
WidescreenStoryboard: 1

[Editor]
Bookmarks: 207208
DistanceSpacing: 1
BeatDivisor: 4
GridSize: 4
TimelineZoom: 2.2

[Metadata]
Title:Harumachi Clover
TitleUnicode:春待ちクローバー
Artist:Hanasaka Yui(CV: M.A.O)
ArtistUnicode:花坂結衣(CV:M・A・O)
Creator:Onlybiscuit
Version:Hard
Source:oneroom
Tags:Hanasaka Yui Harumachi Clover Anime opening kantoku カントク typhoon graphics ワンルーム one room Full Song
BeatmapID:1555711
BeatmapSetID:735877

[Difficulty]
HPDrainRate:5
CircleSize:3
OverallDifficulty:6
ApproachRate:7.5
SliderMultiplier:2
SliderTickRate:1

[Events]
//Background and Video events
0,0,"snapshot20170402114802.jpg",0,0
//Break Periods
//Storyboard Layer 0 (Background)
//Storyboard Layer 1 (Fail)
//Storyboard Layer 2 (Pass)
//Storyboard Layer 3 (Foreground)
//Storyboard Sound Samples

[TimingPoints]
3547,422.535211267606,4,1,0,70,1,0
3547,-100,4,1,0,70,0,0
44321,-100,4,1,0,70,0,0
59532,-100,4,1,0,70,0,1
89955,-100,4,1,0,70,0,0
90377,-100,4,1,0,70,0,0
118687,-100,4,1,0,70,0,1
145730,-100,4,1,0,70,0,0
162420,-100,4,1,0,70,0,0
172983,-100,4,1,0,70,0,0
174145,-100,4,1,0,70,0,0
204885,-100,4,1,0,70,0,1
204985,-100,4,1,0,70,0,1
219885,-100,4,1,0,70,0,1
224321,-100,4,1,0,70,0,0
238793,-100,4,1,0,70,0,0

[Colours]
Combo1 : 255,255,255
Combo2 : 255,128,255

[HitObjects]
368,152,3547,5,0,0:0:0:0:
368,152,3652,1,0,0:0:0:0:
368,152,3758,2,0,P|308:80|188:48,1,200
232,136,4392,2,0,P|137:165|104:200,2,100
349,161,5025,6,0,P|289:233|169:265,1,200
58,235,5870,1,0,0:0:0:0:
58,235,6082,2,0,P|122:309|216:339,1,200
298,282,6716,1,0,0:0:0:0:
429,284,7138,6,0,P|364:209|270:179,1,200
241,273,7772,2,0,P|183:230|182:163,2,100
311,344,8406,2,0,P|405:314|469:239,1,200
379,150,9251,1,0,0:0:0:0:
299,88,9462,2,0,P|276:154|309:216,1,100
274,281,9885,5,0,0:0:0:0:
188,229,10096,1,0,0:0:0:0:
185,129,10307,1,0,0:0:0:0:
124,49,10518,2,0,P|84:105|96:246,1,200
165,318,11152,6,0,P|120:338|72:330,2,100
265,319,11786,2,0,P|277:221|228:136,1,200
110,88,12631,1,0,0:0:0:0:
41,145,12842,2,0,P|103:176|169:152,1,100
208,109,13265,5,0,0:0:0:0:
296,63,13476,1,0,0:0:0:0:
367,132,13687,1,0,0:0:0:0:
439,62,13899,2,0,P|473:109|458:165,1,100
405,225,14321,1,0,0:0:0:0:
440,318,14532,1,0,0:0:0:0:
342,294,14744,2,0,P|308:247|323:191,1,100
360,119,15166,5,0,0:0:0:0:
280,59,15377,2,0,P|246:106|261:162,1,100
314,222,15800,2,0,L|256:261,2,50
250,255,16117,2,0,L|193:255,2,50
174,256,16434,2,0,L|118:279,2,50
100,188,16856,1,0,0:0:0:0:
171,82,17279,5,0,0:0:0:0:
171,82,17701,2,0,P|216:64|262:81,1,100
215,170,18124,2,0,P|260:187|306:169,1,100
363,87,18547,1,0,0:0:0:0:
441,148,18758,2,0,P|442:196|410:233,1,100
310,240,19180,5,0,0:0:0:0:
246,318,19392,1,0,0:0:0:0:
178,244,19603,2,0,P|145:207|147:158,1,100
245,174,20025,5,0,0:0:0:0:
208,80,20237,1,0,0:0:0:0:
111,53,20448,2,0,P|78:89|80:138,1,100
178,158,20870,2,0,P|210:194|208:243,1,100
109,228,21293,1,0,0:0:0:0:
148,319,21504,1,0,0:0:0:0:
248,323,21716,5,0,0:0:0:0:
307,242,21927,1,0,0:0:0:0:
364,323,22138,2,0,P|396:286|394:237,1,100
421,140,22561,2,0,P|373:127|330:150,1,100
280,237,22983,1,0,0:0:0:0:
212,163,23194,1,0,0:0:0:0:
268,80,23406,5,0,0:0:0:0:
174,44,23617,1,0,0:0:0:0:
78,74,23828,1,0,0:0:0:0:
107,169,24039,2,0,L|128:279,1,100
184,348,24462,6,0,P|216:311|214:262,1,100
292,215,24885,2,0,P|290:166|322:129,1,100
391,56,25307,1,0,0:0:0:0:
419,151,25518,2,0,P|420:199|388:236,1,100
446,318,25941,1,0,0:0:0:0:
348,340,26152,1,0,0:0:0:0:
281,265,26363,1,0,0:0:0:0:
281,265,26786,5,0,0:0:0:0:
202,327,26997,1,0,0:0:0:0:
161,235,27208,1,0,0:0:0:0:
87,303,27420,1,0,0:0:0:0:
70,204,27631,1,0,0:0:0:0:
66,104,27842,1,0,0:0:0:0:
157,144,28054,5,0,0:0:0:0:
199,234,28265,2,0,P|238:205|249:157,1,100
208,66,28687,1,0,0:0:0:0:
305,91,28899,1,0,0:0:0:0:
367,168,29110,1,0,0:0:0:0:
416,254,29321,1,0,0:0:0:0:
316,253,29532,1,0,0:0:0:0:
316,253,29744,2,0,P|270:271|224:255,1,100
245,168,30166,5,0,0:0:0:0:
133,187,30377,1,0,0:0:0:0:
64,260,30589,1,0,0:0:0:0:
135,329,30800,2,0,P|181:345|226:326,1,100
185,233,31223,6,0,P|229:213|276:229,1,100
322,318,31645,2,0,P|358:285|364:237,1,100
318,148,32068,1,0,0:0:0:0:
372,64,32279,2,0,P|325:48|280:67,1,100
221,147,32701,5,0,0:0:0:0:
156,66,32913,1,0,0:0:0:0:
98,147,33124,2,0,P|80:192|97:238,1,100
148,325,33547,1,0,0:0:0:0:
232,272,33758,1,0,0:0:0:0:
179,187,33969,2,0,P|223:167|270:183,1,100
360,228,34392,6,0,P|371:180|348:137,1,100
270,75,34814,1,0,0:0:0:0:
191,137,35025,1,0,0:0:0:0:
132,55,35237,1,0,0:0:0:0:
70,133,35448,1,0,0:0:0:0:
91,230,35659,6,0,P|137:245|182:226,2,100
138,141,36293,1,0,0:0:0:0:
226,94,36504,1,0,0:0:0:0:
282,177,36716,1,0,0:0:0:0:
233,264,36927,1,0,0:0:0:0:
302,335,37138,1,0,0:0:0:0:
382,276,37349,1,0,0:0:0:0:
379,175,37561,2,0,P|368:127|327:99,1,100
281,187,37983,6,0,P|236:206|189:190,1,100
196,90,38406,2,0,P|149:74|104:93,1,100
71,187,38828,1,0,0:0:0:0:
43,282,39039,2,0,P|89:297|160:280,1,100
231,252,39462,1,0,0:0:0:0:
303,183,39673,1,0,0:0:0:0:
326,85,39885,2,0,P|369:106|392:152,1,100
405,250,40307,5,0,0:0:0:0:
318,299,40518,1,0,0:0:0:0:
220,276,40730,1,0,0:0:0:0:
154,351,40941,2,0,P|121:314|186:197,1,200
280,189,41575,1,0,0:0:0:0:
350,259,41786,2,0,P|382:222|317:105,1,200
224,80,42420,5,0,0:0:0:0:
128,80,42631,1,0,0:0:0:0:
35,118,42842,1,0,0:0:0:0:
39,218,43054,2,0,P|94:257|139:239,1,100
162,159,43476,2,0,L|223:179,2,50
257,189,43899,2,0,L|304:204,2,50
374,140,44321,6,0,P|412:226|346:294,1,200
274,356,44955,2,0,P|236:270|303:204,1,200
346,293,45589,1,0,0:0:0:0:
442,319,45800,2,0,P|424:237|372:232,1,100
318,226,46434,6,0,P|336:144|388:139,1,100
437,168,46856,2,0,P|419:86|367:81,1,100
317,53,47279,1,0,0:0:0:0:
244,121,47490,2,0,P|201:144|155:127,1,100
75,56,48124,5,0,0:0:0:0:
53,153,48335,1,0,0:0:0:0:
127,263,48758,1,0,0:0:0:0:
201,197,48969,1,0,0:0:0:0:
222,294,49180,2,0,P|267:310|310:287,1,100
296,187,49603,5,0,0:0:0:0:
358,109,49814,1,0,0:0:0:0:
408,195,50025,2,0,P|475:261|437:348,1,200
349,285,50659,2,0,L|275:256,2,50
350,184,51082,5,0,0:0:0:0:
256,148,51293,1,0,0:0:0:0:
182,215,51504,1,0,0:0:0:0:
147,309,51716,2,0,P|80:243|118:156,1,200
202,104,52349,1,0,0:0:0:0:
293,63,52561,2,0,P|338:47|381:70,1,100
424,160,52983,5,0,0:0:0:0:
324,157,53194,1,0,0:0:0:0:
290,251,53406,2,0,P|223:185|261:98,1,200
351,58,54039,1,0,0:0:0:0:
415,145,54251,1,0,0:0:0:0:
433,243,54462,6,0,P|387:258|344:235,1,100
253,194,54885,2,0,P|210:170|164:186,1,100
103,265,55307,2,0,P|145:288|191:272,1,100
249,354,55730,2,0,P|288:325|293:277,1,100
260,182,56152,2,0,P|305:166|348:189,1,100
402,274,56575,1,0,0:0:0:0:
442,182,56786,5,0,0:0:0:0:
389,97,56997,2,0,L|288:74,1,100
322,170,57420,2,0,L|224:147,1,100
171,232,57842,2,0,L|268:254,1,100
198,325,58265,2,0,L|295:347,1,100
373,284,58687,5,0,0:0:0:0:
339,189,58899,1,0,0:0:0:0:
276,110,59110,1,0,0:0:0:0:
184,70,59321,1,0,0:0:0:0:
88,76,59532,6,0,L|41:211,1,100
132,252,59955,1,0,0:0:0:0:
168,159,60166,1,0,0:0:0:0:
268,184,60377,2,0,L|228:320,1,100
332,317,60800,1,0,0:0:0:0:
370,225,61011,1,0,0:0:0:0:
405,131,61223,6,0,L|275:85,1,100
211,109,61645,1,0,0:0:0:0:
231,208,61856,2,0,L|247:325,2,100
140,160,62490,1,0,0:0:0:0:
78,240,62701,6,0,L|144:322,1,100
238,342,63124,1,0,0:0:0:0:
336,323,63335,2,0,L|398:245,1,100
331,170,63758,1,0,0:0:0:0:
416,117,63969,1,0,0:0:0:0:
341,51,64180,2,0,L|209:51,1,100
140,50,64603,2,0,L|195:151,1,100
287,130,65025,1,0,0:0:0:0:
230,212,65237,2,0,L|126:310,2,100
329,207,65870,1,0,0:0:0:0:
376,295,66082,5,0,0:0:0:0:
376,295,66187,1,0,0:0:0:0:
376,295,66293,2,0,L|236:334,1,100
179,332,66716,2,0,L|149:207,1,100
254,223,67138,1,0,0:0:0:0:
352,204,67349,2,0,L|331:87,1,100
240,68,67772,2,0,L|137:79,1,100
71,151,68194,5,0,0:0:0:0:
84,250,68406,2,0,L|224:233,1,100
225,147,68828,1,0,0:0:0:0:
300,212,69039,1,0,0:0:0:0:
354,127,69251,1,0,0:0:0:0:
410,209,69462,2,0,L|343:319,2,100
454,118,70096,2,0,L|375:38,1,100
284,36,70518,2,0,L|187:136,1,100
143,178,70941,5,0,0:0:0:0:
143,178,71152,2,0,L|255:236,1,100
287,312,71575,1,0,0:0:0:0:
335,224,71786,2,0,L|223:166,1,100
200,89,72208,1,0,0:0:0:0:
137,167,72420,1,0,0:0:0:0:
137,167,72525,1,0,0:0:0:0:
137,167,72631,2,0,L|87:236,2,50
205,240,73054,6,0,L|326:291,1,100
336,186,73476,2,0,L|215:135,1,100
164,86,73899,1,0,0:0:0:0:
260,59,74110,1,0,0:0:0:0:
359,71,74321,2,0,L|467:156,1,100
414,230,74744,2,0,L|306:315,1,100
298,198,75166,1,0,0:0:0:0:
228,126,75377,2,0,L|149:64,2,100
170,208,76011,1,0,0:0:0:0:
164,308,76223,6,0,L|217:354,2,50
87,243,76645,1,0,0:0:0:0:
108,145,76856,2,0,L|191:41,1,100
270,75,77279,1,0,0:0:0:0:
207,153,77490,1,0,0:0:0:0:
287,212,77701,2,0,L|352:136,1,100
424,206,78124,2,0,L|358:281,1,100
262,309,78547,1,0,0:0:0:0:
184,244,78758,6,0,L|141:201,2,50
148,339,79180,1,0,0:0:0:0:
65,281,79392,1,0,0:0:0:0:
57,181,79603,1,0,0:0:0:0:
68,81,79814,6,0,L|176:133,1,100
205,35,80237,2,0,L|295:78,1,100
391,51,80659,1,0,0:0:0:0:
398,150,80870,1,0,0:0:0:0:
318,211,81082,1,0,0:0:0:0:
251,136,81293,2,0,L|162:230,1,100
241,289,81716,5,0,0:0:0:0:
329,335,81927,1,0,0:0:0:0:
414,282,82138,1,0,0:0:0:0:
321,243,82349,2,0,L|321:129,1,100
239,83,82772,1,0,0:0:0:0:
180,164,82983,2,0,L|103:279,1,100
188,316,83406,5,0,0:0:0:0:
251,238,83617,1,0,0:0:0:0:
312,160,83828,2,0,L|368:88,2,50
361,245,84251,1,0,0:0:0:0:
297,323,84462,1,0,0:0:0:0:
228,248,84673,6,0,P|179:176|229:63,1,200
288,140,85307,1,0,0:0:0:0:
334,224,85518,6,0,P|383:152|333:39,1,200
250,68,86152,2,0,L|207:20,2,50
259,159,86575,6,0,L|371:255,1,100
260,290,86997,1,0,0:0:0:0:
187,221,87208,2,0,L|93:319,1,100
42,227,87631,1,0,0:0:0:0:
118,162,87842,2,0,L|51:70,1,100
156,56,88265,1,0,0:0:0:0:
212,138,88476,2,0,L|311:81,1,100
350,183,88899,1,0,0:0:0:0:
272,240,89110,2,0,L|175:313,1,100
128,222,89532,2,0,L|224:150,1,100
290,104,89955,6,0,L|356:190,1,100
450,176,90377,2,0,P|447:244|405:268,1,100
325,260,90800,2,0,P|290:318|312:361,1,100
199,327,91223,1,0,0:0:0:0:
101,341,91434,2,0,P|96:292|128:256,1,100
224,229,91856,5,0,0:0:0:0:
304,168,92068,1,0,0:0:0:0:
211,130,92279,2,0,P|205:81|237:44,1,100
332,75,92701,1,0,0:0:0:0:
432,82,92913,1,0,0:0:0:0:
482,168,93124,2,0,P|440:193|393:179,2,100
432,82,93758,5,0,0:0:0:0:
328,111,93969,1,0,0:0:0:0:
285,201,94180,1,0,0:0:0:0:
385,204,94392,1,0,0:0:0:0:
344,295,94603,1,0,0:0:0:0:
244,291,94814,2,0,P|197:275|178:231,2,100
273,194,95448,6,0,P|253:149|207:134,1,100
121,184,95870,1,0,0:0:0:0:
44,119,96082,1,0,0:0:0:0:
112,46,96293,1,0,0:0:0:0:
211,50,96504,2,0,L|297:51,2,50
228,148,97138,6,0,P|247:192|293:207,1,100
332,115,97561,2,0,P|378:130|397:174,1,100
374,272,97983,1,0,0:0:0:0:
294,332,98194,2,0,P|247:316|228:272,1,100
211,173,98617,1,0,0:0:0:0:
135,238,98828,1,0,0:0:0:0:
38,215,99039,2,0,P|57:170|103:155,1,100
201,174,99462,5,0,0:0:0:0:
150,87,99673,1,0,0:0:0:0:
245,57,99885,1,0,0:0:0:0:
320,122,100096,2,0,P|367:132|407:104,1,100
341,29,100518,1,0,0:0:0:0:
245,57,100730,5,0,0:0:0:0:
241,156,100941,2,0,P|221:200|175:215,1,100
141,122,101363,1,0,0:0:0:0:
53,72,101575,2,0,L|89:37,2,50
47,171,101997,5,0,0:0:0:0:
123,234,102208,1,0,0:0:0:0:
207,180,102420,1,0,0:0:0:0:
280,112,102631,2,0,L|346:148,2,50
285,212,103054,2,0,L|351:248,2,50
190,243,103476,6,0,P|209:287|255:302,1,100
353,327,103899,1,0,0:0:0:0:
448,296,104110,2,0,P|428:251|382:236,1,100
285,212,104532,2,0,P|238:196|219:152,1,100
311,112,104955,2,0,P|291:67|245:52,1,100
80,165,105589,5,0,0:0:0:0:
1,223,105800,1,0,0:0:0:0:
91,258,106011,2,0,P|111:303|157:318,1,100
193,224,106434,1,0,0:0:0:0:
260,297,106645,2,0,P|307:287|332:245,1,100
313,45,107279,5,0,0:0:0:0:
213,55,107490,2,0,L|89:71,1,100
49,144,107913,1,0,0:0:0:0:
102,228,108124,1,0,0:0:0:0:
162,148,108335,2,0,P|208:163|227:208,1,100
169,290,108758,2,0,P|212:311|257:293,1,100
304,227,109180,6,0,P|370:160|332:73,1,200
240,34,109814,2,0,L|173:2,2,50
243,134,110237,1,0,0:0:0:0:
161,191,110448,1,0,0:0:0:0:
120,99,110659,1,0,0:0:0:0:
42,35,110870,2,0,P|4:121|70:188,1,200
116,99,111504,5,0,0:0:0:0:
181,22,111716,2,0,P|217:53|219:102,1,100
170,189,112138,1,0,0:0:0:0:
207,277,112349,2,0,P|162:296|119:275,1,100
313,227,112983,5,0,0:0:0:0:
261,141,113194,2,0,P|304:119|349:137,1,100
399,224,113617,2,0,P|443:204|459:158,1,100
510,72,114039,2,0,P|464:54|421:75,1,100
320,75,114462,5,0,0:0:0:0:
220,75,114673,1,0,0:0:0:0:
119,75,114885,2,0,P|113:123|145:159,1,100
245,159,115307,1,0,0:0:0:0:
288,251,115518,1,0,0:0:0:0:
188,267,115730,1,0,0:0:0:0:
91,243,115941,1,0,0:0:0:0:
75,341,116152,6,0,L|194:347,1,100
246,275,116575,2,0,L|187:179,1,100
241,102,116997,2,0,L|356:168,1,100
395,225,117420,2,0,L|319:332,1,100
258,245,117842,2,0,L|216:192,2,50
160,267,118265,2,0,L|128:227,2,50
218,347,118687,6,0,L|304:280,1,100
381,339,119110,2,0,L|467:272,1,100
457,177,119532,1,0,0:0:0:0:
360,150,119744,1,0,0:0:0:0:
304,67,119955,1,0,0:0:0:0:
209,100,120166,1,0,0:0:0:0:
112,74,120377,2,0,L|93:219,1,100
188,218,120800,5,0,0:0:0:0:
235,305,121011,2,0,L|335:230,2,100
137,282,121645,1,0,0:0:0:0:
91,192,121856,1,0,0:0:0:0:
124,97,122068,2,0,L|259:137,1,100
204,224,122490,2,0,L|339:264,1,100
234,328,122913,2,0,L|369:368,1,100
421,316,123335,5,0,0:0:0:0:
358,237,123547,1,0,0:0:0:0:
429,166,123758,1,0,0:0:0:0:
343,115,123969,1,0,0:0:0:0:
427,61,124180,1,0,0:0:0:0:
331,31,124392,2,0,L|199:91,1,100
226,171,124814,1,0,0:0:0:0:
191,264,125025,1,0,0:0:0:0:
105,212,125237,5,0,0:0:0:0:
105,212,125342,1,0,0:0:0:0:
105,212,125448,2,0,L|74:79,1,100
170,68,125870,2,0,L|201:201,1,100
265,96,126293,2,0,L|296:229,1,100
214,261,126716,1,0,0:0:0:0:
307,296,126927,2,0,L|434:236,1,100
364,158,127349,5,0,0:0:0:0:
263,155,127561,1,0,0:0:0:0:
200,232,127772,1,0,0:0:0:0:
120,171,127983,2,0,L|62:300,1,100
159,321,128406,1,0,0:0:0:0:
256,297,128617,6,0,L|306:368,2,50
204,220,129039,1,0,0:0:0:0:
184,128,129251,2,0,L|296:81,1,100
366,125,129673,2,0,L|424:241,1,100
366,304,130096,5,0,0:0:0:0:
292,232,130307,2,0,L|212:139,1,100
130,128,130730,1,0,0:0:0:0:
109,225,130941,2,0,L|189:321,1,100
229,219,131363,1,0,0:0:0:0:
292,296,131575,1,0,0:0:0:0:
292,296,131680,1,0,0:0:0:0:
292,296,131786,2,0,L|353:367,2,50
276,191,132208,6,0,L|153:268,1,100
190,143,132631,2,0,L|67:220,1,100
106,95,133054,2,0,L|-17:172,1,100
31,247,133476,1,0,0:0:0:0:
93,324,133687,1,0,0:0:0:0:
161,250,133899,2,0,L|278:252,1,100
330,323,134321,5,0,0:0:0:0:
409,262,134532,2,0,L|410:125,2,100
312,232,135166,1,0,0:0:0:0:
251,149,135377,1,0,0:0:0:0:
178,79,135589,6,0,L|106:191,1,100
167,253,136011,2,0,L|221:168,1,100
320,173,136434,2,0,L|266:258,1,100
342,321,136856,1,0,0:0:0:0:
399,238,137068,1,0,0:0:0:0:
376,140,137279,2,0,L|283:74,1,100
195,95,137701,5,0,0:0:0:0:
94,93,137913,2,0,L|38:63,2,50
66,189,138335,1,0,0:0:0:0:
116,275,138547,1,0,0:0:0:0:
204,321,138758,5,0,0:0:0:0:
302,339,138969,2,0,L|323:204,1,100
397,300,139392,2,0,L|418:165,1,100
352,120,139814,1,0,0:0:0:0:
258,84,140025,1,0,0:0:0:0:
252,184,140237,1,0,0:0:0:0:
336,248,140448,2,0,L|230:330,1,100
160,239,140870,5,0,0:0:0:0:
180,140,141082,1,0,0:0:0:0:
122,58,141293,1,0,0:0:0:0:
60,136,141504,2,0,L|64:251,1,100
144,295,141927,1,0,0:0:0:0:
210,369,142138,6,0,P|259:297|209:184,1,200
130,165,142772,1,0,0:0:0:0:
200,96,142983,2,0,L|244:42,2,50
95,63,143406,1,0,0:0:0:0:
38,145,143617,1,0,0:0:0:0:
67,240,143828,6,0,P|149:268|245:191,1,200
150,160,144462,1,0,0:0:0:0:
232,84,144673,2,0,L|187:37,2,50
303,156,145096,1,0,0:0:0:0:
378,90,145307,2,0,L|423:43,2,50
416,182,145730,5,0,0:0:0:0:
390,278,145941,2,0,P|354:307|259:290,1,100
222,252,146363,1,0,0:0:0:0:
279,134,146786,5,0,0:0:0:0:
187,94,146997,1,0,0:0:0:0:
101,145,147208,2,0,P|120:189|166:204,1,100
258,163,147631,1,0,0:0:0:0:
284,259,147842,1,0,0:0:0:0:
157,294,148265,5,0,0:0:0:0:
95,215,148476,1,0,0:0:0:0:
48,303,148687,2,0,P|67:347|113:362,1,100
212,345,149110,1,0,0:0:0:0:
305,308,149321,2,0,P|286:264|240:249,1,100
143,220,149744,1,0,0:0:0:0:
207,106,150166,5,0,0:0:0:0:
304,83,150377,1,0,0:0:0:0:
269,177,150589,2,0,P|288:221|334:236,1,100
383,149,151011,1,0,0:0:0:0:
434,235,151223,1,0,0:0:0:0:
378,317,151434,5,0,0:0:0:0:
292,264,151645,1,0,0:0:0:0:
240,349,151856,2,0,L|199:300,2,50
115,311,152490,5,0,0:0:0:0:
27,269,152701,2,0,P|46:224|92:209,1,100
184,250,153124,2,0,P|230:234|249:190,1,100
170,128,153547,1,0,0:0:0:0:
257,79,153758,1,0,0:0:0:0:
349,115,153969,2,0,P|396:131|415:175,1,100
322,214,154392,5,0,0:0:0:0:
229,176,154603,1,0,0:0:0:0:
144,227,154814,1,0,0:0:0:0:
233,271,155025,2,0,L|287:303,2,50
153,332,155448,1,0,0:0:0:0:
218,346,155870,6,0,P|278:283|248:163,1,200
186,244,156504,2,0,P|139:228|120:184,2,100
241,160,157138,1,0,0:0:0:0:
332,120,157349,1,0,0:0:0:0:
398,194,157561,1,0,0:0:0:0:
312,240,157772,2,0,P|277:274|229:271,1,100
240,178,158194,5,0,0:0:0:0:
164,111,158406,1,0,0:0:0:0:
108,196,158617,2,0,L|69:252,2,50
213,182,159039,1,0,0:0:0:0:
245,87,159251,2,0,P|291:102|310:146,1,100
317,246,159673,1,0,0:0:0:0:
235,304,159885,2,0,L|174:336,2,50
249,205,160307,5,0,0:0:0:0:
334,153,160518,1,0,0:0:0:0:
371,246,160730,2,0,P|431:183|401:63,1,200
316,92,161363,1,0,0:0:0:0:
223,132,161575,2,0,L|160:164,2,50
303,191,161997,1,0,0:0:0:0:
220,247,162208,1,0,0:0:0:0:
119,244,162420,6,0,B|73:220|73:220|25:165,2,100
156,150,163054,2,0,B|202:174|202:174|250:229,1,100
201,304,163476,1,0,0:0:0:0:
300,310,163687,2,0,B|342:287|342:287|376:247,2,100
264,215,164321,2,0,B|297:175|297:175|340:152,1,100
376,247,164744,2,0,B|418:224|418:224|452:184,1,100
457,85,165166,2,0,B|423:45|423:45|380:22,2,100
375,143,165800,6,0,B|332:120|332:120|298:80,1,100
206,42,166223,2,0,B|163:64|163:64|129:104,1,100
224,136,166645,2,0,B|190:175|190:175|147:198,1,100
56,156,167068,2,0,B|54:204|54:204|71:253,1,100
66,352,167490,2,0,B|113:359|113:359|164:348,2,100
112,262,168124,2,0,B|162:250|162:250|210:258,1,100
246,351,168547,2,0,L|344:347,2,50
296,264,168969,5,0,0:0:0:0:
386,305,169180,1,0,0:0:0:0:
403,206,169392,2,0,B|407:158|407:158|394:108,1,100
311,163,169814,1,0,0:0:0:0:
252,82,170025,2,0,L|299:65,2,50
193,163,170448,1,0,0:0:0:0:
250,244,170659,1,0,0:0:0:0:
150,246,170870,6,0,B|145:293|145:293|158:343,1,100
259,337,171293,1,0,0:0:0:0:
303,247,171504,1,0,0:0:0:0:
235,172,171716,2,0,L|184:134,2,50
318,117,172138,1,0,0:0:0:0:
234,62,172349,1,0,0:0:0:0:
137,91,172561,2,0,B|123:141|123:141|128:188,1,100
223,159,172983,5,0,0:0:0:0:
223,159,173089,1,0,0:0:0:0:
223,159,173194,2,0,L|277:198,2,50
207,258,173617,1,0,0:0:0:0:
304,280,173828,1,0,0:0:0:0:
304,280,173934,1,0,0:0:0:0:
304,280,174039,2,0,L|358:319,2,50
377,93,174673,5,0,0:0:0:0:
287,138,174885,1,0,0:0:0:0:
242,227,175096,2,0,L|211:296,2,50
175,152,175518,1,0,0:0:0:0:
74,152,175730,2,0,B|69:105|69:105|83:55,2,100
178,322,176575,5,0,0:0:0:0:
255,258,176786,2,0,P|289:206|249:67,1,200
196,156,177420,1,0,0:0:0:0:
85,153,177631,2,0,P|93:105|133:77,1,100
125,271,178265,5,0,0:0:0:0:
199,338,178476,1,0,0:0:0:0:
297,354,178687,2,0,P|344:308|319:241,1,100
250,241,179110,1,0,0:0:0:0:
196,156,179321,2,0,P|156:184|150:232,1,100
277,78,179955,5,0,0:0:0:0:
374,120,180166,2,0,P|367:169|327:197,1,100
227,193,180589,1,0,0:0:0:0:
262,286,180800,1,0,0:0:0:0:
357,314,181011,2,0,P|396:285|402:237,1,100
325,173,181434,5,0,0:0:0:0:
406,115,181645,1,0,0:0:0:0:
313,77,181856,2,0,P|255:52|125:116,1,200
230,133,182490,2,0,L|231:192,2,50
133,105,182913,5,0,0:0:0:0:
77,187,183124,1,0,0:0:0:0:
128,272,183335,1,0,0:0:0:0:
189,351,183547,2,0,P|223:299|183:160,1,200
105,128,184180,1,0,0:0:0:0:
187,70,184392,2,0,L|144:34,2,50
268,128,184814,1,0,0:0:0:0:
338,199,185025,1,0,0:0:0:0:
238,209,185237,2,0,P|263:302|348:350,1,200
342,250,185870,5,0,0:0:0:0:
396,165,186082,2,0,L|470:201,2,50
328,91,186504,1,0,0:0:0:0:
268,171,186716,1,0,0:0:0:0:
191,106,186927,1,0,0:0:0:0:
158,200,187138,2,0,P|163:248|202:277,1,100
276,209,187561,2,0,P|315:238|320:286,1,100
236,339,187983,5,0,0:0:0:0:
153,283,188194,1,0,0:0:0:0:
162,183,188406,1,0,0:0:0:0:
246,129,188617,1,0,0:0:0:0:
342,104,188828,6,0,L|448:57,1,100
449,162,189251,2,0,L|343:209,1,100
263,168,189673,2,0,L|290:264,1,100
195,295,190096,2,0,L|167:198,1,100
110,117,190518,2,0,L|62:58,2,50
199,70,190941,1,0,0:0:0:0:
268,141,191152,1,0,0:0:0:0:
242,237,191363,1,0,0:0:0:0:
135,224,192631,5,0,0:0:0:0:
197,145,193054,1,0,0:0:0:0:
330,248,194744,5,0,0:0:0:0:
214,124,196011,5,0,0:0:0:0:
314,126,196434,1,0,0:0:0:0:
263,211,196856,1,0,0:0:0:0:
363,211,197068,1,0,0:0:0:0:
315,298,197279,1,0,0:0:0:0:
215,302,197490,2,0,L|150:321,2,50
240,205,197913,5,0,0:0:0:0:
194,116,198124,1,0,0:0:0:0:
140,200,198335,1,0,0:0:0:0:
87,114,198547,2,0,L|28:211,1,100
88,285,198969,6,0,L|147:188,1,100
184,109,199392,1,0,0:0:0:0:
280,84,199603,2,0,L|287:16,2,50
348,156,200025,1,0,0:0:0:0:
248,167,200237,6,0,L|271:278,1,100
354,323,200659,1,0,0:0:0:0:
430,258,200870,1,0,0:0:0:0:
401,161,201082,1,0,0:0:0:0:
307,195,201293,2,0,L|332:240,2,50
280,101,201927,5,0,0:0:0:0:
184,132,202138,2,0,L|73:177,1,100
22,242,202561,1,0,0:0:0:0:
90,314,202772,1,0,0:0:0:0:
183,278,202983,2,0,L|294:209,1,100
354,174,203406,2,0,L|297:91,1,100
199,72,203828,2,0,L|179:11,2,50
233,166,204251,5,0,0:0:0:0:
233,166,204356,1,0,0:0:0:0:
233,166,204462,2,0,L|249:213,2,50
135,187,204885,6,0,L|164:304,1,100
245,268,205307,2,0,L|355:219,1,100
412,162,205730,1,0,0:0:0:0:
326,111,205941,1,0,0:0:0:0:
233,149,206152,2,0,L|136:219,1,100
194,298,206575,2,0,L|291:228,1,100
301,143,206997,1,0,0:0:0:0:
211,99,207208,6,0,L|109:193,2,100
311,99,207842,1,0,0:0:0:0:
323,198,208054,1,0,0:0:0:0:
245,260,208265,2,0,L|136:328,1,100
111,225,208687,2,0,L|218:149,1,100
271,106,209110,1,0,0:0:0:0:
355,158,209321,1,0,0:0:0:0:
416,79,209532,1,0,0:0:0:0:
316,63,209744,6,0,L|169:64,1,100
130,115,210166,1,0,0:0:0:0:
218,161,210377,1,0,0:0:0:0:
140,225,210589,1,0,0:0:0:0:
227,273,210800,1,0,0:0:0:0:
139,321,211011,2,0,L|89:352,2,50
158,222,211434,5,0,0:0:0:0:
228,151,211645,1,0,0:0:0:0:
253,247,211856,1,0,0:0:0:0:
329,182,212068,1,0,0:0:0:0:
351,279,212279,1,0,0:0:0:0:
431,219,212490,2,0,L|458:306,2,50
409,120,212913,5,0,0:0:0:0:
327,62,213124,2,0,P|292:153|333:241,1,200
393,161,213758,1,0,0:0:0:0:
443,247,213969,2,0,L|499:229,2,50
380,325,214392,1,0,0:0:0:0:
301,263,214603,1,0,0:0:0:0:
243,344,214814,6,0,P|181:354|69:263,1,200
84,178,215448,1,0,0:0:0:0:
117,83,215659,2,0,L|82:29,2,50
214,107,216082,1,0,0:0:0:0:
308,75,216293,1,0,0:0:0:0:
391,129,216504,6,0,P|320:196|222:194,1,200
154,121,217138,1,0,0:0:0:0:
99,204,217349,2,0,L|25:226,2,50
182,259,217772,1,0,0:0:0:0:
263,201,217983,2,0,L|299:259,2,50
227,107,218406,5,0,0:0:0:0:
307,48,218617,2,0,L|363:147,1,100
419,212,219039,2,0,L|484:226,2,50
335,267,219462,1,0,0:0:0:0:
240,299,219673,1,0,0:0:0:0:
140,313,219885,6,0,P|156:252|284:186,1,200
366,167,220518,1,0,0:0:0:0:
295,95,220730,1,0,0:0:0:0:
98,132,221152,1,0,0:0:0:0:
19,193,221363,1,0,0:0:0:0:
174,319,221786,5,0,0:0:0:0:
244,247,221997,2,0,L|352:333,1,100
364,218,222420,1,0,0:0:0:0:
434,146,222631,2,0,L|542:232,1,100
470,299,223054,1,0,0:0:0:0:
400,371,223265,2,0,L|291:284,1,100
390,236,223687,1,0,0:0:0:0:
320,164,223898,2,0,L|241:226,1,100
243,326,224321,6,0,L|127:386,1,100
95,290,224744,2,0,L|42:187,1,100
137,154,225166,2,0,L|196:266,1,100
283,241,225589,1,0,0:0:0:0:
319,147,225800,2,0,P|269:152|225:175,2,100
419,139,226434,6,0,P|402:236|337:310,1,200
140,351,227279,2,0,P|97:291|112:239,1,100
144,179,227701,2,0,P|137:130|103:94,1,100
24,156,228124,1,0,0:0:0:0:
78,239,228335,5,0,0:0:0:0:
78,239,228441,1,0,0:0:0:0:
78,239,228547,2,0,P|150:305|247:323,1,200
299,237,229180,2,0,P|332:272|339:321,2,100
198,232,229814,1,0,0:0:0:0:
255,150,230025,5,0,0:0:0:0:
255,150,230131,1,0,0:0:0:0:
255,150,230237,2,0,P|183:84|86:66,1,200
112,162,230870,1,0,0:0:0:0:
51,242,231082,1,0,0:0:0:0:
115,318,231293,2,0,P|153:287|168:239,1,100,0|0,1:0|1:0,1:0:0:0:
183,141,231716,1,0,0:0:0:0:
192,41,231927,6,0,P|289:58|362:124,1,200
318,215,232561,2,0,P|279:184|264:137,2,100,0|0|0,1:0|1:0|1:0,1:0:0:0:
417,212,233194,1,0,0:0:0:0:
361,295,233406,5,0,0:0:0:0:
361,295,233511,1,0,0:0:0:0:
361,295,233617,2,0,P|266:321|171:294,1,200
101,221,234251,2,0,P|143:194|192:196,1,100,0|0,1:0|1:0,1:0:0:0:
278,246,234673,1,0,0:0:0:0:
354,181,234885,1,0,0:0:0:0:
387,86,235096,6,0,L|460:91,2,50
289,66,235518,1,0,0:0:0:0:
199,112,235730,1,0,0:0:0:0:
117,53,235941,2,0,P|79:101|85:146,1,100
137,219,236363,1,0,0:0:0:0:
222,166,236575,1,0,0:0:0:0:
300,227,236786,2,0,P|226:293|129:311,1,200
60,238,237420,1,0,0:0:0:0:
144,184,237631,6,0,L|202:119,4,50
76,109,238265,1,0,0:0:0:0:
152,44,238476,1,0,0:0:0:0:
238,94,238687,1,0,0:0:0:0:
256,192,238793,12,0,242068,0:0:0:0:
