osu file format v14

[General]
AudioFilename: audio.mp3
AudioLeadIn: 0
PreviewTime: 284
Countdown: 0
SampleSet: None
StackLeniency: 0.2
Mode: 0
LetterboxInBreaks: 0
EpilepsyWarning: 1
WidescreenStoryboard: 0

[Editor]
Bookmarks: 1,2,3,4,5,6,7,8,9,10,11,12,13,14,15,16,17,18,19,20,21,22,23,24,25,26,27,28,29,30,31,32,33,34,35,36,37,38,39,40,41,42,43,44,45,46,47,48,49,50,51,52,53,54,55,56,57,58,59,60,61,62,63,64,65,66,67,68,69,70,71,72,73,74,75,76,77,78,79,80,81,82,83,84,85,86,87,88,89,90,91,92,93,94,95,96,97,98,99,100,101,102,103,104,105,106,107,108,109,110,111,112,113,114,115,116,117,118,119,120,121,122,123,124,125,126,127,128,129,130,131,132,133,134,135,136,137,138,139,140,141,142,143,144,145,146,147,148,149,150,151,152,153,154,155,156,157,158,159,160,161,162,163,164,165,166,167,168,169,170,171,172,173,174,175,176,177,178,179,180,181,182,183,184,185,186,187,188,189,190,191,192,193,194,195,196,197,198,199,200,201,202,203,204,205,206,207,208,209,210,211,212,213,214,215,216,217,218,219,220,221,222,223,224,225,226,227,228,229,230,231,232,233,234,235,236,237,238,239,240,241,242,243,244,245,246,247,248,249,250,251,252,253,254,255,256,257,258,259,260,261,262,263,264,265,266,267,268,269,270,271,272,273,274,275,276,277,278,279,280,281,282,283,284,285,286,287,288,289,290,291,292,293,294,295,296,297,298,299,300,301,302,303,304,305,306,307,308,309,310,311,312,313,314,315,316,317,318,319,320,321,322,323,324,325,326,327,328,329,330,331,332,333,334,335,336,337,338,339,340,341,342,343,344,345,346,347,348,349,350,351,352,353,354,355,356,357,358,359,360,361,362,363,364,365,366,367,368,369,370,371,372,373,374,375,376,377,378,379,380,381,382,383,384,385,386,387,388,389,390,391,392,393,394,395,396,397,398,399,400,401,402,403,404,405,406,407,408,409,410,411,412,413,414,415,416,417,418,419,420,421,422,423,424,425,426,427,428,429,430,431,432,433,434,435,436,437,438,439,440,441,442,443,444,445,446,447,448,449,450,451,452,453,454,455,456,457,458,459,460,461,462,463,464,465,466,467,468,469,470,471,472,473,474,475,476,477,478,479,480,481,482,483,484,485,486,487,488,489,490,491,492,493,494,495,496,497,498,499,500,501,502,503,504,505,506,507,508,509,510,511,512,513,514,515,516,517,518,519,520,521,522,523,524,525,526,527,528,529,530,531,532,533,534,535,536,537,538,539,540,541,542,543,544,545,546,547,548,549,550,551,552,553,554,555,556,557,558,559,560,561,562,563,564,565,566,567,568,569,570,571,572,573,574,575,576,577,578,579,580,581,582,583,584,585,586,587,588,589,590,591,592,593,594,595,596,597,598,599,600,601,602,603,604,605,606,607,608,609,610,611,612,613,614,615,616,617,618,619,620,621,622,623,624,625,626,627,628,629,630,631,632,633,634,635,636,637,638,639,640,641,642,643,644,645,646,647,648,649,650,651,652,653,654,655,656,657,658,659,660,661,662,663,664,665,666,667,668,669,670,671,672,673,674,675,676,677,678,679,680,681,682,683,684,685,686,687,688,689,690,691,692,693,694,695,696,697,698,699,700,701,702,703,704,705,706,707,708,709,710,711,712,713,714,715,716,717,718,719,720,721,722,723,724,725,726,727,728,729,730,731,732,733,734,735,736,737,738,739,740,741,742,743,744,745,746,747,748,749,750,751,752,753,754,755,756,757,758,759,760,761,762,763,764,765,766,767,768,769,770,771,772,773,774,775,776,777,778,779,780,781,782,783,784,785,786,787,788,789,790,791,792,793,794,795,796,797,798,799,800,801,802,803,804,805,806,807,808,809,810,811,812,813,814,815,816,817,818,819,820,821,822,823,824,825,826,827,828,829,830,831,832,833,834,835,836,837,838,839,840,841,842,843,844,845,846,847,848,849,850,851,852,853,854,855,856,857,858,859,860,861,862,863,864,865,866,867,868,869,870,871,872,873,874,875,876,877,878,879,880,881,882,883,884,885,886,887,888,889,890,891,892,893,894,895,896,897,898,899,900,901,902,903,904,905,906,907,908,909,910,911,912,913,914,915,916,917,918,919,920,921,922,923,924,925,926,927,928,929,930,931,932,933,934,935,936,937,938,939,940,941,942,943,944,945,946,947,948,949,950,951,952,953,954,955,956,957,958,959,960,961,962,963,964,965,966,967,968,969,970,971,972,973,974,975,976,977,978,979,980,981,982,983,984,985,986,987,988,989,990,991,992,993,994,995,996,997,998,999,1000,1001,1002,1003,1004,1005,1006,1007,1008,1009,1010,1011,1012,1013,1014,1015,1016,1017,1018,1019,1020,1021,1022,1023,1024,1025,1026,1027,1028,1029,1030,1031,1032,1033,1034,1035,1036,1037,1038,1039,1040,1041,1042,1043,1044,1045,1046,1047,1048,1049,1050,1051,1052,1053,1054,1055,1056,1057,1058,1059,1060,1061,1062,1063,1064,1065,1066,1067,1068,1069,1070,1071,1072,1073,1074,1075,1076,1077,1078,1079,1080,1081,1082,1083,1084,1085,1086,1087,1088,1089,1090,1091,1092,1093,1094,1095,1096,1097,1098,1099,1100,1101,1102,1103,1104,1105,1106,1107,1108,1109,1110,1111,1112,1113,1114,1115,1116,1117,1118,1119,1120,1121,1122,1123,1124,1125,1126,1127,1128,1129,1130,1131,1132,1133,1134,1135,1136,1137,1138,1139,1140,1141,1142,1143,1144,1145,1146,1147,1148,1149,1150,1151,1152,1153,1154,1155,1156,1157,1158,1159,1160,1161,1162,1163,1164,1165,1166,1167,1168,1169,1170,1171,1172,1173,1174,1175,1176,1177,1178,1179,1180,1181,1182,1183,1184,1185,1186,1187,1188,1189,1190,1191,1192,1193,1194,1195,1196,1197,1198,1199,1200,1201,1202,1203,1204,1205,1206,1207,1208,1209,1210,1211,1212,1213,1214,1215,1216,1217,1218,1219,1220,1221,1222,1223,1224,1225,1226,1227,1228,1229,1230,1231,1232,1233,1234,1235,1236,1237,1238,1239,1240,1241,1242,1243,1244,1245,1246,1247,1248,1249,1250,1251,1252,1253,1254,1255,1256,1257,1258,1259,1260,1261,1262,1263,1264,1265,1266,1267,1268,1269,1270,1271,1272,1273,1274,1275,1276,1277,1278,1279,1280,1281,1282,1283,1284,1285,1286,1287,1288,1289,1290,1291,1292,1293,1294,1295,1296,1297,1298,1299,1300,1301,1302,1303,1304,1305,1306,1307,1308,1309,1310,1311,1312,1313,1314,1315,1316,1317,1318,1319,1320,1321,1322,1323,1324,1325,1326,1327,1328,1329,1330,1331,1332,1333,1334,1335,1336,1337,1338,1339,1340,1341,1342,1343,1344,1345,1346,1347,1348,1349,1350,1351,1352,1353,1354,1355,1356,1357,1358,1359,1360,1361,1362,1363,1364,1365,1366,1367,1368,1369,1370,1371,1372,1373,1374,1375,1376,1377,1378,1379,1380,1381,1382,1383,1384,1385,1386,1387,1388,1389,1390,1391,1392,1393,1394,1395,1396,1397,1398,1399,1400,1401,1402,1403,1404,1405,1406,1407,1408,1409,1410,1411,1412,1413,1414,1415,1416,1417,1418,1419,1420,1421,1422,1423,1424,1425,1426,1427,1428,1429,1430,1431,1432,1433,1434,1435,1436,1437,1438,1439,1440,1441,1442,1443,1444,1445,1446,1447,1448,1449,1450,1451,1452,1453,1454,1455,1456,1457,1458,1459,1460,1461,1462,1463,1464,1465,1466,1467,1468,1469,1470,1471,1472,1473,1474,1475,1476,1477,1478,1479,1480,1481,1482,1483,1484,1485,1486,1487,1488,1489,1490,1491,1492,1493,1494,1495,1496,1497,1498,1499,1500,1501,1502,1503,1504,1505,1506,1507,1508,1509,1510,1511,1512,1513,1514,1515,1516,1517,1518,1519,1520,1521,1522,1523,1524,1525,1526,1527,1528,1529,1530,1531,1532,1533,1534,1535,1536,1537,1538,1539,1540,1541,1542,1543,1544,1545,1546,1547,1548,1549,1550,1551,1552,1553,1554,1555,1556,1557,1558,1559,1560,1561,1562,1563,1564,1565,1566,1567,1568,1569,1570,1571,1572,1573,1574,1575,1576,1577,1578,1579,1580,1581,1582,1583,1584,1585,1586,1587,1588,1589,1590,1591,1592,1593,1594,1595,1596,1597,1598,1599,1600,1601,1602,1603,1604,1605,1606,1607,1608,1609,1610,1611,1612,1613,1614,1615,1616,1617,1618,1619,1620,1621,1622,1623,1624,1625,1626,1627,1628,1629,1630,1631,1632,1633,1634,1635,1636,1637,1638,1639,1640,1641,1642,1643,1644,1645,1646,1647,1648,1649,1650,1651,1652,1653,1654,1655,1656,1657,1658,1659,1660,1661,1662,1663,1664,1665,1666,1667,1668,1669,1670,1671,1672,1673,1674,1675,1676,1677,1678,1679,1680,1681,1682,1683,1684,1685,1686,1687,1688,1689,1690,1691,1692,1693,1694,1695,1696,1697,1698,1699,1700,1701,1702,1703,1704,1705,1706,1707,1708,1709,1710,1711,1712,1713,1714,1715,1716,1717,1718,1719,1720,1721,1722,1723,1724,1725,1726,1727,1728,1729,1730,1731,1732,1733,1734,1735,1736,1737,1738,1739,1740,1741,1742,1743,1744,1745,1746,1747,1748,1749,1750,1751,1752,1753,1754,1755,1756,1757,1758,1759,1760,1761,1762,1763,1764,1765,1766,1767,1768,1769,1770,1771,1772,1773,1774,1775,1776,1777,1778,1779,1780,1781,1782,1783,1784,1785,1786,1787,1788,1789,1790,1791,1792,1793,1794,1795,1796,1797,1798,1799,1800,1801,1802,1803,1804,1805,1806,1807,1808,1809,1810,1811,1812,1813,1814,1815,1816,1817,1818,1819,1820,1821,1822,1823,1824,1825,1826,1827,1828,1829,1830,1831,1832,1833,1834,1835,1836,1837,1838,1839,1840,1841,1842,1843,1844,1845,1846,1847,1848,1849,1850,1851,1852,1853,1854,1855,1856,1857,1858,1859,1860,1861,1862,1863,1864,1865,1866,1867,1868,1869,1870,1871,1872,1873,1874,1875,1876,1877,1878,1879,1880,1881,1882,1883,1884,1885,1886,1887,1888,1889,1890,1891,1892,1893,1894,1895,1896,1897,1898,1899,1900,1901,1902,1903,1904,1905,1906,1907,1908,1909,1910,1911,1912,1913,1914,1915,1916,1917,1918,1919,1920,1921,1922,1923,1924,1925,1926,1927,1928,1929,1930,1931,1932,1933,1934,1935,1936,1937,1938,1939,1940,1941,1942,1943,1944,1945,1946,1947,1948,1949,1950,1951,1952,1953,1954,1955,1956,1957,1958,1959,1960,1961,1962,1963,1964,1965,1966,1967,1968,1969,1970,1971,1972,1973,1974,1975,1976,1977,1978,1979,1980,1981,1982,1983,1984,1985,1986,1987,1988,1989,1990,1991,1992,1993,1994,1995,1996,1997,1998,1999,2000,2001,2002,2003,2004,2005,2006,2007,2008,2009,2010,2011,2012,2013,2014,2015,2016,2017,2018,2019,2020,2021,2022,2023,2024,2025,2026,2027,2028,2029,2030,2031,2032,2033,2034,2035,2036,2037,2038,2039,2040,2041,2042,2043,2044,2045,2046,2047,2048,2049,2050,2051,2052,2053,2054,2055,2056,2057,2058,2059,2060,2061,2062,2063,2064,2065,2066,2067,2068,2069,2070,2071,2072,2073,2074,2075,2076,2077,2078,2079,2080,2081,2082,2083,2084,2085,2086,2087,2088,2089,2090,2091,2092,2093,2094,2095,2096,2097,2098,2099,2100,2101,2102,2103,2104,2105,2106,2107,2108,2109,2110,2111,2112,2113,2114,2115,2116,2117,2118,2119,2120,2121,2122,2123,2124,2125,2126,2127,2128,2129,2130,2131,2132,2133,2134,2135,2136,2137,2138,2139,2140,2141,2142,2143,2144,2145,2146,2147,2148,2149,2150,2151,2152,2153,2154,2155,2156,2157,2158,2159,2160,2161,2162,2163,2164,2165,2166,2167,2168,2169,2170,2171,2172,2173,2174,2175,2176,2177,2178,2179,2180,2181,2182,2183,2184,2185,2186,2187,2188,2189,2190,2191,2192,2193,2194,2195,2196,2197,2198,2199,2200,2201,2202,2203,2204,2205,2206,2207,2208,2209,2210,2211,2212,2213,2214,2215,2216,2217,2218,2219,2220,2221,2222,2223,2224,2225,2226,2227,2228,2229,2230,2231,2232,2233,2234,2235,2236,2237,2238,2239,2240,2241,2242,2243,2244,2245,2246,2247,2248,2249,2250,2251,2252,2253,2254,2255,2256,2257,2258,2259,2260,2261,2262,2263,2264,2265,2266,2267,2268,2269,2270,2271,2272,2273,2274,2275,2276,2277,2278,2279,2280,2281,2282,2283,2284,2285,2286,2287,2288,2289,2290,2291,2292,2293,2294,2295,2296,2297,2298,2299,2300,2301,2302,2303,2304,2305,2306,2307,2308,2309,2310,2311,2312,2313,2314,2315,2316,2317,2318,2319,2320,2321,2322,2323,2324,2325,2326,2327,2328,2329,2330,2331,2332,2333,2334,2335,2336,2337,2338,2339,2340,2341,2342,2343,2344,2345,2346,2347,2348,2349,2350,2351,2352,2353,2354,2355,2356,2357,2358,2359,2360,2361,2362,2363,2364,2365,2366,2367,2368,2369,2370,2371,2372,2373,2374,2375,2376,2377,2378,2379,2380,2381,2382,2383,2384,2385,2386,2387,2388,2389,2390,2391,2392,2393,2394,2395,2396,2397,2398,2399,2400,2401,2402,2403,2404,2405,2406,2407,2408,2409,2410,2411,2412,2413,2414,2415,2416,2417,2418,2419,2420,2421,2422,2423,2424,2425,2426,2427,2428,2429,2430,2431,2432,2433,2434,2435,2436,2437,2438,2439,2440,2441,2442,2443,2444,2445,2446,2447,2448,2449,2450,2451,2452,2453,2454,2455,2456,2457,2458,2459,2460,2461,2462,2463,2464,2465,2466,2467,2468,2469,2470,2471,2472,2473,2474,2475,2476,2477,2478,2479,2480,2481,2482,2483,2484,2485,2486,2487,2488,2489,2490,2491,2492,2493,2494,2495,2496,2497,2498,2499,2500,2501,2502,2503,2504,2505,2506,2507,2508,2509,2510,2511,2512,2513,2514,2515,2516,2517,2518,2519,2520,2521,2522,2523,2524,2525,2526,2527,2528,2529,2530,2531,2532,2533,2534,2535,2536,2537,2538,2539,2540,2541,2542,2543,2544,2545,2546,2547,2548,2549,2550,2551,2552,2553,2554,2555,2556,2557,2558,2559,2560,2561,2562,2563,2564,2565,2566,2567,2568,2569,2570,2571,2572,2573,2574,2575,2576,2577,2578,2579,2580,2581,2582,2583,2584,2585,2586,2587,2588,2589,2590,2591,2592,2593,2594,2595,2596,2597,2598,2599,2600,2601,2602,2603,2604,2605,2606,2607,2608,2609,2610,2611,2612,2613,2614,2615,2616,2617,2618,2619,2620,2621,2622,2623,2624,2625,2626,2627,2628,2629,2630,2631,2632,2633,2634,2635,2636,2637,2638,2639,2640,2641,2642,2643,2644,2645,2646,2647,2648,2649,2650,2651,2652,2653,2654,2655,2656,2657,2658,2659,2660,2661,2662,2663,2664,2665,2666,2667,2668,2669,2670,2671,2672,2673,2674,2675,2676,2677,2678,2679,2680,2681,2682,2683,2684,2685,2686,2687,2688,2689,2690,2691,2692,2693,2694,2695,2696,2697,2698,2699,2700,2701,2702,2703,2704,2705,2706,2707,2708,2709,2710,2711,2712,2713,2714,2715,2716,2717,2718,2719,2720,2721,2722,2723,2724,2725,2726,2727,2728,2729,2730,2731,2732,2733,2734,2735,2736,2737,2738,2739,2740,2741,2742,2743,2744,2745,2746,2747,2748,2749,2750,2751,2752,2753,2754,2755,2756,2757,2758,2759,2760,2761,2762,2763,2764,2765,2766,2767,2768,2769,2770,2771,2772,2773,2774,2775,2776,2777,2778,2779,2780,2781,2782,2783,2784,2785,2786,2787,2788,2789,2790,2791,2792,2793,2794,2795,2796,2797,2798,2799,2800,2801,2802,2803,2804,2805,2806,2807,2808,2809,2810,2811,2812,2813,2814,2815,2816,2817,2818,2819,2820,2821,2822,2823,2824,2825,2826,2827,2828,2829,2830,2831,2832,2833,2834,2835,2836,2837,2838,2839,2840,2841,2842,2843,2844,2845,2846,2847,2848,2849,2850,2851,2852,2853,2854,2855,2856,2857,2858,2859,2860,2861,2862,2863,2864,2865,2866,2867,2868,2869,2870,2871,2872,2873,2874,2875,2876,2877,2878,2879,2880,3121,3122,3123,3124,3125,3126,3127,3128,3129,3130,3131,3132,3133,3134,3135,3136,3137,3138,3139,3140,3141,3142,3143,3144,3145,3146,3147,3148,3149,3150,3151,3152,3153,3154,3155,3156,3157,3158,3159,3160,3161,3162,3163,3164,3165,3166,3167,3168,3169,3170,3171,3172,3173,3174,3175,3176,3177,3178,3179,3180,3181,3182,3183,3184,3185,3186,3187,3188,3189,3190,3191,3192,3193,3194,3195,3196,3197,3198,3199,3200,3201,3202,3203,3204,3205,3206,3207,3208,3209,3210,3211,3212,3213,3214,3215,3216,3217,3218,3219,3220,3221,3222,3223,3224,3225,3226,3227,3228,3229,3230,3231,3232,3233,3234,3235,3236,3237,3238,3239,3240,3361,3362,3363,3364,3365,3366,3367,3368,3369,3370,3371,3372,3373,3374,3375,3376,3377,3378,3379,3380,3381,3382,3383,3384,3385,3386,3387,3388,3389,3390,3391,3392,3393,3394,3395,3396,3397,3398,3399,3400,3401,3402,3403,3404,3405,3406,3407,3408,3409,3410,3411,3412,3413,3414,3415,3416,3417,3418,3419,3420,3421,3422,3423,3424,3425,3426,3427,3428,3429,3430,3431,3432,3433,3434,3435,3436,3437,3438,3439,3440,3441,3442,3443,3444,3445,3446,3447,3448,3449,3450,3451,3452,3453,3454,3455,3456,3457,3458,3459,3460,3461,3462,3463,3464,3465,3466,3467,3468,3469,3470,3471,3472,3473,3474,3475,3476,3477,3478,3479,3480,3481,3482,3483,3484,3485,3486,3487,3488,3489,3490,3491,3492,3493,3494,3495,3496,3497,3498,3499,3500,3501,3502,3503,3504,3505,3506,3507,3508,3509,3510,3511,3512,3513,3514,3515,3516,3517,3518,3519,3520,3521,3522,3523,3524,3525,3526,3527,3528,3529,3530,3531,3532,3533,3534,3535,3536,3537,3538,3539,3540,3541,3542,3543,3544,3545,3546,3547,3548,3549,3550,3551,3552,3553,3554,3555,3556,3557,3558,3559,3560,3561,3562,3563,3564,3565,3566,3567,3568,3569,3570,3571,3572,3573,3574,3575,3576,3577,3578,3579,3580,3581,3582,3583,3584,3585,3586,3587,3588,3589,3590,3591,3592,3593,3594,3595,3596,3597,3598,3599,3600,3721,3722,3723,3724,3725,3726,3727,3728,3729,3730,3731,3732,3733,3734,3735,3736,3737,3738,3739,3740,3741,3742,3743,3744,3745,3746,3747,3748,3749,3750,3751,3752,3753,3754,3755,3756,3757,3758,3759,3760,3761,3762,3763,3764,3765,3766,3767,3768,3769,3770,3771,3772,3773,3774,3775,3776,3777,3778,3779,3780,3781,3782,3783,3784,3785,3786,3787,3788,3789,3790,3791,3792,3793,3794,3795,3796,3797,3798,3799,3800,3801,3802,3803,3804,3805,3806,3807,3808,3809,3810,3811,3812,3813,3814,3815,3816,3817,3818,3819,3820,3821,3822,3823,3824,3825,3826,3827,3828,3829,3830,3831,3832,3833,3834,3835,3836,3837,3838,3839,3840,3841,3842,3843,3844,3845,3846,3847,3848,3849,3850,3851,3852,3853,3854,3855,3856,3857,3858,3859,3860,3861,3862,3863,3864,3865,3866,3867,3868,3869,3870,3871,3872,3873,3874,3875,3876,3877,3878,3879,3880,3881,3882,3883,3884,3885,3886,3887,3888,3889,3890,3891,3892,3893,3894,3895,3896,3897,3898,3899,3900,3901,3902,3903,3904,3905,3906,3907,3908,3909,3910,3911,3912,3913,3914,3915,3916,3917,3918,3919,3920,3921,3922,3923,3924,3925,3926,3927,3928,3929,3930,3931,3932,3933,3934,3935,3936,3937,3938,3939,3940,3941,3942,3943,3944,3945,3946,3947,3948,3949,3950,3951,3952,3953,3954,3955,3956,3957,3958,3959,3960,3961,3962,3963,3964,3965,3966,3967,3968,3969,3970,3971,3972,3973,3974,3975,3976,3977,3978,3979,3980,3981,3982,3983,3984,3985,3986,3987,3988,3989,3990,3991,3992,3993,3994,3995,3996,3997,3998,3999,4000,4001,4002,4003,4004,4005,4006,4007,4008,4009,4010,4011,4012,4013,4014,4015,4016,4017,4018,4019,4020,4021,4022,4023,4024,4025,4026,4027,4028,4029,4030,4031,4032,4033,4034,4035,4036,4037,4038,4039,4040,4041,4042,4043,4044,4045,4046,4047,4048,4049,4050,4051,4052,4053,4054,4055,4056,4057,4058,4059,4060,4061,4062,4063,4064,4065,4066,4067,4068,4069,4070,4071,4072,4073,4074,4075,4076,4077,4078,4079,4080,4081,4082,4083,4084,4085,4086,4087,4088,4089,4090,4091,4092,4093,4094,4095,4096,4097,4098,4099,4100,4101,4102,4103,4104,4105,4106,4107,4108,4109,4110,4111,4112,4113,4114,4115,4116,4117,4118,4119,4120,4121,4122,4123,4124,4125,4126,4127,4128,4129,4130,4131,4132,4133,4134,4135,4136,4137,4138,4139,4140,4141,4142,4143,4144,4145,4146,4147,4148,4149,4150,4151,4152,4153,4154,4155,4156,4157,4158,4159,4160,4161,4162,4163,4164,4165,4166,4167,4168,4169,4170,4171,4172,4173,4174,4175,4176,4177,4178,4179,4180,4181,4182,4183,4184,4185,4186,4187,4188,4189,4190,4191,4192,4193,4194,4195,4196,4197,4198,4199,4200,4321,4322,4323,4324,4325,4326,4327,4328,4329,4330,4331,4332,4333,4334,4335,4336,4337,4338,4339,4340,4341,4342,4343,4344,4345,4346,4347,4348,4349,4350,4351,4352,4353,4354,4355,4356,4357,4358,4359,4360,4361,4362,4363,4364,4365,4366,4367,4368,4369,4370,4371,4372,4373,4374,4375,4376,4377,4378,4379,4380,4381,4382,4383,4384,4385,4386,4387,4388,4389,4390,4391,4392,4393,4394,4395,4396,4397,4398,4399,4400,4401,4402,4403,4404,4405,4406,4407,4408,4409,4410,4411,4412,4413,4414,4415,4416,4417,4418,4419,4420,4421,4422,4423,4424,4425,4426,4427,4428,4429,4430,4431,4432,4433,4434,4435,4436,4437,4438,4439,4440,4441,4442,4443,4444,4445,4446,4447,4448,4449,4450,4451,4452,4453,4454,4455,4456,4457,4458,4459,4460,4461,4462,4463,4464,4465,4466,4467,4468,4469,4470,4471,4472,4473,4474,4475,4476,4477,4478,4479,4480,4481,4482,4483,4484,4485,4486,4487,4488,4489,4490,4491,4492,4493,4494,4495,4496,4497,4498,4499,4500,4501,4502,4503,4504,4505,4506,4507,4508,4509,4510,4511,4512,4513,4514,4515,4516,4517,4518,4519,4520,4521,4522,4523,4524,4525,4526,4527,4528,4529,4530,4531,4532,4533,4534,4535,4536,4537,4538,4539,4540,4541,4542,4543,4544,4545,4546,4547,4548,4549,4550,4551,4552,4553,4554,4555,4556,4557,4558,4559,4560,4801,4802,4803,4804,4805,4806,4807,4808,4809,4810,4811,4812,4813,4814,4815,4816,4817,4818,4819,4820,4821,4822,4823,4824,4825,4826,4827,4828,4829,4830,4831,4832,4833,4834,4835,4836,4837,4838,4839,4840,4841,4842,4843,4844,4845,4846,4847,4848,4849,4850,4851,4852,4853,4854,4855,4856,4857,4858,4859,4860,4861,4862,4863,4864,4865,4866,4867,4868,4869,4870,4871,4872,4873,4874,4875,4876,4877,4878,4879,4880,4881,4882,4883,4884,4885,4886,4887,4888,4889,4890,4891,4892,4893,4894,4895,4896,4897,4898,4899,4900,4901,4902,4903,4904,4905,4906,4907,4908,4909,4910,4911,4912,4913,4914,4915,4916,4917,4918,4919,4920,4921,4922,4923,4924,4925,4926,4927,4928,4929,4930,4931,4932,4933,4934,4935,4936,4937,4938,4939,4940,4941,4942,4943,4944,4945,4946,4947,4948,4949,4950,4951,4952,4953,4954,4955,4956,4957,4958,4959,4960,4961,4962,4963,4964,4965,4966,4967,4968,4969,4970,4971,4972,4973,4974,4975,4976,4977,4978,4979,4980,4981,4982,4983,4984,4985,4986,4987,4988,4989,4990,4991,4992,4993,4994,4995,4996,4997,4998,4999,5000,5001,5002,5003,5004,5005,5006,5007,5008,5009,5010,5011,5012,5013,5014,5015,5016,5017,5018,5019,5020,5021,5022,5023,5024,5025,5026,5027,5028,5029,5030,5031,5032,5033,5034,5035,5036,5037,5038,5039,5040,5041,5042,5043,5044,5045,5046,5047,5048,5049,5050,5051,5052,5053,5054,5055,5056,5057,5058,5059,5060,5061,5062,5063,5064,5065,5066,5067,5068,5069,5070,5071,5072,5073,5074,5075,5076,5077,5078,5079,5080,5081,5082,5083,5084,5085,5086,5087,5088,5089,5090,5091,5092,5093,5094,5095,5096,5097,5098,5099,5100,5101,5102,5103,5104,5105,5106,5107,5108,5109,5110,5111,5112,5113,5114,5115,5116,5117,5118,5119,5120,5121,5122,5123,5124,5125,5126,5127,5128,5129,5130,5131,5132,5133,5134,5135,5136,5137,5138,5139,5140,5141,5142,5143,5144,5145,5146,5147,5148,5149,5150,5151,5152,5153,5154,5155,5156,5157,5158,5159,5160,5161,5162,5163,5164,5165,5166,5167,5168,5169,5170,5171,5172,5173,5174,5175,5176,5177,5178,5179,5180,5181,5182,5183,5184,5185,5186,5187,5188,5189,5190,5191,5192,5193,5194,5195,5196,5197,5198,5199,5200,5201,5202,5203,5204,5205,5206,5207,5208,5209,5210,5211,5212,5213,5214,5215,5216,5217,5218,5219,5220,5221,5222,5223,5224,5225,5226,5227,5228,5229,5230,5231,5232,5233,5234,5235,5236,5237,5238,5239,5240,5241,5242,5243,5244,5245,5246,5247,5248,5249,5250,5251,5252,5253,5254,5255,5256,5257,5258,5259,5260,5261,5262,5263,5264,5265,5266,5267,5268,5269,5270,5271,5272,5273,5274,5275,5276,5277,5278,5279,5280,5401,5402,5403,5404,5405,5406,5407,5408,5409,5410,5411,5412,5413,5414,5415,5416,5417,5418,5419,5420,5421,5422,5423,5424,5425,5426,5427,5428,5429,5430,5431,5432,5433,5434,5435,5436,5437,5438,5439,5440,5441,5442,5443,5444,5445,5446,5447,5448,5449,5450,5451,5452,5453,5454,5455,5456,5457,5458,5459,5460,5461,5462,5463,5464,5465,5466,5467,5468,5469,5470,5471,5472,5473,5474,5475,5476,5477,5478,5479,5480,5481,5482,5483,5484,5485,5486,5487,5488,5489,5490,5491,5492,5493,5494,5495,5496,5497,5498,5499,5500,5501,5502,5503,5504,5505,5506,5507,5508,5509,5510,5511,5512,5513,5514,5515,5516,5517,5518,5519,5520,5641,5642,5643,5644,5645,5646,5647,5648,5649,5650,5651,5652,5653,5654,5655,5656,5657,5658,5659,5660,5661,5662,5663,5664,5665,5666,5667,5668,5669,5670,5671,5672,5673,5674,5675,5676,5677,5678,5679,5680,5681,5682,5683,5684,5685,5686,5687,5688,5689,5690,5691,5692,5693,5694,5695,5696,5697,5698,5699,5700,5701,5702,5703,5704,5705,5706,5707,5708,5709,5710,5711,5712,5713,5714,5715,5716,5717,5718,5719,5720,5721,5722,5723,5724,5725,5726,5727,5728,5729,5730,5731,5732,5733,5734,5735,5736,5737,5738,5739,5740,5741,5742,5743,5744,5745,5746,5747,5748,5749,5750,5751,5752,5753,5754,5755,5756,5757,5758,5759,5760,5761,5762,5763,5764,5765,5766,5767,5768,5769,5770,5771,5772,5773,5774,5775,5776,5777,5778,5779,5780,5781,5782,5783,5784,5785,5786,5787,5788,5789,5790,5791,5792,5793,5794,5795,5796,5797,5798,5799,5800,5801,5802,5803,5804,5805,5806,5807,5808,5809,5810,5811,5812,5813,5814,5815,5816,5817,5818,5819,5820,5821,5822,5823,5824,5825,5826,5827,5828,5829,5830,5831,5832,5833,5834,5835,5836,5837,5838,5839,5840,5841,5842,5843,5844,5845,5846,5847,5848,5849,5850,5851,5852,5853,5854,5855,5856,5857,5858,5859,5860,5861,5862,5863,5864,5865,5866,5867,5868,5869,5870,5871,5872,5873,5874,5875,5876,5877,5878,5879,5880,6361,6362,6363,6364,6365,6366,6367,6368,6369,6370,6371,6372,6373,6374,6375,6376,6377,6378,6379,6380,6381,6382,6383,6384,6385,6386,6387,6388,6389,6390,6391,6392,6393,6394,6395,6396,6397,6398,6399,6400,6401,6402,6403,6404,6405,6406,6407,6408,6409,6410,6411,6412,6413,6414,6415,6416,6417,6418,6419,6420,6421,6422,6423,6424,6425,6426,6427,6428,6429,6430,6431,6432,6433,6434,6435,6436,6437,6438,6439,6440,6441,6442,6443,6444,6445,6446,6447,6448,6449,6450,6451,6452,6453,6454,6455,6456,6457,6458,6459,6460,6461,6462,6463,6464,6465,6466,6467,6468,6469,6470,6471,6472,6473,6474,6475,6476,6477,6478,6479,6480,6601,6602,6603,6604,6605,6606,6607,6608,6609,6610,6611,6612,6613,6614,6615,6616,6617,6618,6619,6620,6621,6622,6623,6624,6625,6626,6627,6628,6629,6630,6631,6632,6633,6634,6635,6636,6637,6638,6639,6640,6641,6642,6643,6644,6645,6646,6647,6648,6649,6650,6651,6652,6653,6654,6655,6656,6657,6658,6659,6660,6661,6662,6663,6664,6665,6666,6667,6668,6669,6670,6671,6672,6673,6674,6675,6676,6677,6678,6679,6680,6681,6682,6683,6684,6685,6686,6687,6688,6689,6690,6691,6692,6693,6694,6695,6696,6697,6698,6699,6700,6701,6702,6703,6704,6705,6706,6707,6708,6709,6710,6711,6712,6713,6714,6715,6716,6717,6718,6719,6720,6721,6722,6723,6724,6725,6726,6727,6728,6729,6730,6731,6732,6733,6734,6735,6736,6737,6738,6739,6740,6741,6742,6743,6744,6745,6746,6747,6748,6749,6750,6751,6752,6753,6754,6755,6756,6757,6758,6759,6760,6761,6762,6763,6764,6765,6766,6767,6768,6769,6770,6771,6772,6773,6774,6775,6776,6777,6778,6779,6780,6781,6782,6783,6784,6785,6786,6787,6788,6789,6790,6791,6792,6793,6794,6795,6796,6797,6798,6799,6800,6801,6802,6803,6804,6805,6806,6807,6808,6809,6810,6811,6812,6813,6814,6815,6816,6817,6818,6819,6820,6821,6822,6823,6824,6825,6826,6827,6828,6829,6830,6831,6832,6833,6834,6835,6836,6837,6838,6839,6840,6961,6962,6963,6964,6965,6966,6967,6968,6969,6970,6971,6972,6973,6974,6975,6976,6977,6978,6979,6980,6981,6982,6983,6984,6985,6986,6987,6988,6989,6990,6991,6992,6993,6994,6995,6996,6997,6998,6999,7000,7001,7002,7003,7004,7005,7006,7007,7008,7009,7010,7011,7012,7013,7014,7015,7016,7017,7018,7019,7020,7021,7022,7023,7024,7025,7026,7027,7028,7029,7030,7031,7032,7033,7034,7035,7036,7037,7038,7039,7040,7041,7042,7043,7044,7045,7046,7047,7048,7049,7050,7051,7052,7053,7054,7055,7056,7057,7058,7059,7060,7061,7062,7063,7064,7065,7066,7067,7068,7069,7070,7071,7072,7073,7074,7075,7076,7077,7078,7079,7080,7081,7082,7083,7084,7085,7086,7087,7088,7089,7090,7091,7092,7093,7094,7095,7096,7097,7098,7099,7100,7101,7102,7103,7104,7105,7106,7107,7108,7109,7110,7111,7112,7113,7114,7115,7116,7117,7118,7119,7120,7121,7122,7123,7124,7125,7126,7127,7128,7129,7130,7131,7132,7133,7134,7135,7136,7137,7138,7139,7140,7141,7142,7143,7144,7145,7146,7147,7148,7149,7150,7151,7152,7153,7154,7155,7156,7157,7158,7159,7160,7161,7162,7163,7164,7165,7166,7167,7168,7169,7170,7171,7172,7173,7174,7175,7176,7177,7178,7179,7180,7181,7182,7183,7184,7185,7186,7187,7188,7189,7190,7191,7192,7193,7194,7195,7196,7197,7198,7199,7200,7681,7682,7683,7684,7685,7686,7687,7688,7689,7690,7691,7692,7693,7694,7695,7696,7697,7698,7699,7700,7701,7702,7703,7704,7705,7706,7707,7708,7709,7710,7711,7712,7713,7714,7715,7716,7717,7718,7719,7720,7721,7722,7723,7724,7725,7726,7727,7728,7729,7730,7731,7732,7733,7734,7735,7736,7737,7738,7739,7740,7741,7742,7743,7744,7745,7746,7747,7748,7749,7750,7751,7752,7753,7754,7755,7756,7757,7758,7759,7760,7761,7762,7763,7764,7765,7766,7767,7768,7769,7770,7771,7772,7773,7774,7775,7776,7777,7778,7779,7780,7781,7782,7783,7784,7785,7786,7787,7788,7789,7790,7791,7792,7793,7794,7795,7796,7797,7798,7799,7800,7921,7922,7923,7924,7925,7926,7927,7928,7929,7930,7931,7932,7933,7934,7935,7936,7937,7938,7939,7940,7941,7942,7943,7944,7945,7946,7947,7948,7949,7950,7951,7952,7953,7954,7955,7956,7957,7958,7959,7960,7961,7962,7963,7964,7965,7966,7967,7968,7969,7970,7971,7972,7973,7974,7975,7976,7977,7978,7979,7980,7981,7982,7983,7984,7985,7986,7987,7988,7989,7990,7991,7992,7993,7994,7995,7996,7997,7998,7999,8000,8001,8002,8003,8004,8005,8006,8007,8008,8009,8010,8011,8012,8013,8014,8015,8016,8017,8018,8019,8020,8021,8022,8023,8024,8025,8026,8027,8028,8029,8030,8031,8032,8033,8034,8035,8036,8037,8038,8039,8040,8041,8042,8043,8044,8045,8046,8047,8048,8049,8050,8051,8052,8053,8054,8055,8056,8057,8058,8059,8060,8061,8062,8063,8064,8065,8066,8067,8068,8069,8070,8071,8072,8073,8074,8075,8076,8077,8078,8079,8080,8081,8082,8083,8084,8085,8086,8087,8088,8089,8090,8091,8092,8093,8094,8095,8096,8097,8098,8099,8100,8101,8102,8103,8104,8105,8106,8107,8108,8109,8110,8111,8112,8113,8114,8115,8116,8117,8118,8119,8120,8121,8122,8123,8124,8125,8126,8127,8128,8129,8130,8131,8132,8133,8134,8135,8136,8137,8138,8139,8140,8141,8142,8143,8144,8145,8146,8147,8148,8149,8150,8151,8152,8153,8154,8155,8156,8157,8158,8159,8160,8281,8282,8283,8284,8285,8286,8287,8288,8289,8290,8291,8292,8293,8294,8295,8296,8297,8298,8299,8300,8301,8302,8303,8304,8305,8306,8307,8308,8309,8310,8311,8312,8313,8314,8315,8316,8317,8318,8319,8320,8321,8322,8323,8324,8325,8326,8327,8328,8329,8330,8331,8332,8333,8334,8335,8336,8337,8338,8339,8340,8341,8342,8343,8344,8345,8346,8347,8348,8349,8350,8351,8352,8353,8354,8355,8356,8357,8358,8359,8360,8361,8362,8363,8364,8365,8366,8367,8368,8369,8370,8371,8372,8373,8374,8375,8376,8377,8378,8379,8380,8381,8382,8383,8384,8385,8386,8387,8388,8389,8390,8391,8392,8393,8394,8395,8396,8397,8398,8399,8400,8521,8522,8523,8524,8525,8526,8527,8528,8529,8530,8531,8532,8533,8534,8535,8536,8537,8538,8539,8540,8541,8542,8543,8544,8545,8546,8547,8548,8549,8550,8551,8552,8553,8554,8555,8556,8557,8558,8559,8560,8561,8562,8563,8564,8565,8566,8567,8568,8569,8570,8571,8572,8573,8574,8575,8576,8577,8578,8579,8580,8581,8582,8583,8584,8585,8586,8587,8588,8589,8590,8591,8592,8593,8594,8595,8596,8597,8598,8599,8600,8601,8602,8603,8604,8605,8606,8607,8608,8609,8610,8611,8612,8613,8614,8615,8616,8617,8618,8619,8620,8621,8622,8623,8624,8625,8626,8627,8628,8629,8630,8631,8632,8633,8634,8635,8636,8637,8638,8639,8640,8641,8642,8643,8644,8645,8646,8647,8648,8649,8650,8651,8652,8653,8654,8655,8656,8657,8658,8659,8660,8661,8662,8663,8664,8665,8666,8667,8668,8669,8670,8671,8672,8673,8674,8675,8676,8677,8678,8679,8680,8681,8682,8683,8684,8685,8686,8687,8688,8689,8690,8691,8692,8693,8694,8695,8696,8697,8698,8699,8700,8701,8702,8703,8704,8705,8706,8707,8708,8709,8710,8711,8712,8713,8714,8715,8716,8717,8718,8719,8720,8721,8722,8723,8724,8725,8726,8727,8728,8729,8730,8731,8732,8733,8734,8735,8736,8737,8738,8739,8740,8741,8742,8743,8744,8745,8746,8747,8748,8749,8750,8751,8752,8753,8754,8755,8756,8757,8758,8759,8760,9241,9242,9243,9244,9245,9246,9247,9248,9249,9250,9251,9252,9253,9254,9255,9256,9257,9258,9259,9260,9261,9262,9263,9264,9265,9266,9267,9268,9269,9270,9271,9272,9273,9274,9275,9276,9277,9278,9279,9280,9281,9282,9283,9284,9285,9286,9287,9288,9289,9290,9291,9292,9293,9294,9295,9296,9297,9298,9299,9300,9301,9302,9303,9304,9305,9306,9307,9308,9309,9310,9311,9312,9313,9314,9315,9316,9317,9318,9319,9320,9321,9322,9323,9324,9325,9326,9327,9328,9329,9330,9331,9332,9333,9334,9335,9336,9337,9338,9339,9340,9341,9342,9343,9344,9345,9346,9347,9348,9349,9350,9351,9352,9353,9354,9355,9356,9357,9358,9359,9360,9361,9362,9363,9364,9365,9366,9367,9368,9369,9370,9371,9372,9373,9374,9375,9376,9377,9378,9379,9380,9381,9382,9383,9384,9385,9386,9387,9388,9389,9390,9391,9392,9393,9394,9395,9396,9397,9398,9399,9400,9401,9402,9403,9404,9405,9406,9407,9408,9409,9410,9411,9412,9413,9414,9415,9416,9417,9418,9419,9420,9421,9422,9423,9424,9425,9426,9427,9428,9429,9430,9431,9432,9433,9434,9435,9436,9437,9438,9439,9440,9441,9442,9443,9444,9445,9446,9447,9448,9449,9450,9451,9452,9453,9454,9455,9456,9457,9458,9459,9460,9461,9462,9463,9464,9465,9466,9467,9468,9469,9470,9471,9472,9473,9474,9475,9476,9477,9478,9479,9480,9601,9602,9603,9604,9605,9606,9607,9608,9609,9610,9611,9612,9613,9614,9615,9616,9617,9618,9619,9620,9621,9622,9623,9624,9625,9626,9627,9628,9629,9630,9631,9632,9633,9634,9635,9636,9637,9638,9639,9640,9641,9642,9643,9644,9645,9646,9647,9648,9649,9650,9651,9652,9653,9654,9655,9656,9657,9658,9659,9660,9661,9662,9663,9664,9665,9666,9667,9668,9669,9670,9671,9672,9673,9674,9675,9676,9677,9678,9679,9680,9681,9682,9683,9684,9685,9686,9687,9688,9689,9690,9691,9692,9693,9694,9695,9696,9697,9698,9699,9700,9701,9702,9703,9704,9705,9706,9707,9708,9709,9710,9711,9712,9713,9714,9715,9716,9717,9718,9719,9720,10201,10202,10203,10204,10205,10206,10207,10208,10209,10210,10211,10212,10213,10214,10215,10216,10217,10218,10219,10220,10221,10222,10223,10224,10225,10226,10227,10228,10229,10230,10231,10232,10233,10234,10235,10236,10237,10238,10239,10240,10241,10242,10243,10244,10245,10246,10247,10248,10249,10250,10251,10252,10253,10254,10255,10256,10257,10258,10259,10260,10261,10262,10263,10264,10265,10266,10267,10268,10269,10270,10271,10272,10273,10274,10275,10276,10277,10278,10279,10280,10281,10282,10283,10284,10285,10286,10287,10288,10289,10290,10291,10292,10293,10294,10295,10296,10297,10298,10299,10300,10301,10302,10303,10304,10305,10306,10307,10308,10309,10310,10311,10312,10313,10314,10315,10316,10317,10318,10319,10320,10321,10322,10323,10324,10325,10326,10327,10328,10329,10330,10331,10332,10333,10334,10335,10336,10337,10338,10339,10340,10341,10342,10343,10344,10345,10346,10347,10348,10349,10350,10351,10352,10353,10354,10355,10356,10357,10358,10359,10360,10361,10362,10363,10364,10365,10366,10367,10368,10369,10370,10371,10372,10373,10374,10375,10376,10377,10378,10379,10380,10381,10382,10383,10384,10385,10386,10387,10388,10389,10390,10391,10392,10393,10394,10395,10396,10397,10398,10399,10400,10401,10402,10403,10404,10405,10406,10407,10408,10409,10410,10411,10412,10413,10414,10415,10416,10417,10418,10419,10420,10421,10422,10423,10424,10425,10426,10427,10428,10429,10430,10431,10432,10433,10434,10435,10436,10437,10438,10439,10440,10561,10562,10563,10564,10565,10566,10567,10568,10569,10570,10571,10572,10573,10574,10575,10576,10577,10578,10579,10580,10581,10582,10583,10584,10585,10586,10587,10588,10589,10590,10591,10592,10593,10594,10595,10596,10597,10598,10599,10600,10601,10602,10603,10604,10605,10606,10607,10608,10609,10610,10611,10612,10613,10614,10615,10616,10617,10618,10619,10620,10621,10622,10623,10624,10625,10626,10627,10628,10629,10630,10631,10632,10633,10634,10635,10636,10637,10638,10639,10640,10641,10642,10643,10644,10645,10646,10647,10648,10649,10650,10651,10652,10653,10654,10655,10656,10657,10658,10659,10660,10661,10662,10663,10664,10665,10666,10667,10668,10669,10670,10671,10672,10673,10674,10675,10676,10677,10678,10679,10680,10681,10682,10683,10684,10685,10686,10687,10688,10689,10690,10691,10692,10693,10694,10695,10696,10697,10698,10699,10700,10701,10702,10703,10704,10705,10706,10707,10708,10709,10710,10711,10712,10713,10714,10715,10716,10717,10718,10719,10720,10721,10722,10723,10724,10725,10726,10727,10728,10729,10730,10731,10732,10733,10734,10735,10736,10737,10738,10739,10740,10741,10742,10743,10744,10745,10746,10747,10748,10749,10750,10751,10752,10753,10754,10755,10756,10757,10758,10759,10760,10761,10762,10763,10764,10765,10766,10767,10768,10769,10770,10771,10772,10773,10774,10775,10776,10777,10778,10779,10780,10781,10782,10783,10784,10785,10786,10787,10788,10789,10790,10791,10792,10793,10794,10795,10796,10797,10798,10799,10800,11161,11162,11163,11164,11165,11166,11167,11168,11169,11170,11171,11172,11173,11174,11175,11176,11177,11178,11179,11180,11181,11182,11183,11184,11185,11186,11187,11188,11189,11190,11191,11192,11193,11194,11195,11196,11197,11198,11199,11200,11201,11202,11203,11204,11205,11206,11207,11208,11209,11210,11211,11212,11213,11214,11215,11216,11217,11218,11219,11220,11221,11222,11223,11224,11225,11226,11227,11228,11229,11230,11231,11232,11233,11234,11235,11236,11237,11238,11239,11240,11241,11242,11243,11244,11245,11246,11247,11248,11249,11250,11251,11252,11253,11254,11255,11256,11257,11258,11259,11260,11261,11262,11263,11264,11265,11266,11267,11268,11269,11270,11271,11272,11273,11274,11275,11276,11277,11278,11279,11280,11281,11282,11283,11284,11285,11286,11287,11288,11289,11290,11291,11292,11293,11294,11295,11296,11297,11298,11299,11300,11301,11302,11303,11304,11305,11306,11307,11308,11309,11310,11311,11312,11313,11314,11315,11316,11317,11318,11319,11320,11321,11322,11323,11324,11325,11326,11327,11328,11329,11330,11331,11332,11333,11334,11335,11336,11337,11338,11339,11340,11341,11342,11343,11344,11345,11346,11347,11348,11349,11350,11351,11352,11353,11354,11355,11356,11357,11358,11359,11360,11361,11362,11363,11364,11365,11366,11367,11368,11369,11370,11371,11372,11373,11374,11375,11376,11377,11378,11379,11380,11381,11382,11383,11384,11385,11386,11387,11388,11389,11390,11391,11392,11393,11394,11395,11396,11397,11398,11399,11400,11521,11522,11523,11524,11525,11526,11527,11528,11529,11530,11531,11532,11533,11534,11535,11536,11537,11538,11539,11540,11541,11542,11543,11544,11545,11546,11547,11548,11549,11550,11551,11552,11553,11554,11555,11556,11557,11558,11559,11560,11561,11562,11563,11564,11565,11566,11567,11568,11569,11570,11571,11572,11573,11574,11575,11576,11577,11578,11579,11580,11581,11582,11583,11584,11585,11586,11587,11588,11589,11590,11591,11592,11593,11594,11595,11596,11597,11598,11599,11600,11601,11602,11603,11604,11605,11606,11607,11608,11609,11610,11611,11612,11613,11614,11615,11616,11617,11618,11619,11620,11621,11622,11623,11624,11625,11626,11627,11628,11629,11630,11631,11632,11633,11634,11635,11636,11637,11638,11639,11640,11641,11642,11643,11644,11645,11646,11647,11648,11649,11650,11651,11652,11653,11654,11655,11656,11657,11658,11659,11660,11661,11662,11663,11664,11665,11666,11667,11668,11669,11670,11671,11672,11673,11674,11675,11676,11677,11678,11679,11680,11681,11682,11683,11684,11685,11686,11687,11688,11689,11690,11691,11692,11693,11694,11695,11696,11697,11698,11699,11700,11701,11702,11703,11704,11705,11706,11707,11708,11709,11710,11711,11712,11713,11714,11715,11716,11717,11718,11719,11720,11721,11722,11723,11724,11725,11726,11727,11728,11729,11730,11731,11732,11733,11734,11735,11736,11737,11738,11739,11740,11741,11742,11743,11744,11745,11746,11747,11748,11749,11750,11751,11752,11753,11754,11755,11756,11757,11758,11759,11760,12001,12002,12003,12004,12005,12006,12007,12008,12009,12010,12011,12012,12013,12014,12015,12016,12017,12018,12019,12020,12021,12022,12023,12024,12025,12026,12027,12028,12029,12030,12031,12032,12033,12034,12035,12036,12037,12038,12039,12040,12041,12042,12043,12044,12045,12046,12047,12048,12049,12050,12051,12052,12053,12054,12055,12056,12057,12058,12059,12060,12061,12062,12063,12064,12065,12066,12067,12068,12069,12070,12071,12072,12073,12074,12075,12076,12077,12078,12079,12080,12081,12082,12083,12084,12085,12086,12087,12088,12089,12090,12091,12092,12093,12094,12095,12096,12097,12098,12099,12100,12101,12102,12103,12104,12105,12106,12107,12108,12109,12110,12111,12112,12113,12114,12115,12116,12117,12118,12119,12120,12241,12242,12243,12244,12245,12246,12247,12248,12249,12250,12251,12252,12253,12254,12255,12256,12257,12258,12259,12260,12261,12262,12263,12264,12265,12266,12267,12268,12269,12270,12271,12272,12273,12274,12275,12276,12277,12278,12279,12280,12281,12282,12283,12284,12285,12286,12287,12288,12289,12290,12291,12292,12293,12294,12295,12296,12297,12298,12299,12300,12301,12302,12303,12304,12305,12306,12307,12308,12309,12310,12311,12312,12313,12314,12315,12316,12317,12318,12319,12320,12321,12322,12323,12324,12325,12326,12327,12328,12329,12330,12331,12332,12333,12334,12335,12336,12337,12338,12339,12340,12341,12342,12343,12344,12345,12346,12347,12348,12349,12350,12351,12352,12353,12354,12355,12356,12357,12358,12359,12360,12721,12722,12723,12724,12725,12726,12727,12728,12729,12730,12731,12732,12733,12734,12735,12736,12737,12738,12739,12740,12741,12742,12743,12744,12745,12746,12747,12748,12749,12750,12751,12752,12753,12754,12755,12756,12757,12758,12759,12760,12761,12762,12763,12764,12765,12766,12767,12768,12769,12770,12771,12772,12773,12774,12775,12776,12777,12778,12779,12780,12781,12782,12783,12784,12785,12786,12787,12788,12789,12790,12791,12792,12793,12794,12795,12796,12797,12798,12799,12800,12801,12802,12803,12804,12805,12806,12807,12808,12809,12810,12811,12812,12813,12814,12815,12816,12817,12818,12819,12820,12821,12822,12823,12824,12825,12826,12827,12828,12829,12830,12831,12832,12833,12834,12835,12836,12837,12838,12839,12840,12841,12842,12843,12844,12845,12846,12847,12848,12849,12850,12851,12852,12853,12854,12855,12856,12857,12858,12859,12860,12861,12862,12863,12864,12865,12866,12867,12868,12869,12870,12871,12872,12873,12874,12875,12876,12877,12878,12879,12880,12881,12882,12883,12884,12885,12886,12887,12888,12889,12890,12891,12892,12893,12894,12895,12896,12897,12898,12899,12900,12901,12902,12903,12904,12905,12906,12907,12908,12909,12910,12911,12912,12913,12914,12915,12916,12917,12918,12919,12920,12921,12922,12923,12924,12925,12926,12927,12928,12929,12930,12931,12932,12933,12934,12935,12936,12937,12938,12939,12940,12941,12942,12943,12944,12945,12946,12947,12948,12949,12950,12951,12952,12953,12954,12955,12956,12957,12958,12959,12960,13201,13202,13203,13204,13205,13206,13207,13208,13209,13210,13211,13212,13213,13214,13215,13216,13217,13218,13219,13220,13221,13222,13223,13224,13225,13226,13227,13228,13229,13230,13231,13232,13233,13234,13235,13236,13237,13238,13239,13240,13241,13242,13243,13244,13245,13246,13247,13248,13249,13250,13251,13252,13253,13254,13255,13256,13257,13258,13259,13260,13261,13262,13263,13264,13265,13266,13267,13268,13269,13270,13271,13272,13273,13274,13275,13276,13277,13278,13279,13280,13281,13282,13283,13284,13285,13286,13287,13288,13289,13290,13291,13292,13293,13294,13295,13296,13297,13298,13299,13300,13301,13302,13303,13304,13305,13306,13307,13308,13309,13310,13311,13312,13313,13314,13315,13316,13317,13318,13319,13320,13321,13322,13323,13324,13325,13326,13327,13328,13329,13330,13331,13332,13333,13334,13335,13336,13337,13338,13339,13340,13341,13342,13343,13344,13345,13346,13347,13348,13349,13350,13351,13352,13353,13354,13355,13356,13357,13358,13359,13360,13361,13362,13363,13364,13365,13366,13367,13368,13369,13370,13371,13372,13373,13374,13375,13376,13377,13378,13379,13380,13381,13382,13383,13384,13385,13386,13387,13388,13389,13390,13391,13392,13393,13394,13395,13396,13397,13398,13399,13400,13401,13402,13403,13404,13405,13406,13407,13408,13409,13410,13411,13412,13413,13414,13415,13416,13417,13418,13419,13420,13421,13422,13423,13424,13425,13426,13427,13428,13429,13430,13431,13432,13433,13434,13435,13436,13437,13438,13439,13440,13561,13562,13563,13564,13565,13566,13567,13568,13569,13570,13571,13572,13573,13574,13575,13576,13577,13578,13579,13580,13581,13582,13583,13584,13585,13586,13587,13588,13589,13590,13591,13592,13593,13594,13595,13596,13597,13598,13599,13600,13601,13602,13603,13604,13605,13606,13607,13608,13609,13610,13611,13612,13613,13614,13615,13616,13617,13618,13619,13620,13621,13622,13623,13624,13625,13626,13627,13628,13629,13630,13631,13632,13633,13634,13635,13636,13637,13638,13639,13640,13641,13642,13643,13644,13645,13646,13647,13648,13649,13650,13651,13652,13653,13654,13655,13656,13657,13658,13659,13660,13661,13662,13663,13664,13665,13666,13667,13668,13669,13670,13671,13672,13673,13674,13675,13676,13677,13678,13679,13680,14041,14042,14043,14044,14045,14046,14047,14048,14049,14050,14051,14052,14053,14054,14055,14056,14057,14058,14059,14060,14061,14062,14063,14064,14065,14066,14067,14068,14069,14070,14071,14072,14073,14074,14075,14076,14077,14078,14079,14080,14081,14082,14083,14084,14085,14086,14087,14088,14089,14090,14091,14092,14093,14094,14095,14096,14097,14098,14099,14100,14101,14102,14103,14104,14105,14106,14107,14108,14109,14110,14111,14112,14113,14114,14115,14116,14117,14118,14119,14120,14121,14122,14123,14124,14125,14126,14127,14128,14129,14130,14131,14132,14133,14134,14135,14136,14137,14138,14139,14140,14141,14142,14143,14144,14145,14146,14147,14148,14149,14150,14151,14152,14153,14154,14155,14156,14157,14158,14159,14160,14161,14162,14163,14164,14165,14166,14167,14168,14169,14170,14171,14172,14173,14174,14175,14176,14177,14178,14179,14180,14181,14182,14183,14184,14185,14186,14187,14188,14189,14190,14191,14192,14193,14194,14195,14196,14197,14198,14199,14200,14201,14202,14203,14204,14205,14206,14207,14208,14209,14210,14211,14212,14213,14214,14215,14216,14217,14218,14219,14220,14221,14222,14223,14224,14225,14226,14227,14228,14229,14230,14231,14232,14233,14234,14235,14236,14237,14238,14239,14240,14241,14242,14243,14244,14245,14246,14247,14248,14249,14250,14251,14252,14253,14254,14255,14256,14257,14258,14259,14260,14261,14262,14263,14264,14265,14266,14267,14268,14269,14270,14271,14272,14273,14274,14275,14276,14277,14278,14279,14280,14521,14522,14523,14524,14525,14526,14527,14528,14529,14530,14531,14532,14533,14534,14535,14536,14537,14538,14539,14540,14541,14542,14543,14544,14545,14546,14547,14548,14549,14550,14551,14552,14553,14554,14555,14556,14557,14558,14559,14560,14561,14562,14563,14564,14565,14566,14567,14568,14569,14570,14571,14572,14573,14574,14575,14576,14577,14578,14579,14580,14581,14582,14583,14584,14585,14586,14587,14588,14589,14590,14591,14592,14593,14594,14595,14596,14597,14598,14599,14600,14601,14602,14603,14604,14605,14606,14607,14608,14609,14610,14611,14612,14613,14614,14615,14616,14617,14618,14619,14620,14621,14622,14623,14624,14625,14626,14627,14628,14629,14630,14631,14632,14633,14634,14635,14636,14637,14638,14639,14640,14641,14642,14643,14644,14645,14646,14647,14648,14649,14650,14651,14652,14653,14654,14655,14656,14657,14658,14659,14660,14661,14662,14663,14664,14665,14666,14667,14668,14669,14670,14671,14672,14673,14674,14675,14676,14677,14678,14679,14680,14681,14682,14683,14684,14685,14686,14687,14688,14689,14690,14691,14692,14693,14694,14695,14696,14697,14698,14699,14700,14701,14702,14703,14704,14705,14706,14707,14708,14709,14710,14711,14712,14713,14714,14715,14716,14717,14718,14719,14720,14721,14722,14723,14724,14725,14726,14727,14728,14729,14730,14731,14732,14733,14734,14735,14736,14737,14738,14739,14740,14741,14742,14743,14744,14745,14746,14747,14748,14749,14750,14751,14752,14753,14754,14755,14756,14757,14758,14759,14760,14881,14882,14883,14884,14885,14886,14887,14888,14889,14890,14891,14892,14893,14894,14895,14896,14897,14898,14899,14900,14901,14902,14903,14904,14905,14906,14907,14908,14909,14910,14911,14912,14913,14914,14915,14916,14917,14918,14919,14920,14921,14922,14923,14924,14925,14926,14927,14928,14929,14930,14931,14932,14933,14934,14935,14936,14937,14938,14939,14940,14941,14942,14943,14944,14945,14946,14947,14948,14949,14950,14951,14952,14953,14954,14955,14956,14957,14958,14959,14960,14961,14962,14963,14964,14965,14966,14967,14968,14969,14970,14971,14972,14973,14974,14975,14976,14977,14978,14979,14980,14981,14982,14983,14984,14985,14986,14987,14988,14989,14990,14991,14992,14993,14994,14995,14996,14997,14998,14999,15000,15241,15242,15243,15244,15245,15246,15247,15248,15249,15250,15251,15252,15253,15254,15255,15256,15257,15258,15259,15260,15261,15262,15263,15264,15265,15266,15267,15268,15269,15270,15271,15272,15273,15274,15275,15276,15277,15278,15279,15280,15281,15282,15283,15284,15285,15286,15287,15288,15289,15290,15291,15292,15293,15294,15295,15296,15297,15298,15299,15300,15301,15302,15303,15304,15305,15306,15307,15308,15309,15310,15311,15312,15313,15314,15315,15316,15317,15318,15319,15320,15321,15322,15323,15324,15325,15326,15327,15328,15329,15330,15331,15332,15333,15334,15335,15336,15337,15338,15339,15340,15341,15342,15343,15344,15345,15346,15347,15348,15349,15350,15351,15352,15353,15354,15355,15356,15357,15358,15359,15360,15361,15362,15363,15364,15365,15366,15367,15368,15369,15370,15371,15372,15373,15374,15375,15376,15377,15378,15379,15380,15381,15382,15383,15384,15385,15386,15387,15388,15389,15390,15391,15392,15393,15394,15395,15396,15397,15398,15399,15400,15401,15402,15403,15404,15405,15406,15407,15408,15409,15410,15411,15412,15413,15414,15415,15416,15417,15418,15419,15420,15421,15422,15423,15424,15425,15426,15427,15428,15429,15430,15431,15432,15433,15434,15435,15436,15437,15438,15439,15440,15441,15442,15443,15444,15445,15446,15447,15448,15449,15450,15451,15452,15453,15454,15455,15456,15457,15458,15459,15460,15461,15462,15463,15464,15465,15466,15467,15468,15469,15470,15471,15472,15473,15474,15475,15476,15477,15478,15479,15480,15601,15602,15603,15604,15605,15606,15607,15608,15609,15610,15611,15612,15613,15614,15615,15616,15617,15618,15619,15620,15621,15622,15623,15624,15625,15626,15627,15628,15629,15630,15631,15632,15633,15634,15635,15636,15637,15638,15639,15640,15641,15642,15643,15644,15645,15646,15647,15648,15649,15650,15651,15652,15653,15654,15655,15656,15657,15658,15659,15660,15661,15662,15663,15664,15665,15666,15667,15668,15669,15670,15671,15672,15673,15674,15675,15676,15677,15678,15679,15680,15681,15682,15683,15684,15685,15686,15687,15688,15689,15690,15691,15692,15693,15694,15695,15696,15697,15698,15699,15700,15701,15702,15703,15704,15705,15706,15707,15708,15709,15710,15711,15712,15713,15714,15715,15716,15717,15718,15719,15720,15721,15722,15723,15724,15725,15726,15727,15728,15729,15730,15731,15732,15733,15734,15735,15736,15737,15738,15739,15740,15741,15742,15743,15744,15745,15746,15747,15748,15749,15750,15751,15752,15753,15754,15755,15756,15757,15758,15759,15760,15761,15762,15763,15764,15765,15766,15767,15768,15769,15770,15771,15772,15773,15774,15775,15776,15777,15778,15779,15780,15781,15782,15783,15784,15785,15786,15787,15788,15789,15790,15791,15792,15793,15794,15795,15796,15797,15798,15799,15800,15801,15802,15803,15804,15805,15806,15807,15808,15809,15810,15811,15812,15813,15814,15815,15816,15817,15818,15819,15820,15821,15822,15823,15824,15825,15826,15827,15828,15829,15830,15831,15832,15833,15834,15835,15836,15837,15838,15839,15840,15841,15842,15843,15844,15845,15846,15847,15848,15849,15850,15851,15852,15853,15854,15855,15856,15857,15858,15859,15860,15861,15862,15863,15864,15865,15866,15867,15868,15869,15870,15871,15872,15873,15874,15875,15876,15877,15878,15879,15880,15881,15882,15883,15884,15885,15886,15887,15888,15889,15890,15891,15892,15893,15894,15895,15896,15897,15898,15899,15900,15901,15902,15903,15904,15905,15906,15907,15908,15909,15910,15911,15912,15913,15914,15915,15916,15917,15918,15919,15920,15921,15922,15923,15924,15925,15926,15927,15928,15929,15930,15931,15932,15933,15934,15935,15936,15937,15938,15939,15940,15941,15942,15943,15944,15945,15946,15947,15948,15949,15950,15951,15952,15953,15954,15955,15956,15957,15958,15959,15960,15961,15962,15963,15964,15965,15966,15967,15968,15969,15970,15971,15972,15973,15974,15975,15976,15977,15978,15979,15980,15981,15982,15983,15984,15985,15986,15987,15988,15989,15990,15991,15992,15993,15994,15995,15996,15997,15998,15999,16000,16001,16002,16003,16004,16005,16006,16007,16008,16009,16010,16011,16012,16013,16014,16015,16016,16017,16018,16019,16020,16021,16022,16023,16024,16025,16026,16027,16028,16029,16030,16031,16032,16033,16034,16035,16036,16037,16038,16039,16040,16041,16042,16043,16044,16045,16046,16047,16048,16049,16050,16051,16052,16053,16054,16055,16056,16057,16058,16059,16060,16061,16062,16063,16064,16065,16066,16067,16068,16069,16070,16071,16072,16073,16074,16075,16076,16077,16078,16079,16080,16321,16322,16323,16324,16325,16326,16327,16328,16329,16330,16331,16332,16333,16334,16335,16336,16337,16338,16339,16340,16341,16342,16343,16344,16345,16346,16347,16348,16349,16350,16351,16352,16353,16354,16355,16356,16357,16358,16359,16360,16361,16362,16363,16364,16365,16366,16367,16368,16369,16370,16371,16372,16373,16374,16375,16376,16377,16378,16379,16380,16381,16382,16383,16384,16385,16386,16387,16388,16389,16390,16391,16392,16393,16394,16395,16396,16397,16398,16399,16400,16401,16402,16403,16404,16405,16406,16407,16408,16409,16410,16411,16412,16413,16414,16415,16416,16417,16418,16419,16420,16421,16422,16423,16424,16425,16426,16427,16428,16429,16430,16431,16432,16433,16434,16435,16436,16437,16438,16439,16440,16441,16442,16443,16444,16445,16446,16447,16448,16449,16450,16451,16452,16453,16454,16455,16456,16457,16458,16459,16460,16461,16462,16463,16464,16465,16466,16467,16468,16469,16470,16471,16472,16473,16474,16475,16476,16477,16478,16479,16480,16481,16482,16483,16484,16485,16486,16487,16488,16489,16490,16491,16492,16493,16494,16495,16496,16497,16498,16499,16500,16501,16502,16503,16504,16505,16506,16507,16508,16509,16510,16511,16512,16513,16514,16515,16516,16517,16518,16519,16520,16521,16522,16523,16524,16525,16526,16527,16528,16529,16530,16531,16532,16533,16534,16535,16536,16537,16538,16539,16540,16541,16542,16543,16544,16545,16546,16547,16548,16549,16550,16551,16552,16553,16554,16555,16556,16557,16558,16559,16560,16921,16922,16923,16924,16925,16926,16927,16928,16929,16930,16931,16932,16933,16934,16935,16936,16937,16938,16939,16940,16941,16942,16943,16944,16945,16946,16947,16948,16949,16950,16951,16952,16953,16954,16955,16956,16957,16958,16959,16960,16961,16962,16963,16964,16965,16966,16967,16968,16969,16970,16971,16972,16973,16974,16975,16976,16977,16978,16979,16980,16981,16982,16983,16984,16985,16986,16987,16988,16989,16990,16991,16992,16993,16994,16995,16996,16997,16998,16999,17000,17001,17002,17003,17004,17005,17006,17007,17008,17009,17010,17011,17012,17013,17014,17015,17016,17017,17018,17019,17020,17021,17022,17023,17024,17025,17026,17027,17028,17029,17030,17031,17032,17033,17034,17035,17036,17037,17038,17039,17040,17161,17162,17163,17164,17165,17166,17167,17168,17169,17170,17171,17172,17173,17174,17175,17176,17177,17178,17179,17180,17181,17182,17183,17184,17185,17186,17187,17188,17189,17190,17191,17192,17193,17194,17195,17196,17197,17198,17199,17200,17201,17202,17203,17204,17205,17206,17207,17208,17209,17210,17211,17212,17213,17214,17215,17216,17217,17218,17219,17220,17221,17222,17223,17224,17225,17226,17227,17228,17229,17230,17231,17232,17233,17234,17235,17236,17237,17238,17239,17240,17241,17242,17243,17244,17245,17246,17247,17248,17249,17250,17251,17252,17253,17254,17255,17256,17257,17258,17259,17260,17261,17262,17263,17264,17265,17266,17267,17268,17269,17270,17271,17272,17273,17274,17275,17276,17277,17278,17279,17280,17281,17282,17283,17284,17285,17286,17287,17288,17289,17290,17291,17292,17293,17294,17295,17296,17297,17298,17299,17300,17301,17302,17303,17304,17305,17306,17307,17308,17309,17310,17311,17312,17313,17314,17315,17316,17317,17318,17319,17320,17321,17322,17323,17324,17325,17326,17327,17328,17329,17330,17331,17332,17333,17334,17335,17336,17337,17338,17339,17340,17341,17342,17343,17344,17345,17346,17347,17348,17349,17350,17351,17352,17353,17354,17355,17356,17357,17358,17359,17360,17361,17362,17363,17364,17365,17366,17367,17368,17369,17370,17371,17372,17373,17374,17375,17376,17377,17378,17379,17380,17381,17382,17383,17384,17385,17386,17387,17388,17389,17390,17391,17392,17393,17394,17395,17396,17397,17398,17399,17400,17641,17642,17643,17644,17645,17646,17647,17648,17649,17650,17651,17652,17653,17654,17655,17656,17657,17658,17659,17660,17661,17662,17663,17664,17665,17666,17667,17668,17669,17670,17671,17672,17673,17674,17675,17676,17677,17678,17679,17680,17681,17682,17683,17684,17685,17686,17687,17688,17689,17690,17691,17692,17693,17694,17695,17696,17697,17698,17699,17700,17701,17702,17703,17704,17705,17706,17707,17708,17709,17710,17711,17712,17713,17714,17715,17716,17717,17718,17719,17720,17721,17722,17723,17724,17725,17726,17727,17728,17729,17730,17731,17732,17733,17734,17735,17736,17737,17738,17739,17740,17741,17742,17743,17744,17745,17746,17747,17748,17749,17750,17751,17752,17753,17754,17755,17756,17757,17758,17759,17760,17761,17762,17763,17764,17765,17766,17767,17768,17769,17770,17771,17772,17773,17774,17775,17776,17777,17778,17779,17780,17781,17782,17783,17784,17785,17786,17787,17788,17789,17790,17791,17792,17793,17794,17795,17796,17797,17798,17799,17800,17801,17802,17803,17804,17805,17806,17807,17808,17809,17810,17811,17812,17813,17814,17815,17816,17817,17818,17819,17820,17821,17822,17823,17824,17825,17826,17827,17828,17829,17830,17831,17832,17833,17834,17835,17836,17837,17838,17839,17840,17841,17842,17843,17844,17845,17846,17847,17848,17849,17850,17851,17852,17853,17854,17855,17856,17857,17858,17859,17860,17861,17862,17863,17864,17865,17866,17867,17868,17869,17870,17871,17872,17873,17874,17875,17876,17877,17878,17879,17880,18241,18242,18243,18244,18245,18246,18247,18248,18249,18250,18251,18252,18253,18254,18255,18256,18257,18258,18259,18260,18261,18262,18263,18264,18265,18266,18267,18268,18269,18270,18271,18272,18273,18274,18275,18276,18277,18278,18279,18280,18281,18282,18283,18284,18285,18286,18287,18288,18289,18290,18291,18292,18293,18294,18295,18296,18297,18298,18299,18300,18301,18302,18303,18304,18305,18306,18307,18308,18309,18310,18311,18312,18313,18314,18315,18316,18317,18318,18319,18320,18321,18322,18323,18324,18325,18326,18327,18328,18329,18330,18331,18332,18333,18334,18335,18336,18337,18338,18339,18340,18341,18342,18343,18344,18345,18346,18347,18348,18349,18350,18351,18352,18353,18354,18355,18356,18357,18358,18359,18360,18361,18362,18363,18364,18365,18366,18367,18368,18369,18370,18371,18372,18373,18374,18375,18376,18377,18378,18379,18380,18381,18382,18383,18384,18385,18386,18387,18388,18389,18390,18391,18392,18393,18394,18395,18396,18397,18398,18399,18400,18401,18402,18403,18404,18405,18406,18407,18408,18409,18410,18411,18412,18413,18414,18415,18416,18417,18418,18419,18420,18421,18422,18423,18424,18425,18426,18427,18428,18429,18430,18431,18432,18433,18434,18435,18436,18437,18438,18439,18440,18441,18442,18443,18444,18445,18446,18447,18448,18449,18450,18451,18452,18453,18454,18455,18456,18457,18458,18459,18460,18461,18462,18463,18464,18465,18466,18467,18468,18469,18470,18471,18472,18473,18474,18475,18476,18477,18478,18479,18480,18601,18602,18603,18604,18605,18606,18607,18608,18609,18610,18611,18612,18613,18614,18615,18616,18617,18618,18619,18620,18621,18622,18623,18624,18625,18626,18627,18628,18629,18630,18631,18632,18633,18634,18635,18636,18637,18638,18639,18640,18641,18642,18643,18644,18645,18646,18647,18648,18649,18650,18651,18652,18653,18654,18655,18656,18657,18658,18659,18660,18661,18662,18663,18664,18665,18666,18667,18668,18669,18670,18671,18672,18673,18674,18675,18676,18677,18678,18679,18680,18681,18682,18683,18684,18685,18686,18687,18688,18689,18690,18691,18692,18693,18694,18695,18696,18697,18698,18699,18700,18701,18702,18703,18704,18705,18706,18707,18708,18709,18710,18711,18712,18713,18714,18715,18716,18717,18718,18719,18720,18841,18842,18843,18844,18845,18846,18847,18848,18849,18850,18851,18852,18853,18854,18855,18856,18857,18858,18859,18860,18861,18862,18863,18864,18865,18866,18867,18868,18869,18870,18871,18872,18873,18874,18875,18876,18877,18878,18879,18880,18881,18882,18883,18884,18885,18886,18887,18888,18889,18890,18891,18892,18893,18894,18895,18896,18897,18898,18899,18900,18901,18902,18903,18904,18905,18906,18907,18908,18909,18910,18911,18912,18913,18914,18915,18916,18917,18918,18919,18920,18921,18922,18923,18924,18925,18926,18927,18928,18929,18930,18931,18932,18933,18934,18935,18936,18937,18938,18939,18940,18941,18942,18943,18944,18945,18946,18947,18948,18949,18950,18951,18952,18953,18954,18955,18956,18957,18958,18959,18960,18961,18962,18963,18964,18965,18966,18967,18968,18969,18970,18971,18972,18973,18974,18975,18976,18977,18978,18979,18980,18981,18982,18983,18984,18985,18986,18987,18988,18989,18990,18991,18992,18993,18994,18995,18996,18997,18998,18999,19000,19001,19002,19003,19004,19005,19006,19007,19008,19009,19010,19011,19012,19013,19014,19015,19016,19017,19018,19019,19020,19021,19022,19023,19024,19025,19026,19027,19028,19029,19030,19031,19032,19033,19034,19035,19036,19037,19038,19039,19040,19041,19042,19043,19044,19045,19046,19047,19048,19049,19050,19051,19052,19053,19054,19055,19056,19057,19058,19059,19060,19061,19062,19063,19064,19065,19066,19067,19068,19069,19070,19071,19072,19073,19074,19075,19076,19077,19078,19079,19080,19441,19442,19443,19444,19445,19446,19447,19448,19449,19450,19451,19452,19453,19454,19455,19456,19457,19458,19459,19460,19461,19462,19463,19464,19465,19466,19467,19468,19469,19470,19471,19472,19473,19474,19475,19476,19477,19478,19479,19480,19481,19482,19483,19484,19485,19486,19487,19488,19489,19490,19491,19492,19493,19494,19495,19496,19497,19498,19499,19500,19501,19502,19503,19504,19505,19506,19507,19508,19509,19510,19511,19512,19513,19514,19515,19516,19517,19518,19519,19520,19521,19522,19523,19524,19525,19526,19527,19528,19529,19530,19531,19532,19533,19534,19535,19536,19537,19538,19539,19540,19541,19542,19543,19544,19545,19546,19547,19548,19549,19550,19551,19552,19553,19554,19555,19556,19557,19558,19559,19560,19561,19562,19563,19564,19565,19566,19567,19568,19569,19570,19571,19572,19573,19574,19575,19576,19577,19578,19579,19580,19581,19582,19583,19584,19585,19586,19587,19588,19589,19590,19591,19592,19593,19594,19595,19596,19597,19598,19599,19600,19601,19602,19603,19604,19605,19606,19607,19608,19609,19610,19611,19612,19613,19614,19615,19616,19617,19618,19619,19620,19621,19622,19623,19624,19625,19626,19627,19628,19629,19630,19631,19632,19633,19634,19635,19636,19637,19638,19639,19640,19641,19642,19643,19644,19645,19646,19647,19648,19649,19650,19651,19652,19653,19654,19655,19656,19657,19658,19659,19660,19661,19662,19663,19664,19665,19666,19667,19668,19669,19670,19671,19672,19673,19674,19675,19676,19677,19678,19679,19680,19921,19922,19923,19924,19925,19926,19927,19928,19929,19930,19931,19932,19933,19934,19935,19936,19937,19938,19939,19940,19941,19942,19943,19944,19945,19946,19947,19948,19949,19950,19951,19952,19953,19954,19955,19956,19957,19958,19959,19960,19961,19962,19963,19964,19965,19966,19967,19968,19969,19970,19971,19972,19973,19974,19975,19976,19977,19978,19979,19980,19981,19982,19983,19984,19985,19986,19987,19988,19989,19990,19991,19992,19993,19994,19995,19996,19997,19998,19999,20000,20001,20002,20003,20004,20005,20006,20007,20008,20009,20010,20011,20012,20013,20014,20015,20016,20017,20018,20019,20020,20021,20022,20023,20024,20025,20026,20027,20028,20029,20030,20031,20032,20033,20034,20035,20036,20037,20038,20039,20040,20161,20162,20163,20164,20165,20166,20167,20168,20169,20170,20171,20172,20173,20174,20175,20176,20177,20178,20179,20180,20181,20182,20183,20184,20185,20186,20187,20188,20189,20190,20191,20192,20193,20194,20195,20196,20197,20198,20199,20200,20201,20202,20203,20204,20205,20206,20207,20208,20209,20210,20211,20212,20213,20214,20215,20216,20217,20218,20219,20220,20221,20222,20223,20224,20225,20226,20227,20228,20229,20230,20231,20232,20233,20234,20235,20236,20237,20238,20239,20240,20241,20242,20243,20244,20245,20246,20247,20248,20249,20250,20251,20252,20253,20254,20255,20256,20257,20258,20259,20260,20261,20262,20263,20264,20265,20266,20267,20268,20269,20270,20271,20272,20273,20274,20275,20276,20277,20278,20279,20280,20281,20282,20283,20284,20285,20286,20287,20288,20289,20290,20291,20292,20293,20294,20295,20296,20297,20298,20299,20300,20301,20302,20303,20304,20305,20306,20307,20308,20309,20310,20311,20312,20313,20314,20315,20316,20317,20318,20319,20320,20321,20322,20323,20324,20325,20326,20327,20328,20329,20330,20331,20332,20333,20334,20335,20336,20337,20338,20339,20340,20341,20342,20343,20344,20345,20346,20347,20348,20349,20350,20351,20352,20353,20354,20355,20356,20357,20358,20359,20360,20361,20362,20363,20364,20365,20366,20367,20368,20369,20370,20371,20372,20373,20374,20375,20376,20377,20378,20379,20380,20381,20382,20383,20384,20385,20386,20387,20388,20389,20390,20391,20392,20393,20394,20395,20396,20397,20398,20399,20400,20641,20642,20643,20644,20645,20646,20647,20648,20649,20650,20651,20652,20653,20654,20655,20656,20657,20658,20659,20660,20661,20662,20663,20664,20665,20666,20667,20668,20669,20670,20671,20672,20673,20674,20675,20676,20677,20678,20679,20680,20681,20682,20683,20684,20685,20686,20687,20688,20689,20690,20691,20692,20693,20694,20695,20696,20697,20698,20699,20700,20701,20702,20703,20704,20705,20706,20707,20708,20709,20710,20711,20712,20713,20714,20715,20716,20717,20718,20719,20720,20721,20722,20723,20724,20725,20726,20727,20728,20729,20730,20731,20732,20733,20734,20735,20736,20737,20738,20739,20740,20741,20742,20743,20744,20745,20746,20747,20748,20749,20750,20751,20752,20753,20754,20755,20756,20757,20758,20759,20760,20761,20762,20763,20764,20765,20766,20767,20768,20769,20770,20771,20772,20773,20774,20775,20776,20777,20778,20779,20780,20781,20782,20783,20784,20785,20786,20787,20788,20789,20790,20791,20792,20793,20794,20795,20796,20797,20798,20799,20800,20801,20802,20803,20804,20805,20806,20807,20808,20809,20810,20811,20812,20813,20814,20815,20816,20817,20818,20819,20820,20821,20822,20823,20824,20825,20826,20827,20828,20829,20830,20831,20832,20833,20834,20835,20836,20837,20838,20839,20840,20841,20842,20843,20844,20845,20846,20847,20848,20849,20850,20851,20852,20853,20854,20855,20856,20857,20858,20859,20860,20861,20862,20863,20864,20865,20866,20867,20868,20869,20870,20871,20872,20873,20874,20875,20876,20877,20878,20879,20880,21241,21242,21243,21244,21245,21246,21247,21248,21249,21250,21251,21252,21253,21254,21255,21256,21257,21258,21259,21260,21261,21262,21263,21264,21265,21266,21267,21268,21269,21270,21271,21272,21273,21274,21275,21276,21277,21278,21279,21280,21281,21282,21283,21284,21285,21286,21287,21288,21289,21290,21291,21292,21293,21294,21295,21296,21297,21298,21299,21300,21301,21302,21303,21304,21305,21306,21307,21308,21309,21310,21311,21312,21313,21314,21315,21316,21317,21318,21319,21320,21321,21322,21323,21324,21325,21326,21327,21328,21329,21330,21331,21332,21333,21334,21335,21336,21337,21338,21339,21340,21341,21342,21343,21344,21345,21346,21347,21348,21349,21350,21351,21352,21353,21354,21355,21356,21357,21358,21359,21360,21601,21602,21603,21604,21605,21606,21607,21608,21609,21610,21611,21612,21613,21614,21615,21616,21617,21618,21619,21620,21621,21622,21623,21624,21625,21626,21627,21628,21629,21630,21631,21632,21633,21634,21635,21636,21637,21638,21639,21640,21641,21642,21643,21644,21645,21646,21647,21648,21649,21650,21651,21652,21653,21654,21655,21656,21657,21658,21659,21660,21661,21662,21663,21664,21665,21666,21667,21668,21669,21670,21671,21672,21673,21674,21675,21676,21677,21678,21679,21680,21681,21682,21683,21684,21685,21686,21687,21688,21689,21690,21691,21692,21693,21694,21695,21696,21697,21698,21699,21700,21701,21702,21703,21704,21705,21706,21707,21708,21709,21710,21711,21712,21713,21714,21715,21716,21717,21718,21719,21720,21721,21722,21723,21724,21725,21726,21727,21728,21729,21730,21731,21732,21733,21734,21735,21736,21737,21738,21739,21740,21741,21742,21743,21744,21745,21746,21747,21748,21749,21750,21751,21752,21753,21754,21755,21756,21757,21758,21759,21760,21761,21762,21763,21764,21765,21766,21767,21768,21769,21770,21771,21772,21773,21774,21775,21776,21777,21778,21779,21780,21781,21782,21783,21784,21785,21786,21787,21788,21789,21790,21791,21792,21793,21794,21795,21796,21797,21798,21799,21800,21801,21802,21803,21804,21805,21806,21807,21808,21809,21810,21811,21812,21813,21814,21815,21816,21817,21818,21819,21820,21821,21822,21823,21824,21825,21826,21827,21828,21829,21830,21831,21832,21833,21834,21835,21836,21837,21838,21839,21840,21841,21842,21843,21844,21845,21846,21847,21848,21849,21850,21851,21852,21853,21854,21855,21856,21857,21858,21859,21860,21861,21862,21863,21864,21865,21866,21867,21868,21869,21870,21871,21872,21873,21874,21875,21876,21877,21878,21879,21880,21881,21882,21883,21884,21885,21886,21887,21888,21889,21890,21891,21892,21893,21894,21895,21896,21897,21898,21899,21900,21901,21902,21903,21904,21905,21906,21907,21908,21909,21910,21911,21912,21913,21914,21915,21916,21917,21918,21919,21920,21921,21922,21923,21924,21925,21926,21927,21928,21929,21930,21931,21932,21933,21934,21935,21936,21937,21938,21939,21940,21941,21942,21943,21944,21945,21946,21947,21948,21949,21950,21951,21952,21953,21954,21955,21956,21957,21958,21959,21960,21961,21962,21963,21964,21965,21966,21967,21968,21969,21970,21971,21972,21973,21974,21975,21976,21977,21978,21979,21980,21981,21982,21983,21984,21985,21986,21987,21988,21989,21990,21991,21992,21993,21994,21995,21996,21997,21998,21999,22000,22001,22002,22003,22004,22005,22006,22007,22008,22009,22010,22011,22012,22013,22014,22015,22016,22017,22018,22019,22020,22021,22022,22023,22024,22025,22026,22027,22028,22029,22030,22031,22032,22033,22034,22035,22036,22037,22038,22039,22040,22041,22042,22043,22044,22045,22046,22047,22048,22049,22050,22051,22052,22053,22054,22055,22056,22057,22058,22059,22060,22061,22062,22063,22064,22065,22066,22067,22068,22069,22070,22071,22072,22073,22074,22075,22076,22077,22078,22079,22080,22201,22202,22203,22204,22205,22206,22207,22208,22209,22210,22211,22212,22213,22214,22215,22216,22217,22218,22219,22220,22221,22222,22223,22224,22225,22226,22227,22228,22229,22230,22231,22232,22233,22234,22235,22236,22237,22238,22239,22240,22241,22242,22243,22244,22245,22246,22247,22248,22249,22250,22251,22252,22253,22254,22255,22256,22257,22258,22259,22260,22261,22262,22263,22264,22265,22266,22267,22268,22269,22270,22271,22272,22273,22274,22275,22276,22277,22278,22279,22280,22281,22282,22283,22284,22285,22286,22287,22288,22289,22290,22291,22292,22293,22294,22295,22296,22297,22298,22299,22300,22301,22302,22303,22304,22305,22306,22307,22308,22309,22310,22311,22312,22313,22314,22315,22316,22317,22318,22319,22320,22441,22442,22443,22444,22445,22446,22447,22448,22449,22450,22451,22452,22453,22454,22455,22456,22457,22458,22459,22460,22461,22462,22463,22464,22465,22466,22467,22468,22469,22470,22471,22472,22473,22474,22475,22476,22477,22478,22479,22480,22481,22482,22483,22484,22485,22486,22487,22488,22489,22490,22491,22492,22493,22494,22495,22496,22497,22498,22499,22500,22501,22502,22503,22504,22505,22506,22507,22508,22509,22510,22511,22512,22513,22514,22515,22516,22517,22518,22519,22520,22521,22522,22523,22524,22525,22526,22527,22528,22529,22530,22531,22532,22533,22534,22535,22536,22537,22538,22539,22540,22541,22542,22543,22544,22545,22546,22547,22548,22549,22550,22551,22552,22553,22554,22555,22556,22557,22558,22559,22560,22561,22562,22563,22564,22565,22566,22567,22568,22569,22570,22571,22572,22573,22574,22575,22576,22577,22578,22579,22580,22581,22582,22583,22584,22585,22586,22587,22588,22589,22590,22591,22592,22593,22594,22595,22596,22597,22598,22599,22600,22601,22602,22603,22604,22605,22606,22607,22608,22609,22610,22611,22612,22613,22614,22615,22616,22617,22618,22619,22620,22621,22622,22623,22624,22625,22626,22627,22628,22629,22630,22631,22632,22633,22634,22635,22636,22637,22638,22639,22640,22641,22642,22643,22644,22645,22646,22647,22648,22649,22650,22651,22652,22653,22654,22655,22656,22657,22658,22659,22660,22661,22662,22663,22664,22665,22666,22667,22668,22669,22670,22671,22672,22673,22674,22675,22676,22677,22678,22679,22680,22801,22802,22803,22804,22805,22806,22807,22808,22809,22810,22811,22812,22813,22814,22815,22816,22817,22818,22819,22820,22821,22822,22823,22824,22825,22826,22827,22828,22829,22830,22831,22832,22833,22834,22835,22836,22837,22838,22839,22840,22841,22842,22843,22844,22845,22846,22847,22848,22849,22850,22851,22852,22853,22854,22855,22856,22857,22858,22859,22860,22861,22862,22863,22864,22865,22866,22867,22868,22869,22870,22871,22872,22873,22874,22875,22876,22877,22878,22879,22880,22881,22882,22883,22884,22885,22886,22887,22888,22889,22890,22891,22892,22893,22894,22895,22896,22897,22898,22899,22900,22901,22902,22903,22904,22905,22906,22907,22908,22909,22910,22911,22912,22913,22914,22915,22916,22917,22918,22919,22920,23161,23162,23163,23164,23165,23166,23167,23168,23169,23170,23171,23172,23173,23174,23175,23176,23177,23178,23179,23180,23181,23182,23183,23184,23185,23186,23187,23188,23189,23190,23191,23192,23193,23194,23195,23196,23197,23198,23199,23200,23201,23202,23203,23204,23205,23206,23207,23208,23209,23210,23211,23212,23213,23214,23215,23216,23217,23218,23219,23220,23221,23222,23223,23224,23225,23226,23227,23228,23229,23230,23231,23232,23233,23234,23235,23236,23237,23238,23239,23240,23241,23242,23243,23244,23245,23246,23247,23248,23249,23250,23251,23252,23253,23254,23255,23256,23257,23258,23259,23260,23261,23262,23263,23264,23265,23266,23267,23268,23269,23270,23271,23272,23273,23274,23275,23276,23277,23278,23279,23280,23281,23282,23283,23284,23285,23286,23287,23288,23289,23290,23291,23292,23293,23294,23295,23296,23297,23298,23299,23300,23301,23302,23303,23304,23305,23306,23307,23308,23309,23310,23311,23312,23313,23314,23315,23316,23317,23318,23319,23320,23321,23322,23323,23324,23325,23326,23327,23328,23329,23330,23331,23332,23333,23334,23335,23336,23337,23338,23339,23340,23341,23342,23343,23344,23345,23346,23347,23348,23349,23350,23351,23352,23353,23354,23355,23356,23357,23358,23359,23360,23361,23362,23363,23364,23365,23366,23367,23368,23369,23370,23371,23372,23373,23374,23375,23376,23377,23378,23379,23380,23381,23382,23383,23384,23385,23386,23387,23388,23389,23390,23391,23392,23393,23394,23395,23396,23397,23398,23399,23400,23521,23522,23523,23524,23525,23526,23527,23528,23529,23530,23531,23532,23533,23534,23535,23536,23537,23538,23539,23540,23541,23542,23543,23544,23545,23546,23547,23548,23549,23550,23551,23552,23553,23554,23555,23556,23557,23558,23559,23560,23561,23562,23563,23564,23565,23566,23567,23568,23569,23570,23571,23572,23573,23574,23575,23576,23577,23578,23579,23580,23581,23582,23583,23584,23585,23586,23587,23588,23589,23590,23591,23592,23593,23594,23595,23596,23597,23598,23599,23600,23601,23602,23603,23604,23605,23606,23607,23608,23609,23610,23611,23612,23613,23614,23615,23616,23617,23618,23619,23620,23621,23622,23623,23624,23625,23626,23627,23628,23629,23630,23631,23632,23633,23634,23635,23636,23637,23638,23639,23640,23641,23642,23643,23644,23645,23646,23647,23648,23649,23650,23651,23652,23653,23654,23655,23656,23657,23658,23659,23660,23661,23662,23663,23664,23665,23666,23667,23668,23669,23670,23671,23672,23673,23674,23675,23676,23677,23678,23679,23680,23681,23682,23683,23684,23685,23686,23687,23688,23689,23690,23691,23692,23693,23694,23695,23696,23697,23698,23699,23700,23701,23702,23703,23704,23705,23706,23707,23708,23709,23710,23711,23712,23713,23714,23715,23716,23717,23718,23719,23720,23721,23722,23723,23724,23725,23726,23727,23728,23729,23730,23731,23732,23733,23734,23735,23736,23737,23738,23739,23740,23741,23742,23743,23744,23745,23746,23747,23748,23749,23750,23751,23752,23753,23754,23755,23756,23757,23758,23759,23760,23761,23762,23763,23764,23765,23766,23767,23768,23769,23770,23771,23772,23773,23774,23775,23776,23777,23778,23779,23780,23781,23782,23783,23784,23785,23786,23787,23788,23789,23790,23791,23792,23793,23794,23795,23796,23797,23798,23799,23800,23801,23802,23803,23804,23805,23806,23807,23808,23809,23810,23811,23812,23813,23814,23815,23816,23817,23818,23819,23820,23821,23822,23823,23824,23825,23826,23827,23828,23829,23830,23831,23832,23833,23834,23835,23836,23837,23838,23839,23840,23841,23842,23843,23844,23845,23846,23847,23848,23849,23850,23851,23852,23853,23854,23855,23856,23857,23858,23859,23860,23861,23862,23863,23864,23865,23866,23867,23868,23869,23870,23871,23872,23873,23874,23875,23876,23877,23878,23879,23880,23881,23882,23883,23884,23885,23886,23887,23888,23889,23890,23891,23892,23893,23894,23895,23896,23897,23898,23899,23900,23901,23902,23903,23904,23905,23906,23907,23908,23909,23910,23911,23912,23913,23914,23915,23916,23917,23918,23919,23920,23921,23922,23923,23924,23925,23926,23927,23928,23929,23930,23931,23932,23933,23934,23935,23936,23937,23938,23939,23940,23941,23942,23943,23944,23945,23946,23947,23948,23949,23950,23951,23952,23953,23954,23955,23956,23957,23958,23959,23960,23961,23962,23963,23964,23965,23966,23967,23968,23969,23970,23971,23972,23973,23974,23975,23976,23977,23978,23979,23980,23981,23982,23983,23984,23985,23986,23987,23988,23989,23990,23991,23992,23993,23994,23995,23996,23997,23998,23999,24000,24121,24122,24123,24124,24125,24126,24127,24128,24129,24130,24131,24132,24133,24134,24135,24136,24137,24138,24139,24140,24141,24142,24143,24144,24145,24146,24147,24148,24149,24150,24151,24152,24153,24154,24155,24156,24157,24158,24159,24160,24161,24162,24163,24164,24165,24166,24167,24168,24169,24170,24171,24172,24173,24174,24175,24176,24177,24178,24179,24180,24181,24182,24183,24184,24185,24186,24187,24188,24189,24190,24191,24192,24193,24194,24195,24196,24197,24198,24199,24200,24201,24202,24203,24204,24205,24206,24207,24208,24209,24210,24211,24212,24213,24214,24215,24216,24217,24218,24219,24220,24221,24222,24223,24224,24225,24226,24227,24228,24229,24230,24231,24232,24233,24234,24235,24236,24237,24238,24239,24240,24241,24242,24243,24244,24245,24246,24247,24248,24249,24250,24251,24252,24253,24254,24255,24256,24257,24258,24259,24260,24261,24262,24263,24264,24265,24266,24267,24268,24269,24270,24271,24272,24273,24274,24275,24276,24277,24278,24279,24280,24281,24282,24283,24284,24285,24286,24287,24288,24289,24290,24291,24292,24293,24294,24295,24296,24297,24298,24299,24300,24301,24302,24303,24304,24305,24306,24307,24308,24309,24310,24311,24312,24313,24314,24315,24316,24317,24318,24319,24320,24321,24322,24323,24324,24325,24326,24327,24328,24329,24330,24331,24332,24333,24334,24335,24336,24337,24338,24339,24340,24341,24342,24343,24344,24345,24346,24347,24348,24349,24350,24351,24352,24353,24354,24355,24356,24357,24358,24359,24360,24841,24842,24843,24844,24845,24846,24847,24848,24849,24850,24851,24852,24853,24854,24855,24856,24857,24858,24859,24860,24861,24862,24863,24864,24865,24866,24867,24868,24869,24870,24871,24872,24873,24874,24875,24876,24877,24878,24879,24880,24881,24882,24883,24884,24885,24886,24887,24888,24889,24890,24891,24892,24893,24894,24895,24896,24897,24898,24899,24900,24901,24902,24903,24904,24905,24906,24907,24908,24909,24910,24911,24912,24913,24914,24915,24916,24917,24918,24919,24920,24921,24922,24923,24924,24925,24926,24927,24928,24929,24930,24931,24932,24933,24934,24935,24936,24937,24938,24939,24940,24941,24942,24943,24944,24945,24946,24947,24948,24949,24950,24951,24952,24953,24954,24955,24956,24957,24958,24959,24960,25081,25082,25083,25084,25085,25086,25087,25088,25089,25090,25091,25092,25093,25094,25095,25096,25097,25098,25099,25100,25101,25102,25103,25104,25105,25106,25107,25108,25109,25110,25111,25112,25113,25114,25115,25116,25117,25118,25119,25120,25121,25122,25123,25124,25125,25126,25127,25128,25129,25130,25131,25132,25133,25134,25135,25136,25137,25138,25139,25140,25141,25142,25143,25144,25145,25146,25147,25148,25149,25150,25151,25152,25153,25154,25155,25156,25157,25158,25159,25160,25161,25162,25163,25164,25165,25166,25167,25168,25169,25170,25171,25172,25173,25174,25175,25176,25177,25178,25179,25180,25181,25182,25183,25184,25185,25186,25187,25188,25189,25190,25191,25192,25193,25194,25195,25196,25197,25198,25199,25200,25201,25202,25203,25204,25205,25206,25207,25208,25209,25210,25211,25212,25213,25214,25215,25216,25217,25218,25219,25220,25221,25222,25223,25224,25225,25226,25227,25228,25229,25230,25231,25232,25233,25234,25235,25236,25237,25238,25239,25240,25241,25242,25243,25244,25245,25246,25247,25248,25249,25250,25251,25252,25253,25254,25255,25256,25257,25258,25259,25260,25261,25262,25263,25264,25265,25266,25267,25268,25269,25270,25271,25272,25273,25274,25275,25276,25277,25278,25279,25280,25281,25282,25283,25284,25285,25286,25287,25288,25289,25290,25291,25292,25293,25294,25295,25296,25297,25298,25299,25300,25301,25302,25303,25304,25305,25306,25307,25308,25309,25310,25311,25312,25313,25314,25315,25316,25317,25318,25319,25320,25441,25442,25443,25444,25445,25446,25447,25448,25449,25450,25451,25452,25453,25454,25455,25456,25457,25458,25459,25460,25461,25462,25463,25464,25465,25466,25467,25468,25469,25470,25471,25472,25473,25474,25475,25476,25477,25478,25479,25480,25481,25482,25483,25484,25485,25486,25487,25488,25489,25490,25491,25492,25493,25494,25495,25496,25497,25498,25499,25500,25501,25502,25503,25504,25505,25506,25507,25508,25509,25510,25511,25512,25513,25514,25515,25516,25517,25518,25519,25520,25521,25522,25523,25524,25525,25526,25527,25528,25529,25530,25531,25532,25533,25534,25535,25536,25537,25538,25539,25540,25541,25542,25543,25544,25545,25546,25547,25548,25549,25550,25551,25552,25553,25554,25555,25556,25557,25558,25559,25560,25921,25922,25923,25924,25925,25926,25927,25928,25929,25930,25931,25932,25933,25934,25935,25936,25937,25938,25939,25940,25941,25942,25943,25944,25945,25946,25947,25948,25949,25950,25951,25952,25953,25954,25955,25956,25957,25958,25959,25960,25961,25962,25963,25964,25965,25966,25967,25968,25969,25970,25971,25972,25973,25974,25975,25976,25977,25978,25979,25980,25981,25982,25983,25984,25985,25986,25987,25988,25989,25990,25991,25992,25993,25994,25995,25996,25997,25998,25999,26000,26001,26002,26003,26004,26005,26006,26007,26008,26009,26010,26011,26012,26013,26014,26015,26016,26017,26018,26019,26020,26021,26022,26023,26024,26025,26026,26027,26028,26029,26030,26031,26032,26033,26034,26035,26036,26037,26038,26039,26040,26041,26042,26043,26044,26045,26046,26047,26048,26049,26050,26051,26052,26053,26054,26055,26056,26057,26058,26059,26060,26061,26062,26063,26064,26065,26066,26067,26068,26069,26070,26071,26072,26073,26074,26075,26076,26077,26078,26079,26080,26081,26082,26083,26084,26085,26086,26087,26088,26089,26090,26091,26092,26093,26094,26095,26096,26097,26098,26099,26100,26101,26102,26103,26104,26105,26106,26107,26108,26109,26110,26111,26112,26113,26114,26115,26116,26117,26118,26119,26120,26121,26122,26123,26124,26125,26126,26127,26128,26129,26130,26131,26132,26133,26134,26135,26136,26137,26138,26139,26140,26141,26142,26143,26144,26145,26146,26147,26148,26149,26150,26151,26152,26153,26154,26155,26156,26157,26158,26159,26160,26401,26402,26403,26404,26405,26406,26407,26408,26409,26410,26411,26412,26413,26414,26415,26416,26417,26418,26419,26420,26421,26422,26423,26424,26425,26426,26427,26428,26429,26430,26431,26432,26433,26434,26435,26436,26437,26438,26439,26440,26441,26442,26443,26444,26445,26446,26447,26448,26449,26450,26451,26452,26453,26454,26455,26456,26457,26458,26459,26460,26461,26462,26463,26464,26465,26466,26467,26468,26469,26470,26471,26472,26473,26474,26475,26476,26477,26478,26479,26480,26481,26482,26483,26484,26485,26486,26487,26488,26489,26490,26491,26492,26493,26494,26495,26496,26497,26498,26499,26500,26501,26502,26503,26504,26505,26506,26507,26508,26509,26510,26511,26512,26513,26514,26515,26516,26517,26518,26519,26520,26521,26522,26523,26524,26525,26526,26527,26528,26529,26530,26531,26532,26533,26534,26535,26536,26537,26538,26539,26540,26541,26542,26543,26544,26545,26546,26547,26548,26549,26550,26551,26552,26553,26554,26555,26556,26557,26558,26559,26560,26561,26562,26563,26564,26565,26566,26567,26568,26569,26570,26571,26572,26573,26574,26575,26576,26577,26578,26579,26580,26581,26582,26583,26584,26585,26586,26587,26588,26589,26590,26591,26592,26593,26594,26595,26596,26597,26598,26599,26600,26601,26602,26603,26604,26605,26606,26607,26608,26609,26610,26611,26612,26613,26614,26615,26616,26617,26618,26619,26620,26621,26622,26623,26624,26625,26626,26627,26628,26629,26630,26631,26632,26633,26634,26635,26636,26637,26638,26639,26640,26761,26762,26763,26764,26765,26766,26767,26768,26769,26770,26771,26772,26773,26774,26775,26776,26777,26778,26779,26780,26781,26782,26783,26784,26785,26786,26787,26788,26789,26790,26791,26792,26793,26794,26795,26796,26797,26798,26799,26800,26801,26802,26803,26804,26805,26806,26807,26808,26809,26810,26811,26812,26813,26814,26815,26816,26817,26818,26819,26820,26821,26822,26823,26824,26825,26826,26827,26828,26829,26830,26831,26832,26833,26834,26835,26836,26837,26838,26839,26840,26841,26842,26843,26844,26845,26846,26847,26848,26849,26850,26851,26852,26853,26854,26855,26856,26857,26858,26859,26860,26861,26862,26863,26864,26865,26866,26867,26868,26869,26870,26871,26872,26873,26874,26875,26876,26877,26878,26879,26880,26881,26882,26883,26884,26885,26886,26887,26888,26889,26890,26891,26892,26893,26894,26895,26896,26897,26898,26899,26900,26901,26902,26903,26904,26905,26906,26907,26908,26909,26910,26911,26912,26913,26914,26915,26916,26917,26918,26919,26920,26921,26922,26923,26924,26925,26926,26927,26928,26929,26930,26931,26932,26933,26934,26935,26936,26937,26938,26939,26940,26941,26942,26943,26944,26945,26946,26947,26948,26949,26950,26951,26952,26953,26954,26955,26956,26957,26958,26959,26960,26961,26962,26963,26964,26965,26966,26967,26968,26969,26970,26971,26972,26973,26974,26975,26976,26977,26978,26979,26980,26981,26982,26983,26984,26985,26986,26987,26988,26989,26990,26991,26992,26993,26994,26995,26996,26997,26998,26999,27000,27121,27122,27123,27124,27125,27126,27127,27128,27129,27130,27131,27132,27133,27134,27135,27136,27137,27138,27139,27140,27141,27142,27143,27144,27145,27146,27147,27148,27149,27150,27151,27152,27153,27154,27155,27156,27157,27158,27159,27160,27161,27162,27163,27164,27165,27166,27167,27168,27169,27170,27171,27172,27173,27174,27175,27176,27177,27178,27179,27180,27181,27182,27183,27184,27185,27186,27187,27188,27189,27190,27191,27192,27193,27194,27195,27196,27197,27198,27199,27200,27201,27202,27203,27204,27205,27206,27207,27208,27209,27210,27211,27212,27213,27214,27215,27216,27217,27218,27219,27220,27221,27222,27223,27224,27225,27226,27227,27228,27229,27230,27231,27232,27233,27234,27235,27236,27237,27238,27239,27240,27481,27482,27483,27484,27485,27486,27487,27488,27489,27490,27491,27492,27493,27494,27495,27496,27497,27498,27499,27500,27501,27502,27503,27504,27505,27506,27507,27508,27509,27510,27511,27512,27513,27514,27515,27516,27517,27518,27519,27520,27521,27522,27523,27524,27525,27526,27527,27528,27529,27530,27531,27532,27533,27534,27535,27536,27537,27538,27539,27540,27541,27542,27543,27544,27545,27546,27547,27548,27549,27550,27551,27552,27553,27554,27555,27556,27557,27558,27559,27560,27561,27562,27563,27564,27565,27566,27567,27568,27569,27570,27571,27572,27573,27574,27575,27576,27577,27578,27579,27580,27581,27582,27583,27584,27585,27586,27587,27588,27589,27590,27591,27592,27593,27594,27595,27596,27597,27598,27599,27600,27601,27602,27603,27604,27605,27606,27607,27608,27609,27610,27611,27612,27613,27614,27615,27616,27617,27618,27619,27620,27621,27622,27623,27624,27625,27626,27627,27628,27629,27630,27631,27632,27633,27634,27635,27636,27637,27638,27639,27640,27641,27642,27643,27644,27645,27646,27647,27648,27649,27650,27651,27652,27653,27654,27655,27656,27657,27658,27659,27660,27661,27662,27663,27664,27665,27666,27667,27668,27669,27670,27671,27672,27673,27674,27675,27676,27677,27678,27679,27680,27681,27682,27683,27684,27685,27686,27687,27688,27689,27690,27691,27692,27693,27694,27695,27696,27697,27698,27699,27700,27701,27702,27703,27704,27705,27706,27707,27708,27709,27710,27711,27712,27713,27714,27715,27716,27717,27718,27719,27720,27721,27722,27723,27724,27725,27726,27727,27728,27729,27730,27731,27732,27733,27734,27735,27736,27737,27738,27739,27740,27741,27742,27743,27744,27745,27746,27747,27748,27749,27750,27751,27752,27753,27754,27755,27756,27757,27758,27759,27760,27761,27762,27763,27764,27765,27766,27767,27768,27769,27770,27771,27772,27773,27774,27775,27776,27777,27778,27779,27780,27781,27782,27783,27784,27785,27786,27787,27788,27789,27790,27791,27792,27793,27794,27795,27796,27797,27798,27799,27800,27801,27802,27803,27804,27805,27806,27807,27808,27809,27810,27811,27812,27813,27814,27815,27816,27817,27818,27819,27820,27821,27822,27823,27824,27825,27826,27827,27828,27829,27830,27831,27832,27833,27834,27835,27836,27837,27838,27839,27840,27841,27842,27843,27844,27845,27846,27847,27848,27849,27850,27851,27852,27853,27854,27855,27856,27857,27858,27859,27860,27861,27862,27863,27864,27865,27866,27867,27868,27869,27870,27871,27872,27873,27874,27875,27876,27877,27878,27879,27880,27881,27882,27883,27884,27885,27886,27887,27888,27889,27890,27891,27892,27893,27894,27895,27896,27897,27898,27899,27900,27901,27902,27903,27904,27905,27906,27907,27908,27909,27910,27911,27912,27913,27914,27915,27916,27917,27918,27919,27920,27921,27922,27923,27924,27925,27926,27927,27928,27929,27930,27931,27932,27933,27934,27935,27936,27937,27938,27939,27940,27941,27942,27943,27944,27945,27946,27947,27948,27949,27950,27951,27952,27953,27954,27955,27956,27957,27958,27959,27960,28201,28202,28203,28204,28205,28206,28207,28208,28209,28210,28211,28212,28213,28214,28215,28216,28217,28218,28219,28220,28221,28222,28223,28224,28225,28226,28227,28228,28229,28230,28231,28232,28233,28234,28235,28236,28237,28238,28239,28240,28241,28242,28243,28244,28245,28246,28247,28248,28249,28250,28251,28252,28253,28254,28255,28256,28257,28258,28259,28260,28261,28262,28263,28264,28265,28266,28267,28268,28269,28270,28271,28272,28273,28274,28275,28276,28277,28278,28279,28280,28281,28282,28283,28284,28285,28286,28287,28288,28289,28290,28291,28292,28293,28294,28295,28296,28297,28298,28299,28300,28301,28302,28303,28304,28305,28306,28307,28308,28309,28310,28311,28312,28313,28314,28315,28316,28317,28318,28319,28320,28321,28322,28323,28324,28325,28326,28327,28328,28329,28330,28331,28332,28333,28334,28335,28336,28337,28338,28339,28340,28341,28342,28343,28344,28345,28346,28347,28348,28349,28350,28351,28352,28353,28354,28355,28356,28357,28358,28359,28360,28361,28362,28363,28364,28365,28366,28367,28368,28369,28370,28371,28372,28373,28374,28375,28376,28377,28378,28379,28380,28381,28382,28383,28384,28385,28386,28387,28388,28389,28390,28391,28392,28393,28394,28395,28396,28397,28398,28399,28400,28401,28402,28403,28404,28405,28406,28407,28408,28409,28410,28411,28412,28413,28414,28415,28416,28417,28418,28419,28420,28421,28422,28423,28424,28425,28426,28427,28428,28429,28430,28431,28432,28433,28434,28435,28436,28437,28438,28439,28440,28441,28442,28443,28444,28445,28446,28447,28448,28449,28450,28451,28452,28453,28454,28455,28456,28457,28458,28459,28460,28461,28462,28463,28464,28465,28466,28467,28468,28469,28470,28471,28472,28473,28474,28475,28476,28477,28478,28479,28480,28481,28482,28483,28484,28485,28486,28487,28488,28489,28490,28491,28492,28493,28494,28495,28496,28497,28498,28499,28500,28501,28502,28503,28504,28505,28506,28507,28508,28509,28510,28511,28512,28513,28514,28515,28516,28517,28518,28519,28520,28521,28522,28523,28524,28525,28526,28527,28528,28529,28530,28531,28532,28533,28534,28535,28536,28537,28538,28539,28540,28541,28542,28543,28544,28545,28546,28547,28548,28549,28550,28551,28552,28553,28554,28555,28556,28557,28558,28559,28560,28921,28922,28923,28924,28925,28926,28927,28928,28929,28930,28931,28932,28933,28934,28935,28936,28937,28938,28939,28940,28941,28942,28943,28944,28945,28946,28947,28948,28949,28950,28951,28952,28953,28954,28955,28956,28957,28958,28959,28960,28961,28962,28963,28964,28965,28966,28967,28968,28969,28970,28971,28972,28973,28974,28975,28976,28977,28978,28979,28980,28981,28982,28983,28984,28985,28986,28987,28988,28989,28990,28991,28992,28993,28994,28995,28996,28997,28998,28999,29000,29001,29002,29003,29004,29005,29006,29007,29008,29009,29010,29011,29012,29013,29014,29015,29016,29017,29018,29019,29020,29021,29022,29023,29024,29025,29026,29027,29028,29029,29030,29031,29032,29033,29034,29035,29036,29037,29038,29039,29040,29161,29162,29163,29164,29165,29166,29167,29168,29169,29170,29171,29172,29173,29174,29175,29176,29177,29178,29179,29180,29181,29182,29183,29184,29185,29186,29187,29188,29189,29190,29191,29192,29193,29194,29195,29196,29197,29198,29199,29200,29201,29202,29203,29204,29205,29206,29207,29208,29209,29210,29211,29212,29213,29214,29215,29216,29217,29218,29219,29220,29221,29222,29223,29224,29225,29226,29227,29228,29229,29230,29231,29232,29233,29234,29235,29236,29237,29238,29239,29240,29241,29242,29243,29244,29245,29246,29247,29248,29249,29250,29251,29252,29253,29254,29255,29256,29257,29258,29259,29260,29261,29262,29263,29264,29265,29266,29267,29268,29269,29270,29271,29272,29273,29274,29275,29276,29277,29278,29279,29280,29521,29522,29523,29524,29525,29526,29527,29528,29529,29530,29531,29532,29533,29534,29535,29536,29537,29538,29539,29540,29541,29542,29543,29544,29545,29546,29547,29548,29549,29550,29551,29552,29553,29554,29555,29556,29557,29558,29559,29560,29561,29562,29563,29564,29565,29566,29567,29568,29569,29570,29571,29572,29573,29574,29575,29576,29577,29578,29579,29580,29581,29582,29583,29584,29585,29586,29587,29588,29589,29590,29591,29592,29593,29594,29595,29596,29597,29598,29599,29600,29601,29602,29603,29604,29605,29606,29607,29608,29609,29610,29611,29612,29613,29614,29615,29616,29617,29618,29619,29620,29621,29622,29623,29624,29625,29626,29627,29628,29629,29630,29631,29632,29633,29634,29635,29636,29637,29638,29639,29640,29641,29642,29643,29644,29645,29646,29647,29648,29649,29650,29651,29652,29653,29654,29655,29656,29657,29658,29659,29660,29661,29662,29663,29664,29665,29666,29667,29668,29669,29670,29671,29672,29673,29674,29675,29676,29677,29678,29679,29680,29681,29682,29683,29684,29685,29686,29687,29688,29689,29690,29691,29692,29693,29694,29695,29696,29697,29698,29699,29700,29701,29702,29703,29704,29705,29706,29707,29708,29709,29710,29711,29712,29713,29714,29715,29716,29717,29718,29719,29720,29721,29722,29723,29724,29725,29726,29727,29728,29729,29730,29731,29732,29733,29734,29735,29736,29737,29738,29739,29740,29741,29742,29743,29744,29745,29746,29747,29748,29749,29750,29751,29752,29753,29754,29755,29756,29757,29758,29759,29760,29761,29762,29763,29764,29765,29766,29767,29768,29769,29770,29771,29772,29773,29774,29775,29776,29777,29778,29779,29780,29781,29782,29783,29784,29785,29786,29787,29788,29789,29790,29791,29792,29793,29794,29795,29796,29797,29798,29799,29800,29801,29802,29803,29804,29805,29806,29807,29808,29809,29810,29811,29812,29813,29814,29815,29816,29817,29818,29819,29820,29821,29822,29823,29824,29825,29826,29827,29828,29829,29830,29831,29832,29833,29834,29835,29836,29837,29838,29839,29840,29841,29842,29843,29844,29845,29846,29847,29848,29849,29850,29851,29852,29853,29854,29855,29856,29857,29858,29859,29860,29861,29862,29863,29864,29865,29866,29867,29868,29869,29870,29871,29872,29873,29874,29875,29876,29877,29878,29879,29880,29881,29882,29883,29884,29885,29886,29887,29888,29889,29890,29891,29892,29893,29894,29895,29896,29897,29898,29899,29900,29901,29902,29903,29904,29905,29906,29907,29908,29909,29910,29911,29912,29913,29914,29915,29916,29917,29918,29919,29920,29921,29922,29923,29924,29925,29926,29927,29928,29929,29930,29931,29932,29933,29934,29935,29936,29937,29938,29939,29940,29941,29942,29943,29944,29945,29946,29947,29948,29949,29950,29951,29952,29953,29954,29955,29956,29957,29958,29959,29960,29961,29962,29963,29964,29965,29966,29967,29968,29969,29970,29971,29972,29973,29974,29975,29976,29977,29978,29979,29980,29981,29982,29983,29984,29985,29986,29987,29988,29989,29990,29991,29992,29993,29994,29995,29996,29997,29998,29999,30000,30001,30002,30003,30004,30005,30006,30007,30008,30009,30010,30011,30012,30013,30014,30015,30016,30017,30018,30019,30020,30021,30022,30023,30024,30025,30026,30027,30028,30029,30030,30031,30032,30033,30034,30035,30036,30037,30038,30039,30040,30041,30042,30043,30044,30045,30046,30047,30048,30049,30050,30051,30052,30053,30054,30055,30056,30057,30058,30059,30060,30061,30062,30063,30064,30065,30066,30067,30068,30069,30070,30071,30072,30073,30074,30075,30076,30077,30078,30079,30080,30081,30082,30083,30084,30085,30086,30087,30088,30089,30090,30091,30092,30093,30094,30095,30096,30097,30098,30099,30100,30101,30102,30103,30104,30105,30106,30107,30108,30109,30110,30111,30112,30113,30114,30115,30116,30117,30118,30119,30120,30121,30122,30123,30124,30125,30126,30127,30128,30129,30130,30131,30132,30133,30134,30135,30136,30137,30138,30139,30140,30141,30142,30143,30144,30145,30146,30147,30148,30149,30150,30151,30152,30153,30154,30155,30156,30157,30158,30159,30160,30161,30162,30163,30164,30165,30166,30167,30168,30169,30170,30171,30172,30173,30174,30175,30176,30177,30178,30179,30180,30181,30182,30183,30184,30185,30186,30187,30188,30189,30190,30191,30192,30193,30194,30195,30196,30197,30198,30199,30200,30201,30202,30203,30204,30205,30206,30207,30208,30209,30210,30211,30212,30213,30214,30215,30216,30217,30218,30219,30220,30221,30222,30223,30224,30225,30226,30227,30228,30229,30230,30231,30232,30233,30234,30235,30236,30237,30238,30239,30240,30241,30242,30243,30244,30245,30246,30247,30248,30249,30250,30251,30252,30253,30254,30255,30256,30257,30258,30259,30260,30261,30262,30263,30264,30265,30266,30267,30268,30269,30270,30271,30272,30273,30274,30275,30276,30277,30278,30279,30280,30281,30282,30283,30284,30285,30286,30287,30288,30289,30290,30291,30292,30293,30294,30295,30296,30297,30298,30299,30300,30301,30302,30303,30304,30305,30306,30307,30308,30309,30310,30311,30312,30313,30314,30315,30316,30317,30318,30319,30320,30321,30322,30323,30324,30325,30326,30327,30328,30329,30330,30331,30332,30333,30334,30335,30336,30337,30338,30339,30340,30341,30342,30343,30344,30345,30346,30347,30348,30349,30350,30351,30352,30353,30354,30355,30356,30357,30358,30359,30360,30361,30362,30363,30364,30365,30366,30367,30368,30369,30370,30371,30372,30373,30374,30375,30376,30377,30378,30379,30380,30381,30382,30383,30384,30385,30386,30387,30388,30389,30390,30391,30392,30393,30394,30395,30396,30397,30398,30399,30400,30401,30402,30403,30404,30405,30406,30407,30408,30409,30410,30411,30412,30413,30414,30415,30416,30417,30418,30419,30420,30421,30422,30423,30424,30425,30426,30427,30428,30429,30430,30431,30432,30433,30434,30435,30436,30437,30438,30439,30440,30441,30442,30443,30444,30445,30446,30447,30448,30449,30450,30451,30452,30453,30454,30455,30456,30457,30458,30459,30460,30461,30462,30463,30464,30465,30466,30467,30468,30469,30470,30471,30472,30473,30474,30475,30476,30477,30478,30479,30480,30481,30482,30483,30484,30485,30486,30487,30488,30489,30490,30491,30492,30493,30494,30495,30496,30497,30498,30499,30500,30501,30502,30503,30504,30505,30506,30507,30508,30509,30510,30511,30512,30513,30514,30515,30516,30517,30518,30519,30520,30521,30522,30523,30524,30525,30526,30527,30528,30529,30530,30531,30532,30533,30534,30535,30536,30537,30538,30539,30540,30541,30542,30543,30544,30545,30546,30547,30548,30549,30550,30551,30552,30553,30554,30555,30556,30557,30558,30559,30560,30561,30562,30563,30564,30565,30566,30567,30568,30569,30570,30571,30572,30573,30574,30575,30576,30577,30578,30579,30580,30581,30582,30583,30584,30585,30586,30587,30588,30589,30590,30591,30592,30593,30594,30595,30596,30597,30598,30599,30600,30601,30602,30603,30604,30605,30606,30607,30608,30609,30610,30611,30612,30613,30614,30615,30616,30617,30618,30619,30620,30621,30622,30623,30624,30625,30626,30627,30628,30629,30630,30631,30632,30633,30634,30635,30636,30637,30638,30639,30640,30641,30642,30643,30644,30645,30646,30647,30648,30649,30650,30651,30652,30653,30654,30655,30656,30657,30658,30659,30660,30661,30662,30663,30664,30665,30666,30667,30668,30669,30670,30671,30672,30673,30674,30675,30676,30677,30678,30679,30680,30681,30682,30683,30684,30685,30686,30687,30688,30689,30690,30691,30692,30693,30694,30695,30696,30697,30698,30699,30700,30701,30702,30703,30704,30705,30706,30707,30708,30709,30710,30711,30712,30713,30714,30715,30716,30717,30718,30719,30720,30721,30722,30723,30724,30725,30726,30727,30728,30729,30730,30731,30732,30733,30734,30735,30736,30737,30738,30739,30740,30741,30742,30743,30744,30745,30746,30747,30748,30749,30750,30751,30752,30753,30754,30755,30756,30757,30758,30759,30760,30761,30762,30763,30764,30765,30766,30767,30768,30769,30770,30771,30772,30773,30774,30775,30776,30777,30778,30779,30780,30781,30782,30783,30784,30785,30786,30787,30788,30789,30790,30791,30792,30793,30794,30795,30796,30797,30798,30799,30800,30801,30802,30803,30804,30805,30806,30807,30808,30809,30810,30811,30812,30813,30814,30815,30816,30817,30818,30819,30820,30821,30822,30823,30824,30825,30826,30827,30828,30829,30830,30831,30832,30833,30834,30835,30836,30837,30838,30839,30840,30841,30842,30843,30844,30845,30846,30847,30848,30849,30850,30851,30852,30853,30854,30855,30856,30857,30858,30859,30860,30861,30862,30863,30864,30865,30866,30867,30868,30869,30870,30871,30872,30873,30874,30875,30876,30877,30878,30879,30880,30881,30882,30883,30884,30885,30886,30887,30888,30889,30890,30891,30892,30893,30894,30895,30896,30897,30898,30899,30900,30901,30902,30903,30904,30905,30906,30907,30908,30909,30910,30911,30912,30913,30914,30915,30916,30917,30918,30919,30920,30921,30922,30923,30924,30925,30926,30927,30928,30929,30930,30931,30932,30933,30934,30935,30936,30937,30938,30939,30940,30941,30942,30943,30944,30945,30946,30947,30948,30949,30950,30951,30952,30953,30954,30955,30956,30957,30958,30959,30960,30961,30962,30963,30964,30965,30966,30967,30968,30969,30970,30971,30972,30973,30974,30975,30976,30977,30978,30979,30980,30981,30982,30983,30984,30985,30986,30987,30988,30989,30990,30991,30992,30993,30994,30995,30996,30997,30998,30999,31000,31001,31002,31003,31004,31005,31006,31007,31008,31009,31010,31011,31012,31013,31014,31015,31016,31017,31018,31019,31020,31021,31022,31023,31024,31025,31026,31027,31028,31029,31030,31031,31032,31033,31034,31035,31036,31037,31038,31039,31040,31041,31042,31043,31044,31045,31046,31047,31048,31049,31050,31051,31052,31053,31054,31055,31056,31057,31058,31059,31060,31061,31062,31063,31064,31065,31066,31067,31068,31069,31070,31071,31072,31073,31074,31075,31076,31077,31078,31079,31080,31081,31082,31083,31084,31085,31086,31087,31088,31089,31090,31091,31092,31093,31094,31095,31096,31097,31098,31099,31100,31101,31102,31103,31104,31105,31106,31107,31108,31109,31110,31111,31112,31113,31114,31115,31116,31117,31118,31119,31120,31121,31122,31123,31124,31125,31126,31127,31128,31129,31130,31131,31132,31133,31134,31135,31136,31137,31138,31139,31140,31141,31142,31143,31144,31145,31146,31147,31148,31149,31150,31151,31152,31153,31154,31155,31156,31157,31158,31159,31160,31161,31162,31163,31164,31165,31166,31167,31168,31169,31170,31171,31172,31173,31174,31175,31176,31177,31178,31179,31180,31181,31182,31183,31184,31185,31186,31187,31188,31189,31190,31191,31192,31193,31194,31195,31196,31197,31198,31199,31200,31201,31202,31203,31204,31205,31206,31207,31208,31209,31210,31211,31212,31213,31214,31215,31216,31217,31218,31219,31220,31221,31222,31223,31224,31225,31226,31227,31228,31229,31230,31231,31232,31233,31234,31235,31236,31237,31238,31239,31240,31241,31242,31243,31244,31245,31246,31247,31248,31249,31250,31251,31252,31253,31254,31255,31256,31257,31258,31259,31260,31261,31262,31263,31264,31265,31266,31267,31268,31269,31270,31271,31272,31273,31274,31275,31276,31277,31278,31279,31280,31281,31282,31283,31284,31285,31286,31287,31288,31289,31290,31291,31292,31293,31294,31295,31296,31297,31298,31299,31300,31301,31302,31303,31304,31305,31306,31307,31308,31309,31310,31311,31312,31313,31314,31315,31316,31317,31318,31319,31320,31321,31322,31323,31324,31325,31326,31327,31328,31329,31330,31331,31332,31333,31334,31335,31336,31337,31338,31339,31340,31341,31342,31343,31344,31345,31346,31347,31348,31349,31350,31351,31352,31353,31354,31355,31356,31357,31358,31359,31360,31361,31362,31363,31364,31365,31366,31367,31368,31369,31370,31371,31372,31373,31374,31375,31376,31377,31378,31379,31380,31381,31382,31383,31384,31385,31386,31387,31388,31389,31390,31391,31392,31393,31394,31395,31396,31397,31398,31399,31400,31401,31402,31403,31404,31405,31406,31407,31408,31409,31410,31411,31412,31413,31414,31415,31416,31417,31418,31419,31420,31421,31422,31423,31424,31425,31426,31427,31428,31429,31430,31431,31432,31433,31434,31435,31436,31437,31438,31439,31440,31441,31442,31443,31444,31445,31446,31447,31448,31449,31450,31451,31452,31453,31454,31455,31456,31457,31458,31459,31460,31461,31462,31463,31464,31465,31466,31467,31468,31469,31470,31471,31472,31473,31474,31475,31476,31477,31478,31479,31480,31481,31482,31483,31484,31485,31486,31487,31488,31489,31490,31491,31492,31493,31494,31495,31496,31497,31498,31499,31500,31501,31502,31503,31504,31505,31506,31507,31508,31509,31510,31511,31512,31513,31514,31515,31516,31517,31518,31519,31520,31521,31522,31523,31524,31525,31526,31527,31528,31529,31530,31531,31532,31533,31534,31535,31536,31537,31538,31539,31540,31541,31542,31543,31544,31545,31546,31547,31548,31549,31550,31551,31552,31553,31554,31555,31556,31557,31558,31559,31560,31561,31562,31563,31564,31565,31566,31567,31568,31569,31570,31571,31572,31573,31574,31575,31576,31577,31578,31579,31580,31581,31582,31583,31584,31585,31586,31587,31588,31589,31590,31591,31592,31593,31594,31595,31596,31597,31598,31599,31600,31601,31602,31603,31604,31605,31606,31607,31608,31609,31610,31611,31612,31613,31614,31615,31616,31617,31618,31619,31620,31621,31622,31623,31624,31625,31626,31627,31628,31629,31630,31631,31632,31633,31634,31635,31636,31637,31638,31639,31640,31641,31642,31643,31644,31645,31646,31647,31648,31649,31650,31651,31652,31653,31654,31655,31656,31657,31658,31659,31660,31661,31662,31663,31664,31665,31666,31667,31668,31669,31670,31671,31672,31673,31674,31675,31676,31677,31678,31679,31680,31681,31682,31683,31684,31685,31686,31687,31688,31689,31690,31691,31692,31693,31694,31695,31696,31697,31698,31699,31700,31701,31702,31703,31704,31705,31706,31707,31708,31709,31710,31711,31712,31713,31714,31715,31716,31717,31718,31719,31720,31721,31722,31723,31724,31725,31726,31727,31728,31729,31730,31731,31732,31733,31734,31735,31736,31737,31738,31739,31740,31741,31742,31743,31744,31745,31746,31747,31748,31749,31750,31751,31752,31753,31754,31755,31756,31757,31758,31759,31760,31761,31762,31763,31764,31765,31766,31767,31768,31769,31770,31771,31772,31773,31774,31775,31776,31777,31778,31779,31780,31781,31782,31783,31784,31785,31786,31787,31788,31789,31790,31791,31792,31793,31794,31795,31796,31797,31798,31799,31800,31801,31802,31803,31804,31805,31806,31807,31808,31809,31810,31811,31812,31813,31814,31815,31816,31817,31818,31819,31820,31821,31822,31823,31824,31825,31826,31827,31828,31829,31830,31831,31832,31833,31834,31835,31836,31837,31838,31839,31840,31841,31842,31843,31844,31845,31846,31847,31848,31849,31850,31851,31852,31853,31854,31855,31856,31857,31858,31859,31860,31861,31862,31863,31864,31865,31866,31867,31868,31869,31870,31871,31872,31873,31874,31875,31876,31877,31878,31879,31880,31881,31882,31883,31884,31885,31886,31887,31888,31889,31890,31891,31892,31893,31894,31895,31896,31897,31898,31899,31900,31901,31902,31903,31904,31905,31906,31907,31908,31909,31910,31911,31912,31913,31914,31915,31916,31917,31918,31919,31920,31921,31922,31923,31924,31925,31926,31927,31928,31929,31930,31931,31932,31933,31934,31935,31936,31937,31938,31939,31940,31941,31942,31943,31944,31945,31946,31947,31948,31949,31950,31951,31952,31953,31954,31955,31956,31957,31958,31959,31960,31961,31962,31963,31964,31965,31966,31967,31968,31969,31970,31971,31972,31973,31974,31975,31976,31977,31978,31979,31980,31981,31982,31983,31984,31985,31986,31987,31988,31989,31990,31991,31992,31993,31994,31995,31996,31997,31998,31999,32000,32001,32002,32003,32004,32005,32006,32007,32008,32009,32010,32011,32012,32013,32014,32015,32016,32017,32018,32019,32020,32021,32022,32023,32024,32025,32026,32027,32028,32029,32030,32031,32032,32033,32034,32035,32036,32037,32038,32039,32040,32041,32042,32043,32044,32045,32046,32047,32048,32049,32050,32051,32052,32053,32054,32055,32056,32057,32058,32059,32060,32061,32062,32063,32064,32065,32066,32067,32068,32069,32070,32071,32072,32073,32074,32075,32076,32077,32078,32079,32080,32081,32082,32083,32084,32085,32086,32087,32088,32089,32090,32091,32092,32093,32094,32095,32096,32097,32098,32099,32100,32101,32102,32103,32104,32105,32106,32107,32108,32109,32110,32111,32112,32113,32114,32115,32116,32117,32118,32119,32120,32121,32122,32123,32124,32125,32126,32127,32128,32129,32130,32131,32132,32133,32134,32135,32136,32137,32138,32139,32140,32141,32142,32143,32144,32145,32146,32147,32148,32149,32150,32151,32152,32153,32154,32155,32156,32157,32158,32159,32160,32161,32162,32163,32164,32165,32166,32167,32168,32169,32170,32171,32172,32173,32174,32175,32176,32177,32178,32179,32180,32181,32182,32183,32184,32185,32186,32187,32188,32189,32190,32191,32192,32193,32194,32195,32196,32197,32198,32199,32200,32201,32202,32203,32204,32205,32206,32207,32208,32209,32210,32211,32212,32213,32214,32215,32216,32217,32218,32219,32220,32221,32222,32223,32224,32225,32226,32227,32228,32229,32230,32231,32232,32233,32234,32235,32236,32237,32238,32239,32240,32241,32242,32243,32244,32245,32246,32247,32248,32249,32250,32251,32252,32253,32254,32255,32256,32257,32258,32259,32260,32261,32262,32263,32264,32265,32266,32267,32268,32269,32270,32271,32272,32273,32274,32275,32276,32277,32278,32279,32280,32281,32282,32283,32284,32285,32286,32287,32288,32289,32290,32291,32292,32293,32294,32295,32296,32297,32298,32299,32300,32301,32302,32303,32304,32305,32306,32307,32308,32309,32310,32311,32312,32313,32314,32315,32316,32317,32318,32319,32320,32321,32322,32323,32324,32325,32326,32327,32328,32329,32330,32331,32332,32333,32334,32335,32336,32337,32338,32339,32340,32341,32342,32343,32344,32345,32346,32347,32348,32349,32350,32351,32352,32353,32354,32355,32356,32357,32358,32359,32360,32361,32362,32363,32364,32365,32366,32367,32368,32369,32370,32371,32372,32373,32374,32375,32376,32377,32378,32379,32380,32381,32382,32383,32384,32385,32386,32387,32388,32389,32390,32391,32392,32393,32394,32395,32396,32397,32398,32399,32400,32401,32402,32403,32404,32405,32406,32407,32408,32409,32410,32411,32412,32413,32414,32415,32416,32417,32418,32419,32420,32421,32422,32423,32424,32425,32426,32427,32428,32429,32430,32431,32432,32433,32434,32435,32436,32437,32438,32439,32440,32441,32442,32443,32444,32445,32446,32447,32448,32449,32450,32451,32452,32453,32454,32455,32456,32457,32458,32459,32460,32461,32462,32463,32464,32465,32466,32467,32468,32469,32470,32471,32472,32473,32474,32475,32476,32477,32478,32479,32480,32481,32482,32483,32484,32485,32486,32487,32488,32489,32490,32491,32492,32493,32494,32495,32496,32497,32498,32499,32500,32501,32502,32503,32504,32505,32506,32507,32508,32509,32510,32511,32512,32513,32514,32515,32516,32517,32518,32519,32520,32521,32522,32523,32524,32525,32526,32527,32528,32529,32530,32531,32532,32533,32534,32535,32536,32537,32538,32539,32540,32541,32542,32543,32544,32545,32546,32547,32548,32549,32550,32551,32552,32553,32554,32555,32556,32557,32558,32559,32560,32561,32562,32563,32564,32565,32566,32567,32568,32569,32570,32571,32572,32573,32574,32575,32576,32577,32578,32579,32580,32581,32582,32583,32584,32585,32586,32587,32588,32589,32590,32591,32592,32593,32594,32595,32596,32597,32598,32599,32600,32601,32602,32603,32604,32605,32606,32607,32608,32609,32610,32611,32612,32613,32614,32615,32616,32617,32618,32619,32620,32621,32622,32623,32624,32625,32626,32627,32628,32629,32630,32631,32632,32633,32634,32635,32636,32637,32638,32639,32640,32641,32642,32643,32644,32645,32646,32647,32648,32649,32650,32651,32652,32653,32654,32655,32656,32657,32658,32659,32660,32661,32662,32663,32664,32665,32666,32667,32668,32669,32670,32671,32672,32673,32674,32675,32676,32677,32678,32679,32680,32681,32682,32683,32684,32685,32686,32687,32688,32689,32690,32691,32692,32693,32694,32695,32696,32697,32698,32699,32700,32701,32702,32703,32704,32705,32706,32707,32708,32709,32710,32711,32712,32713,32714,32715,32716,32717,32718,32719,32720,32721,32722,32723,32724,32725,32726,32727,32728,32729,32730,32731,32732,32733,32734,32735,32736,32737,32738,32739,32740
DistanceSpacing: 1
BeatDivisor: 4
GridSize: 4
TimelineZoom: 1.7

[Metadata]
Title:Harumachi Clover
TitleUnicode:���������?��?
Artist:Hanasaka Yui(CV: M.A.O)
ArtistUnicode:����̿��(CV����?��?��)
Creator:OliBomby
Version:TeRMInALlY DEATH DIVINE POEM MOTTO CRIMSON MOMENTIPIDY
Source:
Tags:
BeatmapID:1603388
BeatmapSetID:762628

[Difficulty]
HPDrainRate:5
CircleSize:5
OverallDifficulty:9
ApproachRate:9.7
SliderMultiplier:3.59999990463257
SliderTickRate:1

[Events]
//Background and Video events
0,0,"maxresdefault.png",0,0
//Break Periods
//Storyboard Layer 0 (Background)
//Storyboard Layer 1 (Fail)
//Storyboard Layer 2 (Pass)
//Storyboard Layer 3 (Foreground)
//Storyboard Sound Samples

[TimingPoints]
-349,422.535211267606,4,2,1,40,1,0
284,-144.927536231884,4,2,1,40,0,0

[Colours]
Combo1 : 207,17,255
Combo2 : 255,17,17
Combo3 : 255,177,17
Combo4 : 255,255,0
Combo5 : 23,255,17
Combo6 : 17,255,243
Combo7 : 17,23,255

[HitObjects]
194,192,284,5,0,0:0:0:0:
256,85,496,1,0,0:0:0:0:
163,138,707,1,0,0:0:0:0:
286,138,918,1,0,0:0:0:0:
194,85,1129,1,0,0:0:0:0:
256,192,1341,5,0,0:0:0:0:
378,85,1341,1,0,0:0:0:0:
348,32,1341,1,0,0:0:0:0:
163,245,1341,1,0,0:0:0:0:
194,192,1341,1,0,0:0:0:0:
317,192,1341,1,0,0:0:0:0:
286,245,1341,1,0,0:0:0:0:
286,138,1341,1,0,0:0:0:0:
225,138,1341,1,0,0:0:0:0:
225,245,1341,1,0,0:0:0:0:
256,85,1341,1,0,0:0:0:0:
317,85,1341,1,0,0:0:0:0:
348,138,1341,1,0,0:0:0:0:
378,192,1341,1,0,0:0:0:0:
348,245,1341,1,0,0:0:0:0:
317,298,1341,1,0,0:0:0:0:
256,298,1341,1,0,0:0:0:0:
194,298,1341,1,0,0:0:0:0:
133,192,1341,1,0,0:0:0:0:
163,138,1341,1,0,0:0:0:0:
194,85,1341,1,0,0:0:0:0:
225,32,1341,1,0,0:0:0:0:
286,32,1341,1,0,0:0:0:0:
409,138,1341,1,0,0:0:0:0:
440,192,1341,1,0,0:0:0:0:
409,245,1341,1,0,0:0:0:0:
378,298,1341,1,0,0:0:0:0:
348,351,1341,1,0,0:0:0:0:
286,351,1341,1,0,0:0:0:0:
225,351,1341,1,0,0:0:0:0:
163,351,1341,1,0,0:0:0:0:
133,298,1341,1,0,0:0:0:0:
102,245,1341,1,0,0:0:0:0:
71,192,1341,1,0,0:0:0:0:
133,85,1341,1,0,0:0:0:0:
163,32,1341,1,0,0:0:0:0:
102,138,1341,1,0,0:0:0:0:
11,298,1341,1,0,0:0:0:0:
42,245,1341,1,0,0:0:0:0:
42,351,1341,1,0,0:0:0:0:
72,298,1341,1,0,0:0:0:0:
103,351,1341,1,0,0:0:0:0:
11,192,1341,1,0,0:0:0:0:
42,32,1341,1,0,0:0:0:0:
103,32,1341,1,0,0:0:0:0:
72,85,1341,1,0,0:0:0:0:
42,138,1341,1,0,0:0:0:0:
11,85,1341,1,0,0:0:0:0:
409,32,1341,1,0,0:0:0:0:
470,32,1341,1,0,0:0:0:0:
440,85,1341,1,0,0:0:0:0:
501,85,1341,1,0,0:0:0:0:
470,138,1341,1,0,0:0:0:0:
501,192,1341,1,0,0:0:0:0:
470,245,1341,1,0,0:0:0:0:
501,298,1341,1,0,0:0:0:0:
470,351,1341,1,0,0:0:0:0:
409,351,1341,1,0,0:0:0:0:
440,298,1341,1,0,0:0:0:0:
256,192,1552,5,0,0:0:0:0:
42,351,1552,1,0,0:0:0:0:
42,245,1552,1,0,0:0:0:0:
11,298,1552,1,0,0:0:0:0:
72,298,1552,1,0,0:0:0:0:
42,32,1552,1,0,0:0:0:0:
11,192,1552,1,0,0:0:0:0:
103,351,1552,1,0,0:0:0:0:
102,245,1552,1,0,0:0:0:0:
133,298,1552,1,0,0:0:0:0:
163,351,1552,1,0,0:0:0:0:
71,192,1552,1,0,0:0:0:0:
102,138,1552,1,0,0:0:0:0:
163,32,1552,1,0,0:0:0:0:
133,85,1552,1,0,0:0:0:0:
103,32,1552,1,0,0:0:0:0:
470,245,1552,1,0,0:0:0:0:
501,192,1552,1,0,0:0:0:0:
470,138,1552,1,0,0:0:0:0:
501,298,1552,1,0,0:0:0:0:
440,298,1552,1,0,0:0:0:0:
409,351,1552,1,0,0:0:0:0:
470,351,1552,1,0,0:0:0:0:
11,85,1552,1,0,0:0:0:0:
42,138,1552,1,0,0:0:0:0:
72,85,1552,1,0,0:0:0:0:
409,32,1552,1,0,0:0:0:0:
501,85,1552,1,0,0:0:0:0:
440,85,1552,1,0,0:0:0:0:
470,32,1552,1,0,0:0:0:0:
225,351,1552,1,0,0:0:0:0:
225,245,1552,1,0,0:0:0:0:
225,138,1552,1,0,0:0:0:0:
286,138,1552,1,0,0:0:0:0:
256,85,1552,1,0,0:0:0:0:
378,192,1552,1,0,0:0:0:0:
348,138,1552,1,0,0:0:0:0:
317,85,1552,1,0,0:0:0:0:
348,32,1552,1,0,0:0:0:0:
378,85,1552,1,0,0:0:0:0:
163,245,1552,1,0,0:0:0:0:
286,245,1552,1,0,0:0:0:0:
317,192,1552,1,0,0:0:0:0:
194,192,1552,1,0,0:0:0:0:
348,245,1552,1,0,0:0:0:0:
440,192,1552,1,0,0:0:0:0:
409,138,1552,1,0,0:0:0:0:
286,32,1552,1,0,0:0:0:0:
409,245,1552,1,0,0:0:0:0:
286,351,1552,1,0,0:0:0:0:
348,351,1552,1,0,0:0:0:0:
378,298,1552,1,0,0:0:0:0:
194,298,1552,1,0,0:0:0:0:
256,298,1552,1,0,0:0:0:0:
317,298,1552,1,0,0:0:0:0:
133,192,1552,1,0,0:0:0:0:
225,32,1552,1,0,0:0:0:0:
194,85,1552,1,0,0:0:0:0:
163,138,1552,1,0,0:0:0:0:
256,192,1763,5,0,0:0:0:0:
378,85,1763,1,0,0:0:0:0:
348,32,1763,1,0,0:0:0:0:
163,245,1763,1,0,0:0:0:0:
194,192,1763,1,0,0:0:0:0:
317,192,1763,1,0,0:0:0:0:
286,245,1763,1,0,0:0:0:0:
286,138,1763,1,0,0:0:0:0:
225,138,1763,1,0,0:0:0:0:
225,245,1763,1,0,0:0:0:0:
256,85,1763,1,0,0:0:0:0:
317,85,1763,1,0,0:0:0:0:
348,138,1763,1,0,0:0:0:0:
378,192,1763,1,0,0:0:0:0:
348,245,1763,1,0,0:0:0:0:
317,298,1763,1,0,0:0:0:0:
256,298,1763,1,0,0:0:0:0:
194,298,1763,1,0,0:0:0:0:
133,192,1763,1,0,0:0:0:0:
163,138,1763,1,0,0:0:0:0:
194,85,1763,1,0,0:0:0:0:
225,32,1763,1,0,0:0:0:0:
286,32,1763,1,0,0:0:0:0:
409,138,1763,1,0,0:0:0:0:
440,192,1763,1,0,0:0:0:0:
409,245,1763,1,0,0:0:0:0:
378,298,1763,1,0,0:0:0:0:
348,351,1763,1,0,0:0:0:0:
286,351,1763,1,0,0:0:0:0:
225,351,1763,1,0,0:0:0:0:
163,351,1763,1,0,0:0:0:0:
133,298,1763,1,0,0:0:0:0:
102,245,1763,1,0,0:0:0:0:
71,192,1763,1,0,0:0:0:0:
133,85,1763,1,0,0:0:0:0:
163,32,1763,1,0,0:0:0:0:
102,138,1763,1,0,0:0:0:0:
11,298,1763,1,0,0:0:0:0:
42,245,1763,1,0,0:0:0:0:
42,351,1763,1,0,0:0:0:0:
72,298,1763,1,0,0:0:0:0:
103,351,1763,1,0,0:0:0:0:
11,192,1763,1,0,0:0:0:0:
42,32,1763,1,0,0:0:0:0:
103,32,1763,1,0,0:0:0:0:
72,85,1763,1,0,0:0:0:0:
42,138,1763,1,0,0:0:0:0:
11,85,1763,1,0,0:0:0:0:
409,32,1763,1,0,0:0:0:0:
470,32,1763,1,0,0:0:0:0:
440,85,1763,1,0,0:0:0:0:
501,85,1763,1,0,0:0:0:0:
470,138,1763,1,0,0:0:0:0:
501,192,1763,1,0,0:0:0:0:
470,245,1763,1,0,0:0:0:0:
501,298,1763,1,0,0:0:0:0:
470,351,1763,1,0,0:0:0:0:
409,351,1763,1,0,0:0:0:0:
440,298,1763,1,0,0:0:0:0:
256,192,1974,5,0,0:0:0:0:
42,351,1974,1,0,0:0:0:0:
42,245,1974,1,0,0:0:0:0:
11,298,1974,1,0,0:0:0:0:
72,298,1974,1,0,0:0:0:0:
42,32,1974,1,0,0:0:0:0:
11,192,1974,1,0,0:0:0:0:
103,351,1974,1,0,0:0:0:0:
102,245,1974,1,0,0:0:0:0:
133,298,1974,1,0,0:0:0:0:
163,351,1974,1,0,0:0:0:0:
71,192,1974,1,0,0:0:0:0:
102,138,1974,1,0,0:0:0:0:
163,32,1974,1,0,0:0:0:0:
133,85,1974,1,0,0:0:0:0:
103,32,1974,1,0,0:0:0:0:
470,245,1974,1,0,0:0:0:0:
501,192,1974,1,0,0:0:0:0:
470,138,1974,1,0,0:0:0:0:
501,298,1974,1,0,0:0:0:0:
440,298,1974,1,0,0:0:0:0:
409,351,1974,1,0,0:0:0:0:
470,351,1974,1,0,0:0:0:0:
11,85,1974,1,0,0:0:0:0:
42,138,1974,1,0,0:0:0:0:
72,85,1974,1,0,0:0:0:0:
409,32,1974,1,0,0:0:0:0:
501,85,1974,1,0,0:0:0:0:
440,85,1974,1,0,0:0:0:0:
470,32,1974,1,0,0:0:0:0:
225,351,1974,1,0,0:0:0:0:
225,245,1974,1,0,0:0:0:0:
225,138,1974,1,0,0:0:0:0:
286,138,1974,1,0,0:0:0:0:
256,85,1974,1,0,0:0:0:0:
378,192,1974,1,0,0:0:0:0:
348,138,1974,1,0,0:0:0:0:
317,85,1974,1,0,0:0:0:0:
348,32,1974,1,0,0:0:0:0:
378,85,1974,1,0,0:0:0:0:
163,245,1974,1,0,0:0:0:0:
286,245,1974,1,0,0:0:0:0:
317,192,1974,1,0,0:0:0:0:
194,192,1974,1,0,0:0:0:0:
348,245,1974,1,0,0:0:0:0:
440,192,1974,1,0,0:0:0:0:
409,138,1974,1,0,0:0:0:0:
286,32,1974,1,0,0:0:0:0:
409,245,1974,1,0,0:0:0:0:
286,351,1974,1,0,0:0:0:0:
348,351,1974,1,0,0:0:0:0:
378,298,1974,1,0,0:0:0:0:
194,298,1974,1,0,0:0:0:0:
256,298,1974,1,0,0:0:0:0:
317,298,1974,1,0,0:0:0:0:
133,192,1974,1,0,0:0:0:0:
225,32,1974,1,0,0:0:0:0:
194,85,1974,1,0,0:0:0:0:
163,138,1974,1,0,0:0:0:0:
256,192,2186,5,0,0:0:0:0:
42,351,2186,1,0,0:0:0:0:
42,245,2186,1,0,0:0:0:0:
11,298,2186,1,0,0:0:0:0:
72,298,2186,1,0,0:0:0:0:
42,32,2186,1,0,0:0:0:0:
11,192,2186,1,0,0:0:0:0:
103,351,2186,1,0,0:0:0:0:
102,245,2186,1,0,0:0:0:0:
133,298,2186,1,0,0:0:0:0:
163,351,2186,1,0,0:0:0:0:
71,192,2186,1,0,0:0:0:0:
102,138,2186,1,0,0:0:0:0:
163,32,2186,1,0,0:0:0:0:
133,85,2186,1,0,0:0:0:0:
103,32,2186,1,0,0:0:0:0:
470,245,2186,1,0,0:0:0:0:
501,192,2186,1,0,0:0:0:0:
470,138,2186,1,0,0:0:0:0:
501,298,2186,1,0,0:0:0:0:
440,298,2186,1,0,0:0:0:0:
409,351,2186,1,0,0:0:0:0:
470,351,2186,1,0,0:0:0:0:
11,85,2186,1,0,0:0:0:0:
42,138,2186,1,0,0:0:0:0:
72,85,2186,1,0,0:0:0:0:
409,32,2186,1,0,0:0:0:0:
501,85,2186,1,0,0:0:0:0:
440,85,2186,1,0,0:0:0:0:
470,32,2186,1,0,0:0:0:0:
225,351,2186,1,0,0:0:0:0:
225,245,2186,1,0,0:0:0:0:
225,138,2186,1,0,0:0:0:0:
286,138,2186,1,0,0:0:0:0:
256,85,2186,1,0,0:0:0:0:
378,192,2186,1,0,0:0:0:0:
348,138,2186,1,0,0:0:0:0:
317,85,2186,1,0,0:0:0:0:
348,32,2186,1,0,0:0:0:0:
378,85,2186,1,0,0:0:0:0:
163,245,2186,1,0,0:0:0:0:
286,245,2186,1,0,0:0:0:0:
317,192,2186,1,0,0:0:0:0:
194,192,2186,1,0,0:0:0:0:
348,245,2186,1,0,0:0:0:0:
440,192,2186,1,0,0:0:0:0:
409,138,2186,1,0,0:0:0:0:
286,32,2186,1,0,0:0:0:0:
409,245,2186,1,0,0:0:0:0:
286,351,2186,1,0,0:0:0:0:
348,351,2186,1,0,0:0:0:0:
378,298,2186,1,0,0:0:0:0:
194,298,2186,1,0,0:0:0:0:
256,298,2186,1,0,0:0:0:0:
317,298,2186,1,0,0:0:0:0:
133,192,2186,1,0,0:0:0:0:
225,32,2186,1,0,0:0:0:0:
194,85,2186,1,0,0:0:0:0:
163,138,2186,1,0,0:0:0:0:
256,192,2397,5,0,0:0:0:0:
378,85,2397,1,0,0:0:0:0:
348,32,2397,1,0,0:0:0:0:
163,245,2397,1,0,0:0:0:0:
194,192,2397,1,0,0:0:0:0:
317,192,2397,1,0,0:0:0:0:
286,245,2397,1,0,0:0:0:0:
286,138,2397,1,0,0:0:0:0:
225,138,2397,1,0,0:0:0:0:
225,245,2397,1,0,0:0:0:0:
256,85,2397,1,0,0:0:0:0:
317,85,2397,1,0,0:0:0:0:
348,138,2397,1,0,0:0:0:0:
378,192,2397,1,0,0:0:0:0:
348,245,2397,1,0,0:0:0:0:
317,298,2397,1,0,0:0:0:0:
256,298,2397,1,0,0:0:0:0:
194,298,2397,1,0,0:0:0:0:
133,192,2397,1,0,0:0:0:0:
163,138,2397,1,0,0:0:0:0:
194,85,2397,1,0,0:0:0:0:
225,32,2397,1,0,0:0:0:0:
286,32,2397,1,0,0:0:0:0:
409,138,2397,1,0,0:0:0:0:
440,192,2397,1,0,0:0:0:0:
409,245,2397,1,0,0:0:0:0:
378,298,2397,1,0,0:0:0:0:
348,351,2397,1,0,0:0:0:0:
286,351,2397,1,0,0:0:0:0:
225,351,2397,1,0,0:0:0:0:
163,351,2397,1,0,0:0:0:0:
133,298,2397,1,0,0:0:0:0:
102,245,2397,1,0,0:0:0:0:
71,192,2397,1,0,0:0:0:0:
133,85,2397,1,0,0:0:0:0:
163,32,2397,1,0,0:0:0:0:
102,138,2397,1,0,0:0:0:0:
11,298,2397,1,0,0:0:0:0:
42,245,2397,1,0,0:0:0:0:
42,351,2397,1,0,0:0:0:0:
72,298,2397,1,0,0:0:0:0:
103,351,2397,1,0,0:0:0:0:
11,192,2397,1,0,0:0:0:0:
42,32,2397,1,0,0:0:0:0:
103,32,2397,1,0,0:0:0:0:
72,85,2397,1,0,0:0:0:0:
42,138,2397,1,0,0:0:0:0:
11,85,2397,1,0,0:0:0:0:
409,32,2397,1,0,0:0:0:0:
470,32,2397,1,0,0:0:0:0:
440,85,2397,1,0,0:0:0:0:
501,85,2397,1,0,0:0:0:0:
470,138,2397,1,0,0:0:0:0:
501,192,2397,1,0,0:0:0:0:
470,245,2397,1,0,0:0:0:0:
501,298,2397,1,0,0:0:0:0:
470,351,2397,1,0,0:0:0:0:
409,351,2397,1,0,0:0:0:0:
440,298,2397,1,0,0:0:0:0:
256,192,2608,5,0,0:0:0:0:
42,351,2608,1,0,0:0:0:0:
42,245,2608,1,0,0:0:0:0:
11,298,2608,1,0,0:0:0:0:
72,298,2608,1,0,0:0:0:0:
42,32,2608,1,0,0:0:0:0:
11,192,2608,1,0,0:0:0:0:
103,351,2608,1,0,0:0:0:0:
102,245,2608,1,0,0:0:0:0:
133,298,2608,1,0,0:0:0:0:
163,351,2608,1,0,0:0:0:0:
71,192,2608,1,0,0:0:0:0:
102,138,2608,1,0,0:0:0:0:
163,32,2608,1,0,0:0:0:0:
133,85,2608,1,0,0:0:0:0:
103,32,2608,1,0,0:0:0:0:
470,245,2608,1,0,0:0:0:0:
501,192,2608,1,0,0:0:0:0:
470,138,2608,1,0,0:0:0:0:
501,298,2608,1,0,0:0:0:0:
440,298,2608,1,0,0:0:0:0:
409,351,2608,1,0,0:0:0:0:
470,351,2608,1,0,0:0:0:0:
11,85,2608,1,0,0:0:0:0:
42,138,2608,1,0,0:0:0:0:
72,85,2608,1,0,0:0:0:0:
409,32,2608,1,0,0:0:0:0:
501,85,2608,1,0,0:0:0:0:
440,85,2608,1,0,0:0:0:0:
470,32,2608,1,0,0:0:0:0:
225,351,2608,1,0,0:0:0:0:
225,245,2608,1,0,0:0:0:0:
225,138,2608,1,0,0:0:0:0:
286,138,2608,1,0,0:0:0:0:
256,85,2608,1,0,0:0:0:0:
378,192,2608,1,0,0:0:0:0:
348,138,2608,1,0,0:0:0:0:
317,85,2608,1,0,0:0:0:0:
348,32,2608,1,0,0:0:0:0:
378,85,2608,1,0,0:0:0:0:
163,245,2608,1,0,0:0:0:0:
286,245,2608,1,0,0:0:0:0:
317,192,2608,1,0,0:0:0:0:
194,192,2608,1,0,0:0:0:0:
348,245,2608,1,0,0:0:0:0:
440,192,2608,1,0,0:0:0:0:
409,138,2608,1,0,0:0:0:0:
286,32,2608,1,0,0:0:0:0:
409,245,2608,1,0,0:0:0:0:
286,351,2608,1,0,0:0:0:0:
348,351,2608,1,0,0:0:0:0:
378,298,2608,1,0,0:0:0:0:
194,298,2608,1,0,0:0:0:0:
256,298,2608,1,0,0:0:0:0:
317,298,2608,1,0,0:0:0:0:
133,192,2608,1,0,0:0:0:0:
225,32,2608,1,0,0:0:0:0:
194,85,2608,1,0,0:0:0:0:
163,138,2608,1,0,0:0:0:0:
256,192,2820,5,0,0:0:0:0:
378,85,2820,1,0,0:0:0:0:
348,32,2820,1,0,0:0:0:0:
163,245,2820,1,0,0:0:0:0:
194,192,2820,1,0,0:0:0:0:
317,192,2820,1,0,0:0:0:0:
286,245,2820,1,0,0:0:0:0:
286,138,2820,1,0,0:0:0:0:
225,138,2820,1,0,0:0:0:0:
225,245,2820,1,0,0:0:0:0:
256,85,2820,1,0,0:0:0:0:
317,85,2820,1,0,0:0:0:0:
348,138,2820,1,0,0:0:0:0:
378,192,2820,1,0,0:0:0:0:
348,245,2820,1,0,0:0:0:0:
317,298,2820,1,0,0:0:0:0:
256,298,2820,1,0,0:0:0:0:
194,298,2820,1,0,0:0:0:0:
133,192,2820,1,0,0:0:0:0:
163,138,2820,1,0,0:0:0:0:
194,85,2820,1,0,0:0:0:0:
225,32,2820,1,0,0:0:0:0:
286,32,2820,1,0,0:0:0:0:
409,138,2820,1,0,0:0:0:0:
440,192,2820,1,0,0:0:0:0:
409,245,2820,1,0,0:0:0:0:
378,298,2820,1,0,0:0:0:0:
348,351,2820,1,0,0:0:0:0:
286,351,2820,1,0,0:0:0:0:
225,351,2820,1,0,0:0:0:0:
163,351,2820,1,0,0:0:0:0:
133,298,2820,1,0,0:0:0:0:
102,245,2820,1,0,0:0:0:0:
71,192,2820,1,0,0:0:0:0:
133,85,2820,1,0,0:0:0:0:
163,32,2820,1,0,0:0:0:0:
102,138,2820,1,0,0:0:0:0:
11,298,2820,1,0,0:0:0:0:
42,245,2820,1,0,0:0:0:0:
42,351,2820,1,0,0:0:0:0:
72,298,2820,1,0,0:0:0:0:
103,351,2820,1,0,0:0:0:0:
11,192,2820,1,0,0:0:0:0:
42,32,2820,1,0,0:0:0:0:
103,32,2820,1,0,0:0:0:0:
72,85,2820,1,0,0:0:0:0:
42,138,2820,1,0,0:0:0:0:
11,85,2820,1,0,0:0:0:0:
409,32,2820,1,0,0:0:0:0:
470,32,2820,1,0,0:0:0:0:
440,85,2820,1,0,0:0:0:0:
501,85,2820,1,0,0:0:0:0:
470,138,2820,1,0,0:0:0:0:
501,192,2820,1,0,0:0:0:0:
470,245,2820,1,0,0:0:0:0:
501,298,2820,1,0,0:0:0:0:
470,351,2820,1,0,0:0:0:0:
409,351,2820,1,0,0:0:0:0:
440,298,2820,1,0,0:0:0:0:
256,192,3031,5,0,0:0:0:0:
42,351,3031,1,0,0:0:0:0:
42,245,3031,1,0,0:0:0:0:
11,298,3031,1,0,0:0:0:0:
72,298,3031,1,0,0:0:0:0:
42,32,3031,1,0,0:0:0:0:
11,192,3031,1,0,0:0:0:0:
103,351,3031,1,0,0:0:0:0:
102,245,3031,1,0,0:0:0:0:
133,298,3031,1,0,0:0:0:0:
163,351,3031,1,0,0:0:0:0:
71,192,3031,1,0,0:0:0:0:
102,138,3031,1,0,0:0:0:0:
163,32,3031,1,0,0:0:0:0:
133,85,3031,1,0,0:0:0:0:
103,32,3031,1,0,0:0:0:0:
470,245,3031,1,0,0:0:0:0:
501,192,3031,1,0,0:0:0:0:
470,138,3031,1,0,0:0:0:0:
501,298,3031,1,0,0:0:0:0:
440,298,3031,1,0,0:0:0:0:
409,351,3031,1,0,0:0:0:0:
470,351,3031,1,0,0:0:0:0:
11,85,3031,1,0,0:0:0:0:
42,138,3031,1,0,0:0:0:0:
72,85,3031,1,0,0:0:0:0:
409,32,3031,1,0,0:0:0:0:
501,85,3031,1,0,0:0:0:0:
440,85,3031,1,0,0:0:0:0:
470,32,3031,1,0,0:0:0:0:
225,351,3031,1,0,0:0:0:0:
225,245,3031,1,0,0:0:0:0:
225,138,3031,1,0,0:0:0:0:
286,138,3031,1,0,0:0:0:0:
256,85,3031,1,0,0:0:0:0:
378,192,3031,1,0,0:0:0:0:
348,138,3031,1,0,0:0:0:0:
317,85,3031,1,0,0:0:0:0:
348,32,3031,1,0,0:0:0:0:
378,85,3031,1,0,0:0:0:0:
163,245,3031,1,0,0:0:0:0:
286,245,3031,1,0,0:0:0:0:
317,192,3031,1,0,0:0:0:0:
194,192,3031,1,0,0:0:0:0:
348,245,3031,1,0,0:0:0:0:
440,192,3031,1,0,0:0:0:0:
409,138,3031,1,0,0:0:0:0:
286,32,3031,1,0,0:0:0:0:
409,245,3031,1,0,0:0:0:0:
286,351,3031,1,0,0:0:0:0:
348,351,3031,1,0,0:0:0:0:
378,298,3031,1,0,0:0:0:0:
194,298,3031,1,0,0:0:0:0:
256,298,3031,1,0,0:0:0:0:
317,298,3031,1,0,0:0:0:0:
133,192,3031,1,0,0:0:0:0:
225,32,3031,1,0,0:0:0:0:
194,85,3031,1,0,0:0:0:0:
163,138,3031,1,0,0:0:0:0:
256,192,3242,5,0,0:0:0:0:
378,85,3242,1,0,0:0:0:0:
348,32,3242,1,0,0:0:0:0:
163,245,3242,1,0,0:0:0:0:
194,192,3242,1,0,0:0:0:0:
317,192,3242,1,0,0:0:0:0:
286,245,3242,1,0,0:0:0:0:
286,138,3242,1,0,0:0:0:0:
225,138,3242,1,0,0:0:0:0:
225,245,3242,1,0,0:0:0:0:
256,85,3242,1,0,0:0:0:0:
317,85,3242,1,0,0:0:0:0:
348,138,3242,1,0,0:0:0:0:
378,192,3242,1,0,0:0:0:0:
348,245,3242,1,0,0:0:0:0:
317,298,3242,1,0,0:0:0:0:
256,298,3242,1,0,0:0:0:0:
194,298,3242,1,0,0:0:0:0:
133,192,3242,1,0,0:0:0:0:
163,138,3242,1,0,0:0:0:0:
194,85,3242,1,0,0:0:0:0:
225,32,3242,1,0,0:0:0:0:
286,32,3242,1,0,0:0:0:0:
409,138,3242,1,0,0:0:0:0:
440,192,3242,1,0,0:0:0:0:
409,245,3242,1,0,0:0:0:0:
378,298,3242,1,0,0:0:0:0:
348,351,3242,1,0,0:0:0:0:
286,351,3242,1,0,0:0:0:0:
225,351,3242,1,0,0:0:0:0:
163,351,3242,1,0,0:0:0:0:
133,298,3242,1,0,0:0:0:0:
102,245,3242,1,0,0:0:0:0:
71,192,3242,1,0,0:0:0:0:
133,85,3242,1,0,0:0:0:0:
163,32,3242,1,0,0:0:0:0:
102,138,3242,1,0,0:0:0:0:
11,298,3242,1,0,0:0:0:0:
42,245,3242,1,0,0:0:0:0:
42,351,3242,1,0,0:0:0:0:
72,298,3242,1,0,0:0:0:0:
103,351,3242,1,0,0:0:0:0:
11,192,3242,1,0,0:0:0:0:
42,32,3242,1,0,0:0:0:0:
103,32,3242,1,0,0:0:0:0:
72,85,3242,1,0,0:0:0:0:
42,138,3242,1,0,0:0:0:0:
11,85,3242,1,0,0:0:0:0:
409,32,3242,1,0,0:0:0:0:
470,32,3242,1,0,0:0:0:0:
440,85,3242,1,0,0:0:0:0:
501,85,3242,1,0,0:0:0:0:
470,138,3242,1,0,0:0:0:0:
501,192,3242,1,0,0:0:0:0:
470,245,3242,1,0,0:0:0:0:
501,298,3242,1,0,0:0:0:0:
470,351,3242,1,0,0:0:0:0:
409,351,3242,1,0,0:0:0:0:
440,298,3242,1,0,0:0:0:0:
256,192,3453,5,0,0:0:0:0:
42,351,3453,1,0,0:0:0:0:
42,245,3453,1,0,0:0:0:0:
11,298,3453,1,0,0:0:0:0:
72,298,3453,1,0,0:0:0:0:
42,32,3453,1,0,0:0:0:0:
11,192,3453,1,0,0:0:0:0:
103,351,3453,1,0,0:0:0:0:
102,245,3453,1,0,0:0:0:0:
133,298,3453,1,0,0:0:0:0:
163,351,3453,1,0,0:0:0:0:
71,192,3453,1,0,0:0:0:0:
102,138,3453,1,0,0:0:0:0:
163,32,3453,1,0,0:0:0:0:
133,85,3453,1,0,0:0:0:0:
103,32,3453,1,0,0:0:0:0:
470,245,3453,1,0,0:0:0:0:
501,192,3453,1,0,0:0:0:0:
470,138,3453,1,0,0:0:0:0:
501,298,3453,1,0,0:0:0:0:
440,298,3453,1,0,0:0:0:0:
409,351,3453,1,0,0:0:0:0:
470,351,3453,1,0,0:0:0:0:
11,85,3453,1,0,0:0:0:0:
42,138,3453,1,0,0:0:0:0:
72,85,3453,1,0,0:0:0:0:
409,32,3453,1,0,0:0:0:0:
501,85,3453,1,0,0:0:0:0:
440,85,3453,1,0,0:0:0:0:
470,32,3453,1,0,0:0:0:0:
225,351,3453,1,0,0:0:0:0:
225,245,3453,1,0,0:0:0:0:
225,138,3453,1,0,0:0:0:0:
286,138,3453,1,0,0:0:0:0:
256,85,3453,1,0,0:0:0:0:
378,192,3453,1,0,0:0:0:0:
348,138,3453,1,0,0:0:0:0:
317,85,3453,1,0,0:0:0:0:
348,32,3453,1,0,0:0:0:0:
378,85,3453,1,0,0:0:0:0:
163,245,3453,1,0,0:0:0:0:
286,245,3453,1,0,0:0:0:0:
317,192,3453,1,0,0:0:0:0:
194,192,3453,1,0,0:0:0:0:
348,245,3453,1,0,0:0:0:0:
440,192,3453,1,0,0:0:0:0:
409,138,3453,1,0,0:0:0:0:
286,32,3453,1,0,0:0:0:0:
409,245,3453,1,0,0:0:0:0:
286,351,3453,1,0,0:0:0:0:
348,351,3453,1,0,0:0:0:0:
378,298,3453,1,0,0:0:0:0:
194,298,3453,1,0,0:0:0:0:
256,298,3453,1,0,0:0:0:0:
317,298,3453,1,0,0:0:0:0:
133,192,3453,1,0,0:0:0:0:
225,32,3453,1,0,0:0:0:0:
194,85,3453,1,0,0:0:0:0:
163,138,3453,1,0,0:0:0:0:
256,192,3665,5,0,0:0:0:0:
378,85,3665,1,0,0:0:0:0:
348,32,3665,1,0,0:0:0:0:
163,245,3665,1,0,0:0:0:0:
194,192,3665,1,0,0:0:0:0:
317,192,3665,1,0,0:0:0:0:
286,245,3665,1,0,0:0:0:0:
286,138,3665,1,0,0:0:0:0:
225,138,3665,1,0,0:0:0:0:
225,245,3665,1,0,0:0:0:0:
256,85,3665,1,0,0:0:0:0:
317,85,3665,1,0,0:0:0:0:
348,138,3665,1,0,0:0:0:0:
378,192,3665,1,0,0:0:0:0:
348,245,3665,1,0,0:0:0:0:
317,298,3665,1,0,0:0:0:0:
256,298,3665,1,0,0:0:0:0:
194,298,3665,1,0,0:0:0:0:
133,192,3665,1,0,0:0:0:0:
163,138,3665,1,0,0:0:0:0:
194,85,3665,1,0,0:0:0:0:
225,32,3665,1,0,0:0:0:0:
286,32,3665,1,0,0:0:0:0:
409,138,3665,1,0,0:0:0:0:
440,192,3665,1,0,0:0:0:0:
409,245,3665,1,0,0:0:0:0:
378,298,3665,1,0,0:0:0:0:
348,351,3665,1,0,0:0:0:0:
286,351,3665,1,0,0:0:0:0:
225,351,3665,1,0,0:0:0:0:
163,351,3665,1,0,0:0:0:0:
133,298,3665,1,0,0:0:0:0:
102,245,3665,1,0,0:0:0:0:
71,192,3665,1,0,0:0:0:0:
133,85,3665,1,0,0:0:0:0:
163,32,3665,1,0,0:0:0:0:
102,138,3665,1,0,0:0:0:0:
11,298,3665,1,0,0:0:0:0:
42,245,3665,1,0,0:0:0:0:
42,351,3665,1,0,0:0:0:0:
72,298,3665,1,0,0:0:0:0:
103,351,3665,1,0,0:0:0:0:
11,192,3665,1,0,0:0:0:0:
42,32,3665,1,0,0:0:0:0:
103,32,3665,1,0,0:0:0:0:
72,85,3665,1,0,0:0:0:0:
42,138,3665,1,0,0:0:0:0:
11,85,3665,1,0,0:0:0:0:
409,32,3665,1,0,0:0:0:0:
470,32,3665,1,0,0:0:0:0:
440,85,3665,1,0,0:0:0:0:
501,85,3665,1,0,0:0:0:0:
470,138,3665,1,0,0:0:0:0:
501,192,3665,1,0,0:0:0:0:
470,245,3665,1,0,0:0:0:0:
501,298,3665,1,0,0:0:0:0:
470,351,3665,1,0,0:0:0:0:
409,351,3665,1,0,0:0:0:0:
440,298,3665,1,0,0:0:0:0:
256,192,4510,5,0,0:0:0:0:
42,351,4510,1,0,0:0:0:0:
42,245,4510,1,0,0:0:0:0:
11,298,4510,1,0,0:0:0:0:
72,298,4510,1,0,0:0:0:0:
42,32,4510,1,0,0:0:0:0:
11,192,4510,1,0,0:0:0:0:
103,351,4510,1,0,0:0:0:0:
102,245,4510,1,0,0:0:0:0:
133,298,4510,1,0,0:0:0:0:
163,351,4510,1,0,0:0:0:0:
71,192,4510,1,0,0:0:0:0:
102,138,4510,1,0,0:0:0:0:
163,32,4510,1,0,0:0:0:0:
133,85,4510,1,0,0:0:0:0:
103,32,4510,1,0,0:0:0:0:
470,245,4510,1,0,0:0:0:0:
501,192,4510,1,0,0:0:0:0:
470,138,4510,1,0,0:0:0:0:
501,298,4510,1,0,0:0:0:0:
440,298,4510,1,0,0:0:0:0:
409,351,4510,1,0,0:0:0:0:
470,351,4510,1,0,0:0:0:0:
11,85,4510,1,0,0:0:0:0:
42,138,4510,1,0,0:0:0:0:
72,85,4510,1,0,0:0:0:0:
409,32,4510,1,0,0:0:0:0:
501,85,4510,1,0,0:0:0:0:
440,85,4510,1,0,0:0:0:0:
470,32,4510,1,0,0:0:0:0:
225,351,4510,1,0,0:0:0:0:
225,245,4510,1,0,0:0:0:0:
225,138,4510,1,0,0:0:0:0:
286,138,4510,1,0,0:0:0:0:
256,85,4510,1,0,0:0:0:0:
378,192,4510,1,0,0:0:0:0:
348,138,4510,1,0,0:0:0:0:
317,85,4510,1,0,0:0:0:0:
348,32,4510,1,0,0:0:0:0:
378,85,4510,1,0,0:0:0:0:
163,245,4510,1,0,0:0:0:0:
286,245,4510,1,0,0:0:0:0:
317,192,4510,1,0,0:0:0:0:
194,192,4510,1,0,0:0:0:0:
348,245,4510,1,0,0:0:0:0:
440,192,4510,1,0,0:0:0:0:
409,138,4510,1,0,0:0:0:0:
286,32,4510,1,0,0:0:0:0:
409,245,4510,1,0,0:0:0:0:
286,351,4510,1,0,0:0:0:0:
348,351,4510,1,0,0:0:0:0:
378,298,4510,1,0,0:0:0:0:
194,298,4510,1,0,0:0:0:0:
256,298,4510,1,0,0:0:0:0:
317,298,4510,1,0,0:0:0:0:
133,192,4510,1,0,0:0:0:0:
225,32,4510,1,0,0:0:0:0:
194,85,4510,1,0,0:0:0:0:
163,138,4510,1,0,0:0:0:0:
256,192,4721,5,0,0:0:0:0:
383,91,4721,1,0,0:0:0:0:
356,37,4721,1,0,0:0:0:0:
160,240,4721,1,0,0:0:0:0:
194,188,4721,1,0,0:0:0:0:
316,195,4721,1,0,0:0:0:0:
283,246,4721,1,0,0:0:0:0:
288,139,4721,1,0,0:0:0:0:
227,136,4721,1,0,0:0:0:0:
222,243,4721,1,0,0:0:0:0:
261,85,4721,1,0,0:0:0:0:
322,88,4721,1,0,0:0:0:0:
350,142,4721,1,0,0:0:0:0:
377,198,4721,1,0,0:0:0:0:
345,249,4721,1,0,0:0:0:0:
311,301,4721,1,0,0:0:0:0:
250,297,4721,1,0,0:0:0:0:
188,294,4721,1,0,0:0:0:0:
133,185,4721,1,0,0:0:0:0:
165,133,4721,1,0,0:0:0:0:
199,81,4721,1,0,0:0:0:0:
233,30,4721,1,0,0:0:0:0:
294,33,4721,1,0,0:0:0:0:
411,146,4721,1,0,0:0:0:0:
439,201,4721,1,0,0:0:0:0:
406,252,4721,1,0,0:0:0:0:
372,304,4721,1,0,0:0:0:0:
339,355,4721,1,0,0:0:0:0:
277,352,4721,1,0,0:0:0:0:
216,349,4721,1,0,0:0:0:0:
154,345,4721,1,0,0:0:0:0:
127,291,4721,1,0,0:0:0:0:
99,236,4721,1,0,0:0:0:0:
71,182,4721,1,0,0:0:0:0:
138,78,4721,1,0,0:0:0:0:
171,27,4721,1,0,0:0:0:0:
105,130,4721,1,0,0:0:0:0:
5,285,4721,1,0,0:0:0:0:
39,233,4721,1,0,0:0:0:0:
33,339,4721,1,0,0:0:0:0:
66,288,4721,1,0,0:0:0:0:
94,342,4721,1,0,0:0:0:0:
11,179,4721,1,0,0:0:0:0:
50,21,4721,1,0,0:0:0:0:
111,24,4721,1,0,0:0:0:0:
77,75,4721,1,0,0:0:0:0:
45,126,4721,1,0,0:0:0:0:
16,72,4721,1,0,0:0:0:0:
417,40,4721,1,0,0:0:0:0:
478,43,4721,1,0,0:0:0:0:
445,94,4721,1,0,0:0:0:0:
506,97,4721,1,0,0:0:0:0:
472,149,4721,1,0,0:0:0:0:
500,204,4721,1,0,0:0:0:0:
466,256,4721,1,0,0:0:0:0:
495,310,4721,1,0,0:0:0:0:
461,361,4721,1,0,0:0:0:0:
400,358,4721,1,0,0:0:0:0:
434,307,4721,1,0,0:0:0:0:
256,192,4932,5,0,0:0:0:0:
388,98,4932,1,0,0:0:0:0:
364,42,4932,1,0,0:0:0:0:
157,234,4932,1,0,0:0:0:0:
194,185,4932,1,0,0:0:0:0:
316,198,4932,1,0,0:0:0:0:
280,247,4932,1,0,0:0:0:0:
291,141,4932,1,0,0:0:0:0:
230,135,4932,1,0,0:0:0:0:
219,241,4932,1,0,0:0:0:0:
267,85,4932,1,0,0:0:0:0:
327,91,4932,1,0,0:0:0:0:
353,147,4932,1,0,0:0:0:0:
377,204,4932,1,0,0:0:0:0:
341,254,4932,1,0,0:0:0:0:
305,303,4932,1,0,0:0:0:0:
244,297,4932,1,0,0:0:0:0:
183,290,4932,1,0,0:0:0:0:
133,179,4932,1,0,0:0:0:0:
169,128,4932,1,0,0:0:0:0:
205,79,4932,1,0,0:0:0:0:
241,29,4932,1,0,0:0:0:0:
302,36,4932,1,0,0:0:0:0:
413,154,4932,1,0,0:0:0:0:
438,211,4932,1,0,0:0:0:0:
402,260,4932,1,0,0:0:0:0:
366,310,4932,1,0,0:0:0:0:
330,359,4932,1,0,0:0:0:0:
269,353,4932,1,0,0:0:0:0:
208,346,4932,1,0,0:0:0:0:
485,55,4932,1,0,0:0:0:0:
122,284,4932,1,0,0:0:0:0:
97,228,4932,1,0,0:0:0:0:
87,334,4932,1,0,0:0:0:0:
146,340,4932,1,0,0:0:0:0:
180,23,4932,1,0,0:0:0:0:
108,122,4932,1,0,0:0:0:0:
72,172,4932,1,0,0:0:0:0:
37,222,4932,1,0,0:0:0:0:
26,327,4932,1,0,0:0:0:0:
1,271,4932,1,0,0:0:0:0:
12,166,4932,1,0,0:0:0:0:
59,10,4932,1,0,0:0:0:0:
61,278,4932,1,0,0:0:0:0:
144,72,4932,1,0,0:0:0:0:
48,115,4932,1,0,0:0:0:0:
23,59,4932,1,0,0:0:0:0:
452,372,4932,1,0,0:0:0:0:
84,66,4932,1,0,0:0:0:0:
450,104,4932,1,0,0:0:0:0:
510,111,4932,1,0,0:0:0:0:
424,48,4932,1,0,0:0:0:0:
499,217,4932,1,0,0:0:0:0:
463,267,4932,1,0,0:0:0:0:
120,16,4932,1,0,0:0:0:0:
474,160,4932,1,0,0:0:0:0:
391,366,4932,1,0,0:0:0:0:
427,316,4932,1,0,0:0:0:0:
488,323,4932,1,0,0:0:0:0:
256,192,5143,5,0,0:0:0:0:
393,105,5143,1,0,0:0:0:0:
371,48,5143,1,0,0:0:0:0:
155,229,5143,1,0,0:0:0:0:
194,182,5143,1,0,0:0:0:0:
316,201,5143,1,0,0:0:0:0:
277,249,5143,1,0,0:0:0:0:
294,143,5143,1,0,0:0:0:0:
233,133,5143,1,0,0:0:0:0:
217,239,5143,1,0,0:0:0:0:
272,86,5143,1,0,0:0:0:0:
332,95,5143,1,0,0:0:0:0:
355,153,5143,1,0,0:0:0:0:
376,211,5143,1,0,0:0:0:0:
338,258,5143,1,0,0:0:0:0:
299,306,5143,1,0,0:0:0:0:
239,296,5143,1,0,0:0:0:0:
178,286,5143,1,0,0:0:0:0:
134,172,5143,1,0,0:0:0:0:
172,124,5143,1,0,0:0:0:0:
211,76,5143,1,0,0:0:0:0:
250,29,5143,1,0,0:0:0:0:
310,38,5143,1,0,0:0:0:0:
415,162,5143,1,0,0:0:0:0:
437,220,5143,1,0,0:0:0:0:
398,268,5143,1,0,0:0:0:0:
359,315,5143,1,0,0:0:0:0:
321,363,5143,1,0,0:0:0:0:
260,353,5143,1,0,0:0:0:0:
200,344,5143,1,0,0:0:0:0:
492,67,5143,1,0,0:0:0:0:
117,277,5143,1,0,0:0:0:0:
95,220,5143,1,0,0:0:0:0:
80,325,5143,1,0,0:0:0:0:
139,334,5143,1,0,0:0:0:0:
189,19,5143,1,0,0:0:0:0:
112,114,5143,1,0,0:0:0:0:
73,163,5143,1,0,0:0:0:0:
19,315,5143,1,0,0:0:0:0:
36,210,5143,1,0,0:0:0:0:
0,258,5143,1,0,0:0:0:0:
14,153,5143,1,0,0:0:0:0:
69,0,5143,1,0,0:0:0:0:
57,267,5143,1,0,0:0:0:0:
151,67,5143,1,0,0:0:0:0:
53,105,5143,1,0,0:0:0:0:
30,47,5143,1,0,0:0:0:0:
442,382,5143,1,0,0:0:0:0:
91,57,5143,1,0,0:0:0:0:
454,115,5143,1,0,0:0:0:0:
512,124,5143,1,0,0:0:0:0:
432,57,5143,1,0,0:0:0:0:
497,230,5143,1,0,0:0:0:0:
459,277,5143,1,0,0:0:0:0:
129,10,5143,1,0,0:0:0:0:
475,172,5143,1,0,0:0:0:0:
382,372,5143,1,0,0:0:0:0:
421,325,5143,1,0,0:0:0:0:
481,335,5143,1,0,0:0:0:0:
256,192,5355,5,0,0:3:0:0:
397,112,5355,1,0,0:3:0:0:
379,54,5355,1,0,0:3:0:0:
154,224,5355,1,0,0:3:0:0:
195,179,5355,1,0,0:3:0:0:
315,204,5355,1,0,0:3:0:0:
274,250,5355,1,0,0:3:0:0:
296,145,5355,1,0,0:3:0:0:
236,132,5355,1,0,0:3:0:0:
214,237,5355,1,0,0:3:0:0:
278,87,5355,1,0,0:3:0:0:
337,100,5355,1,0,0:3:0:0:
357,158,5355,1,0,0:3:0:0:
375,217,5355,1,0,0:3:0:0:
334,262,5355,1,0,0:3:0:0:
293,308,5355,1,0,0:3:0:0:
233,295,5355,1,0,0:3:0:0:
173,282,5355,1,0,0:3:0:0:
135,166,5355,1,0,0:3:0:0:
176,119,5355,1,0,0:3:0:0:
217,74,5355,1,0,0:3:0:0:
258,29,5355,1,0,0:3:0:0:
318,41,5355,1,0,0:3:0:0:
416,170,5355,1,0,0:3:0:0:
435,230,5355,1,0,0:3:0:0:
394,275,5355,1,0,0:3:0:0:
353,321,5355,1,0,0:3:0:0:
312,366,5355,1,0,0:3:0:0:
252,353,5355,1,0,0:3:0:0:
192,341,5355,1,0,0:3:0:0:
498,79,5355,1,0,0:3:0:0:
113,270,5355,1,0,0:3:0:0:
94,211,5355,1,0,0:3:0:0:
73,315,5355,1,0,0:3:0:0:
131,328,5355,1,0,0:3:0:0:
198,16,5355,1,0,0:3:0:0:
116,107,5355,1,0,0:3:0:0:
75,153,5355,1,0,0:3:0:0:
35,199,5355,1,0,0:3:0:0:
13,303,5355,1,0,0:3:0:0:
0,244,5355,1,0,0:3:0:0:
16,141,5355,1,0,0:3:0:0:
79,0,5355,1,0,0:3:0:0:
53,257,5355,1,0,0:3:0:0:
157,61,5355,1,0,0:3:0:0:
57,94,5355,1,0,0:3:0:0:
38,36,5355,1,0,0:3:0:0:
432,392,5355,1,0,0:3:0:0:
98,49,5355,1,0,0:3:0:0:
458,125,5355,1,0,0:3:0:0:
512,138,5355,1,0,0:3:0:0:
438,67,5355,1,0,0:3:0:0:
495,242,5355,1,0,0:3:0:0:
454,288,5355,1,0,0:3:0:0:
139,3,5355,1,0,0:3:0:0:
476,183,5355,1,0,0:3:0:0:
372,379,5355,1,0,0:3:0:0:
413,333,5355,1,0,0:3:0:0:
473,346,5355,1,0,0:3:0:0:
256,192,5566,5,0,0:3:0:0:
401,120,5566,1,0,0:3:0:0:
386,61,5566,1,0,0:3:0:0:
152,219,5566,1,0,0:3:0:0:
196,175,5566,1,0,0:3:0:0:
314,207,5566,1,0,0:3:0:0:
271,250,5566,1,0,0:3:0:0:
298,147,5566,1,0,0:3:0:0:
240,131,5566,1,0,0:3:0:0:
212,235,5566,1,0,0:3:0:0:
283,88,5566,1,0,0:3:0:0:
342,104,5566,1,0,0:3:0:0:
358,163,5566,1,0,0:3:0:0:
373,223,5566,1,0,0:3:0:0:
331,267,5566,1,0,0:3:0:0:
287,310,5566,1,0,0:3:0:0:
228,294,5566,1,0,0:3:0:0:
168,278,5566,1,0,0:3:0:0:
137,160,5566,1,0,0:3:0:0:
180,115,5566,1,0,0:3:0:0:
223,72,5566,1,0,0:3:0:0:
267,29,5566,1,0,0:3:0:0:
326,45,5566,1,0,0:3:0:0:
417,179,5566,1,0,0:3:0:0:
433,239,5566,1,0,0:3:0:0:
390,282,5566,1,0,0:3:0:0:
346,325,5566,1,0,0:3:0:0:
303,369,5566,1,0,0:3:0:0:
243,353,5566,1,0,0:3:0:0:
184,337,5566,1,0,0:3:0:0:
504,92,5566,1,0,0:3:0:0:
109,262,5566,1,0,0:3:0:0:
93,203,5566,1,0,0:3:0:0:
67,305,5566,1,0,0:3:0:0:
125,321,5566,1,0,0:3:0:0:
207,13,5566,1,0,0:3:0:0:
121,99,5566,1,0,0:3:0:0:
77,144,5566,1,0,0:3:0:0:
8,290,5566,1,0,0:3:0:0:
35,187,5566,1,0,0:3:0:0:
0,230,5566,1,0,0:3:0:0:
19,128,5566,1,0,0:3:0:0:
90,0,5566,1,0,0:3:0:0:
50,246,5566,1,0,0:3:0:0:
164,56,5566,1,0,0:3:0:0:
63,84,5566,1,0,0:3:0:0:
47,25,5566,1,0,0:3:0:0:
421,400,5566,1,0,0:3:0:0:
105,41,5566,1,0,0:3:0:0:
461,136,5566,1,0,0:3:0:0:
512,152,5566,1,0,0:3:0:0:
445,77,5566,1,0,0:3:0:0:
492,255,5566,1,0,0:3:0:0:
448,298,5566,1,0,0:3:0:0:
149,0,5566,1,0,0:3:0:0:
476,195,5566,1,0,0:3:0:0:
362,385,5566,1,0,0:3:0:0:
406,342,5566,1,0,0:3:0:0:
465,357,5566,1,0,0:3:0:0:
256,192,5777,5,0,0:3:0:0:
405,127,5777,1,0,0:3:0:0:
392,68,5777,1,0,0:3:0:0:
151,213,5777,1,0,0:3:0:0:
197,172,5777,1,0,0:3:0:0:
314,210,5777,1,0,0:3:0:0:
268,251,5777,1,0,0:3:0:0:
301,149,5777,1,0,0:3:0:0:
243,131,5777,1,0,0:3:0:0:
210,232,5777,1,0,0:3:0:0:
289,90,5777,1,0,0:3:0:0:
347,109,5777,1,0,0:3:0:0:
360,169,5777,1,0,0:3:0:0:
372,229,5777,1,0,0:3:0:0:
327,270,5777,1,0,0:3:0:0:
281,311,5777,1,0,0:3:0:0:
223,292,5777,1,0,0:3:0:0:
164,273,5777,1,0,0:3:0:0:
139,153,5777,1,0,0:3:0:0:
184,111,5777,1,0,0:3:0:0:
230,71,5777,1,0,0:3:0:0:
275,30,5777,1,0,0:3:0:0:
333,49,5777,1,0,0:3:0:0:
418,187,5777,1,0,0:3:0:0:
430,248,5777,1,0,0:3:0:0:
385,289,5777,1,0,0:3:0:0:
339,330,5777,1,0,0:3:0:0:
294,371,5777,1,0,0:3:0:0:
235,352,5777,1,0,0:3:0:0:
177,333,5777,1,0,0:3:0:0:
508,105,5777,1,0,0:3:0:0:
106,254,5777,1,0,0:3:0:0:
93,194,5777,1,0,0:3:0:0:
61,295,5777,1,0,0:3:0:0:
118,314,5777,1,0,0:3:0:0:
216,11,5777,1,0,0:3:0:0:
126,93,5777,1,0,0:3:0:0:
80,134,5777,1,0,0:3:0:0:
36,176,5777,1,0,0:3:0:0:
3,277,5777,1,0,0:3:0:0:
0,217,5777,1,0,0:3:0:0:
22,116,5777,1,0,0:3:0:0:
101,0,5777,1,0,0:3:0:0:
48,235,5777,1,0,0:3:0:0:
172,52,5777,1,0,0:3:0:0:
69,74,5777,1,0,0:3:0:0:
56,14,5777,1,0,0:3:0:0:
410,409,5777,1,0,0:3:0:0:
114,33,5777,1,0,0:3:0:0:
464,147,5777,1,0,0:3:0:0:
512,165,5777,1,0,0:3:0:0:
450,87,5777,1,0,0:3:0:0:
489,267,5777,1,0,0:3:0:0:
443,308,5777,1,0,0:3:0:0:
159,0,5777,1,0,0:3:0:0:
476,206,5777,1,0,0:3:0:0:
352,390,5777,1,0,0:3:0:0:
398,349,5777,1,0,0:3:0:0:
456,368,5777,1,0,0:3:0:0:
256,192,5989,5,0,0:3:0:0:
408,135,5989,1,0,0:3:0:0:
399,75,5989,1,0,0:3:0:0:
150,208,5989,1,0,0:3:0:0:
198,169,5989,1,0,0:3:0:0:
312,213,5989,1,0,0:3:0:0:
265,252,5989,1,0,0:3:0:0:
303,152,5989,1,0,0:3:0:0:
246,130,5989,1,0,0:3:0:0:
208,230,5989,1,0,0:3:0:0:
294,92,5989,1,0,0:3:0:0:
351,113,5989,1,0,0:3:0:0:
361,174,5989,1,0,0:3:0:0:
369,235,5989,1,0,0:3:0:0:
322,274,5989,1,0,0:3:0:0:
274,312,5989,1,0,0:3:0:0:
218,290,5989,1,0,0:3:0:0:
160,268,5989,1,0,0:3:0:0:
141,147,5989,1,0,0:3:0:0:
188,108,5989,1,0,0:3:0:0:
236,69,5989,1,0,0:3:0:0:
284,31,5989,1,0,0:3:0:0:
341,53,5989,1,0,0:3:0:0:
418,196,5989,1,0,0:3:0:0:
427,257,5989,1,0,0:3:0:0:
379,296,5989,1,0,0:3:0:0:
331,334,5989,1,0,0:3:0:0:
284,373,5989,1,0,0:3:0:0:
227,351,5989,1,0,0:3:0:0:
170,329,5989,1,0,0:3:0:0:
512,119,5989,1,0,0:3:0:0:
103,246,5989,1,0,0:3:0:0:
93,186,5989,1,0,0:3:0:0:
56,285,5989,1,0,0:3:0:0:
112,307,5989,1,0,0:3:0:0:
226,9,5989,1,0,0:3:0:0:
131,86,5989,1,0,0:3:0:0:
83,125,5989,1,0,0:3:0:0:
0,263,5989,1,0,0:3:0:0:
37,164,5989,1,0,0:3:0:0:
0,203,5989,1,0,0:3:0:0:
27,104,5989,1,0,0:3:0:0:
113,0,5989,1,0,0:3:0:0:
46,225,5989,1,0,0:3:0:0:
179,48,5989,1,0,0:3:0:0:
75,64,5989,1,0,0:3:0:0:
65,4,5989,1,0,0:3:0:0:
398,417,5989,1,0,0:3:0:0:
122,26,5989,1,0,0:3:0:0:
466,158,5989,1,0,0:3:0:0:
512,179,5989,1,0,0:3:0:0:
456,97,5989,1,0,0:3:0:0:
484,279,5989,1,0,0:3:0:0:
436,318,5989,1,0,0:3:0:0:
170,0,5989,1,0,0:3:0:0:
475,218,5989,1,0,0:3:0:0:
341,395,5989,1,0,0:3:0:0:
389,356,5989,1,0,0:3:0:0:
446,378,5989,1,0,0:3:0:0:
256,192,6200,5,0,0:3:0:0:
410,143,6200,1,0,0:3:0:0:
405,83,6200,1,0,0:3:0:0:
149,202,6200,1,0,0:3:0:0:
199,166,6200,1,0,0:3:0:0:
311,216,6200,1,0,0:3:0:0:
261,252,6200,1,0,0:3:0:0:
305,154,6200,1,0,0:3:0:0:
249,130,6200,1,0,0:3:0:0:
206,227,6200,1,0,0:3:0:0:
299,94,6200,1,0,0:3:0:0:
355,119,6200,1,0,0:3:0:0:
362,180,6200,1,0,0:3:0:0:
367,241,6200,1,0,0:3:0:0:
318,277,6200,1,0,0:3:0:0:
268,313,6200,1,0,0:3:0:0:
212,288,6200,1,0,0:3:0:0:
156,263,6200,1,0,0:3:0:0:
143,141,6200,1,0,0:3:0:0:
193,104,6200,1,0,0:3:0:0:
242,69,6200,1,0,0:3:0:0:
292,33,6200,1,0,0:3:0:0:
348,58,6200,1,0,0:3:0:0:
417,204,6200,1,0,0:3:0:0:
424,266,6200,1,0,0:3:0:0:
374,302,6200,1,0,0:3:0:0:
324,338,6200,1,0,0:3:0:0:
275,374,6200,1,0,0:3:0:0:
218,349,6200,1,0,0:3:0:0:
163,324,6200,1,0,0:3:0:0:
512,132,6200,1,0,0:3:0:0:
100,238,6200,1,0,0:3:0:0:
93,177,6200,1,0,0:3:0:0:
51,275,6200,1,0,0:3:0:0:
106,299,6200,1,0,0:3:0:0:
236,8,6200,1,0,0:3:0:0:
137,80,6200,1,0,0:3:0:0:
86,116,6200,1,0,0:3:0:0:
38,153,6200,1,0,0:3:0:0:
0,250,6200,1,0,0:3:0:0:
0,189,6200,1,0,0:3:0:0:
32,92,6200,1,0,0:3:0:0:
125,0,6200,1,0,0:3:0:0:
44,213,6200,1,0,0:3:0:0:
187,44,6200,1,0,0:3:0:0:
82,55,6200,1,0,0:3:0:0:
75,0,6200,1,0,0:3:0:0:
386,424,6200,1,0,0:3:0:0:
131,19,6200,1,0,0:3:0:0:
467,169,6200,1,0,0:3:0:0:
512,193,6200,1,0,0:3:0:0:
460,108,6200,1,0,0:3:0:0:
479,291,6200,1,0,0:3:0:0:
429,327,6200,1,0,0:3:0:0:
181,0,6200,1,0,0:3:0:0:
473,229,6200,1,0,0:3:0:0:
331,399,6200,1,0,0:3:0:0:
380,363,6200,1,0,0:3:0:0:
436,388,6200,1,0,0:3:0:0:
256,192,6411,5,0,0:3:0:0:
413,152,6411,1,0,0:3:0:0:
410,91,6411,1,0,0:3:0:0:
149,197,6411,1,0,0:3:0:0:
200,163,6411,1,0,0:3:0:0:
310,219,6411,1,0,0:3:0:0:
258,252,6411,1,0,0:3:0:0:
307,157,6411,1,0,0:3:0:0:
252,129,6411,1,0,0:3:0:0:
204,225,6411,1,0,0:3:0:0:
304,96,6411,1,0,0:3:0:0:
358,124,6411,1,0,0:3:0:0:
362,185,6411,1,0,0:3:0:0:
364,247,6411,1,0,0:3:0:0:
313,280,6411,1,0,0:3:0:0:
262,314,6411,1,0,0:3:0:0:
207,286,6411,1,0,0:3:0:0:
152,258,6411,1,0,0:3:0:0:
146,136,6411,1,0,0:3:0:0:
197,101,6411,1,0,0:3:0:0:
249,68,6411,1,0,0:3:0:0:
301,35,6411,1,0,0:3:0:0:
355,63,6411,1,0,0:3:0:0:
416,213,6411,1,0,0:3:0:0:
419,275,6411,1,0,0:3:0:0:
368,308,6411,1,0,0:3:0:0:
316,341,6411,1,0,0:3:0:0:
265,375,6411,1,0,0:3:0:0:
210,347,6411,1,0,0:3:0:0:
156,319,6411,1,0,0:3:0:0:
512,146,6411,1,0,0:3:0:0:
98,230,6411,1,0,0:3:0:0:
94,169,6411,1,0,0:3:0:0:
47,264,6411,1,0,0:3:0:0:
100,291,6411,1,0,0:3:0:0:
245,7,6411,1,0,0:3:0:0:
143,73,6411,1,0,0:3:0:0:
91,108,6411,1,0,0:3:0:0:
0,236,6411,1,0,0:3:0:0:
41,142,6411,1,0,0:3:0:0:
0,175,6411,1,0,0:3:0:0:
37,80,6411,1,0,0:3:0:0:
137,0,6411,1,0,0:3:0:0:
43,202,6411,1,0,0:3:0:0:
194,40,6411,1,0,0:3:0:0:
89,46,6411,1,0,0:3:0:0:
86,0,6411,1,0,0:3:0:0:
374,430,6411,1,0,0:3:0:0:
140,13,6411,1,0,0:3:0:0:
468,180,6411,1,0,0:3:0:0:
512,207,6411,1,0,0:3:0:0:
464,118,6411,1,0,0:3:0:0:
474,303,6411,1,0,0:3:0:0:
422,336,6411,1,0,0:3:0:0:
192,0,6411,1,0,0:3:0:0:
471,241,6411,1,0,0:3:0:0:
320,403,6411,1,0,0:3:0:0:
371,369,6411,1,0,0:3:0:0:
426,397,6411,1,0,0:3:0:0:
256,192,6622,5,0,0:3:0:0:
415,160,6622,1,0,0:3:0:0:
415,99,6622,1,0,0:3:0:0:
148,191,6622,1,0,0:3:0:0:
202,161,6622,1,0,0:3:0:0:
308,222,6622,1,0,0:3:0:0:
255,252,6622,1,0,0:3:0:0:
308,160,6622,1,0,0:3:0:0:
256,129,6622,1,0,0:3:0:0:
202,222,6622,1,0,0:3:0:0:
309,99,6622,1,0,0:3:0:0:
362,129,6622,1,0,0:3:0:0:
362,191,6622,1,0,0:3:0:0:
361,253,6622,1,0,0:3:0:0:
309,283,6622,1,0,0:3:0:0:
255,314,6622,1,0,0:3:0:0:
203,283,6622,1,0,0:3:0:0:
149,252,6622,1,0,0:3:0:0:
149,130,6622,1,0,0:3:0:0:
202,98,6622,1,0,0:3:0:0:
255,68,6622,1,0,0:3:0:0:
309,37,6622,1,0,0:3:0:0:
361,68,6622,1,0,0:3:0:0:
415,221,6622,1,0,0:3:0:0:
415,284,6622,1,0,0:3:0:0:
362,314,6622,1,0,0:3:0:0:
308,344,6622,1,0,0:3:0:0:
256,375,6622,1,0,0:3:0:0:
202,344,6622,1,0,0:3:0:0:
149,314,6622,1,0,0:3:0:0:
512,160,6622,1,0,0:3:0:0:
96,222,6622,1,0,0:3:0:0:
96,160,6622,1,0,0:3:0:0:
43,253,6622,1,0,0:3:0:0:
95,283,6622,1,0,0:3:0:0:
255,6,6622,1,0,0:3:0:0:
149,68,6622,1,0,0:3:0:0:
95,99,6622,1,0,0:3:0:0:
44,130,6622,1,0,0:3:0:0:
0,222,6622,1,0,0:3:0:0:
0,161,6622,1,0,0:3:0:0:
43,69,6622,1,0,0:3:0:0:
150,0,6622,1,0,0:3:0:0:
43,191,6622,1,0,0:3:0:0:
202,37,6622,1,0,0:3:0:0:
97,38,6622,1,0,0:3:0:0:
97,0,6622,1,0,0:3:0:0:
361,436,6622,1,0,0:3:0:0:
150,7,6622,1,0,0:3:0:0:
468,191,6622,1,0,0:3:0:0:
512,221,6622,1,0,0:3:0:0:
468,129,6622,1,0,0:3:0:0:
468,314,6622,1,0,0:3:0:0:
414,344,6622,1,0,0:3:0:0:
203,0,6622,1,0,0:3:0:0:
468,252,6622,1,0,0:3:0:0:
309,406,6622,1,0,0:3:0:0:
362,375,6622,1,0,0:3:0:0:
415,406,6622,1,0,0:3:0:0:
256,192,6834,5,0,0:3:0:0:
415,160,6834,1,0,0:3:0:0:
415,99,6834,1,0,0:3:0:0:
148,191,6834,1,0,0:3:0:0:
202,161,6834,1,0,0:3:0:0:
308,222,6834,1,0,0:3:0:0:
255,252,6834,1,0,0:3:0:0:
308,160,6834,1,0,0:3:0:0:
256,129,6834,1,0,0:3:0:0:
202,222,6834,1,0,0:3:0:0:
309,99,6834,1,0,0:3:0:0:
362,129,6834,1,0,0:3:0:0:
362,191,6834,1,0,0:3:0:0:
361,253,6834,1,0,0:3:0:0:
309,283,6834,1,0,0:3:0:0:
255,314,6834,1,0,0:3:0:0:
203,283,6834,1,0,0:3:0:0:
149,252,6834,1,0,0:3:0:0:
149,130,6834,1,0,0:3:0:0:
202,98,6834,1,0,0:3:0:0:
255,68,6834,1,0,0:3:0:0:
309,37,6834,1,0,0:3:0:0:
361,68,6834,1,0,0:3:0:0:
415,221,6834,1,0,0:3:0:0:
415,284,6834,1,0,0:3:0:0:
362,314,6834,1,0,0:3:0:0:
308,344,6834,1,0,0:3:0:0:
256,375,6834,1,0,0:3:0:0:
202,344,6834,1,0,0:3:0:0:
149,314,6834,1,0,0:3:0:0:
512,160,6834,1,0,0:3:0:0:
96,222,6834,1,0,0:3:0:0:
96,160,6834,1,0,0:3:0:0:
43,253,6834,1,0,0:3:0:0:
95,283,6834,1,0,0:3:0:0:
255,6,6834,1,0,0:3:0:0:
149,68,6834,1,0,0:3:0:0:
95,99,6834,1,0,0:3:0:0:
44,130,6834,1,0,0:3:0:0:
0,222,6834,1,0,0:3:0:0:
0,161,6834,1,0,0:3:0:0:
43,69,6834,1,0,0:3:0:0:
150,0,6834,1,0,0:3:0:0:
43,191,6834,1,0,0:3:0:0:
202,37,6834,1,0,0:3:0:0:
97,38,6834,1,0,0:3:0:0:
97,0,6834,1,0,0:3:0:0:
361,436,6834,1,0,0:3:0:0:
150,7,6834,1,0,0:3:0:0:
468,191,6834,1,0,0:3:0:0:
512,221,6834,1,0,0:3:0:0:
468,129,6834,1,0,0:3:0:0:
468,314,6834,1,0,0:3:0:0:
414,344,6834,1,0,0:3:0:0:
203,0,6834,1,0,0:3:0:0:
468,252,6834,1,0,0:3:0:0:
309,406,6834,1,0,0:3:0:0:
362,375,6834,1,0,0:3:0:0:
415,406,6834,1,0,0:3:0:0:
256,192,7045,5,0,0:3:0:0:
0,222,7045,1,0,0:3:0:0:
44,130,7045,1,0,0:3:0:0:
95,99,7045,1,0,0:3:0:0:
0,161,7045,1,0,0:3:0:0:
43,191,7045,1,0,0:3:0:0:
150,0,7045,1,0,0:3:0:0:
43,69,7045,1,0,0:3:0:0:
96,160,7045,1,0,0:3:0:0:
96,222,7045,1,0,0:3:0:0:
512,160,7045,1,0,0:3:0:0:
43,253,7045,1,0,0:3:0:0:
149,68,7045,1,0,0:3:0:0:
255,6,7045,1,0,0:3:0:0:
95,283,7045,1,0,0:3:0:0:
202,37,7045,1,0,0:3:0:0:
203,0,7045,1,0,0:3:0:0:
414,344,7045,1,0,0:3:0:0:
468,314,7045,1,0,0:3:0:0:
468,252,7045,1,0,0:3:0:0:
415,406,7045,1,0,0:3:0:0:
362,375,7045,1,0,0:3:0:0:
309,406,7045,1,0,0:3:0:0:
361,436,7045,1,0,0:3:0:0:
97,0,7045,1,0,0:3:0:0:
97,38,7045,1,0,0:3:0:0:
150,7,7045,1,0,0:3:0:0:
468,129,7045,1,0,0:3:0:0:
512,221,7045,1,0,0:3:0:0:
468,191,7045,1,0,0:3:0:0:
149,314,7045,1,0,0:3:0:0:
202,222,7045,1,0,0:3:0:0:
256,129,7045,1,0,0:3:0:0:
308,160,7045,1,0,0:3:0:0:
309,99,7045,1,0,0:3:0:0:
361,253,7045,1,0,0:3:0:0:
362,191,7045,1,0,0:3:0:0:
362,129,7045,1,0,0:3:0:0:
415,99,7045,1,0,0:3:0:0:
415,160,7045,1,0,0:3:0:0:
148,191,7045,1,0,0:3:0:0:
255,252,7045,1,0,0:3:0:0:
308,222,7045,1,0,0:3:0:0:
202,161,7045,1,0,0:3:0:0:
309,283,7045,1,0,0:3:0:0:
415,284,7045,1,0,0:3:0:0:
415,221,7045,1,0,0:3:0:0:
361,68,7045,1,0,0:3:0:0:
362,314,7045,1,0,0:3:0:0:
202,344,7045,1,0,0:3:0:0:
256,375,7045,1,0,0:3:0:0:
308,344,7045,1,0,0:3:0:0:
149,252,7045,1,0,0:3:0:0:
203,283,7045,1,0,0:3:0:0:
255,314,7045,1,0,0:3:0:0:
149,130,7045,1,0,0:3:0:0:
309,37,7045,1,0,0:3:0:0:
255,68,7045,1,0,0:3:0:0:
202,98,7045,1,0,0:3:0:0:
256,192,7890,5,0,0:0:0:0:
42,351,7890,1,0,0:0:0:0:
42,245,7890,1,0,0:0:0:0:
11,298,7890,1,0,0:0:0:0:
72,298,7890,1,0,0:0:0:0:
42,32,7890,1,0,0:0:0:0:
11,192,7890,1,0,0:0:0:0:
103,351,7890,1,0,0:0:0:0:
102,245,7890,1,0,0:0:0:0:
133,298,7890,1,0,0:0:0:0:
163,351,7890,1,0,0:0:0:0:
71,192,7890,1,0,0:0:0:0:
102,138,7890,1,0,0:0:0:0:
163,32,7890,1,0,0:0:0:0:
133,85,7890,1,0,0:0:0:0:
103,32,7890,1,0,0:0:0:0:
470,245,7890,1,0,0:0:0:0:
501,192,7890,1,0,0:0:0:0:
470,138,7890,1,0,0:0:0:0:
501,298,7890,1,0,0:0:0:0:
440,298,7890,1,0,0:0:0:0:
409,351,7890,1,0,0:0:0:0:
470,351,7890,1,0,0:0:0:0:
11,85,7890,1,0,0:0:0:0:
42,138,7890,1,0,0:0:0:0:
72,85,7890,1,0,0:0:0:0:
409,32,7890,1,0,0:0:0:0:
501,85,7890,1,0,0:0:0:0:
440,85,7890,1,0,0:0:0:0:
470,32,7890,1,0,0:0:0:0:
225,351,7890,1,0,0:0:0:0:
225,245,7890,1,0,0:0:0:0:
225,138,7890,1,0,0:0:0:0:
286,138,7890,1,0,0:0:0:0:
256,85,7890,1,0,0:0:0:0:
378,192,7890,1,0,0:0:0:0:
348,138,7890,1,0,0:0:0:0:
317,85,7890,1,0,0:0:0:0:
348,32,7890,1,0,0:0:0:0:
378,85,7890,1,0,0:0:0:0:
163,245,7890,1,0,0:0:0:0:
286,245,7890,1,0,0:0:0:0:
317,192,7890,1,0,0:0:0:0:
194,192,7890,1,0,0:0:0:0:
348,245,7890,1,0,0:0:0:0:
440,192,7890,1,0,0:0:0:0:
409,138,7890,1,0,0:0:0:0:
286,32,7890,1,0,0:0:0:0:
409,245,7890,1,0,0:0:0:0:
286,351,7890,1,0,0:0:0:0:
348,351,7890,1,0,0:0:0:0:
378,298,7890,1,0,0:0:0:0:
194,298,7890,1,0,0:0:0:0:
256,298,7890,1,0,0:0:0:0:
317,298,7890,1,0,0:0:0:0:
133,192,7890,1,0,0:0:0:0:
225,32,7890,1,0,0:0:0:0:
194,85,7890,1,0,0:0:0:0:
163,138,7890,1,0,0:0:0:0:
256,192,8101,5,0,0:0:0:0:
56,369,8101,1,0,0:0:0:0:
47,263,8101,1,0,0:0:0:0:
21,318,8101,1,0,0:0:0:0:
81,313,8101,1,0,0:0:0:0:
28,51,8101,1,0,0:0:0:0:
11,213,8101,1,0,0:0:0:0:
117,363,8101,1,0,0:0:0:0:
107,258,8101,1,0,0:0:0:0:
142,308,8101,1,0,0:0:0:0:
177,358,8101,1,0,0:0:0:0:
71,208,8101,1,0,0:0:0:0:
97,151,8101,1,0,0:0:0:0:
149,40,8101,1,0,0:0:0:0:
124,96,8101,1,0,0:0:0:0:
89,45,8101,1,0,0:0:0:0:
473,226,8101,1,0,0:0:0:0:
500,170,8101,1,0,0:0:0:0:
464,119,8101,1,0,0:0:0:0:
509,276,8101,1,0,0:0:0:0:
448,281,8101,1,0,0:0:0:0:
422,337,8101,1,0,0:0:0:0:
483,331,8101,1,0,0:0:0:0:
2,106,8101,1,0,0:0:0:0:
38,156,8101,1,0,0:0:0:0:
63,101,8101,1,0,0:0:0:0:
394,19,8101,1,0,0:0:0:0:
490,64,8101,1,0,0:0:0:0:
429,69,8101,1,0,0:0:0:0:
455,13,8101,1,0,0:0:0:0:
238,353,8101,1,0,0:0:0:0:
229,247,8101,1,0,0:0:0:0:
220,140,8101,1,0,0:0:0:0:
281,135,8101,1,0,0:0:0:0:
246,85,8101,1,0,0:0:0:0:
377,181,8101,1,0,0:0:0:0:
342,130,8101,1,0,0:0:0:0:
307,80,8101,1,0,0:0:0:0:
368,74,8101,1,0,0:0:0:0:
333,24,8101,1,0,0:0:0:0:
167,252,8101,1,0,0:0:0:0:
290,242,8101,1,0,0:0:0:0:
316,186,8101,1,0,0:0:0:0:
194,197,8101,1,0,0:0:0:0:
352,236,8101,1,0,0:0:0:0:
439,175,8101,1,0,0:0:0:0:
403,124,8101,1,0,0:0:0:0:
271,29,8101,1,0,0:0:0:0:
413,231,8101,1,0,0:0:0:0:
299,347,8101,1,0,0:0:0:0:
361,342,8101,1,0,0:0:0:0:
386,286,8101,1,0,0:0:0:0:
203,303,8101,1,0,0:0:0:0:
265,297,8101,1,0,0:0:0:0:
326,292,8101,1,0,0:0:0:0:
133,202,8101,1,0,0:0:0:0:
211,35,8101,1,0,0:0:0:0:
184,90,8101,1,0,0:0:0:0:
158,146,8101,1,0,0:0:0:0:
256,192,8312,5,0,0:0:0:0:
72,385,8312,1,0,0:0:0:0:
54,281,8312,1,0,0:0:0:0:
33,338,8312,1,0,0:0:0:0:
93,328,8312,1,0,0:0:0:0:
17,71,8312,1,0,0:0:0:0:
14,234,8312,1,0,0:0:0:0:
132,375,8312,1,0,0:0:0:0:
113,270,8312,1,0,0:0:0:0:
153,317,8312,1,0,0:0:0:0:
192,364,8312,1,0,0:0:0:0:
73,224,8312,1,0,0:0:0:0:
94,165,8312,1,0,0:0:0:0:
136,50,8312,1,0,0:0:0:0:
116,107,8312,1,0,0:0:0:0:
77,60,8312,1,0,0:0:0:0:
475,207,8312,1,0,0:0:0:0:
497,149,8312,1,0,0:0:0:0:
457,101,8312,1,0,0:0:0:0:
512,253,8312,1,0,0:0:0:0:
455,264,8312,1,0,0:0:0:0:
434,322,8312,1,0,0:0:0:0:
494,311,8312,1,0,0:0:0:0:
0,129,8312,1,0,0:0:0:0:
35,175,8312,1,0,0:0:0:0:
56,118,8312,1,0,0:0:0:0:
378,7,8312,1,0,0:0:0:0:
478,44,8312,1,0,0:0:0:0:
418,54,8312,1,0,0:0:0:0:
438,0,8312,1,0,0:0:0:0:
253,353,8312,1,0,0:0:0:0:
234,249,8312,1,0,0:0:0:0:
216,144,8312,1,0,0:0:0:0:
276,133,8312,1,0,0:0:0:0:
237,86,8312,1,0,0:0:0:0:
376,170,8312,1,0,0:0:0:0:
337,122,8312,1,0,0:0:0:0:
297,76,8312,1,0,0:0:0:0:
318,18,8312,1,0,0:0:0:0:
357,65,8312,1,0,0:0:0:0:
173,260,8312,1,0,0:0:0:0:
294,238,8312,1,0,0:0:0:0:
316,181,8312,1,0,0:0:0:0:
194,202,8312,1,0,0:0:0:0:
355,228,8312,1,0,0:0:0:0:
437,160,8312,1,0,0:0:0:0:
397,112,8312,1,0,0:0:0:0:
257,29,8312,1,0,0:0:0:0:
415,217,8312,1,0,0:0:0:0:
313,343,8312,1,0,0:0:0:0:
374,332,8312,1,0,0:0:0:0:
394,275,8312,1,0,0:0:0:0:
213,307,8312,1,0,0:0:0:0:
274,296,8312,1,0,0:0:0:0:
334,285,8312,1,0,0:0:0:0:
134,213,8312,1,0,0:0:0:0:
197,39,8312,1,0,0:0:0:0:
176,97,8312,1,0,0:0:0:0:
155,154,8312,1,0,0:0:0:0:
256,192,8524,5,0,0:0:0:0:
90,400,8524,1,0,0:0:0:0:
63,298,8524,1,0,0:0:0:0:
46,357,8524,1,0,0:0:0:0:
105,342,8524,1,0,0:0:0:0:
7,92,8524,1,0,0:0:0:0:
19,255,8524,1,0,0:0:0:0:
149,385,8524,1,0,0:0:0:0:
120,283,8524,1,0,0:0:0:0:
164,326,8524,1,0,0:0:0:0:
207,369,8524,1,0,0:0:0:0:
77,239,8524,1,0,0:0:0:0:
93,179,8524,1,0,0:0:0:0:
124,61,8524,1,0,0:0:0:0:
109,120,8524,1,0,0:0:0:0:
66,77,8524,1,0,0:0:0:0:
476,187,8524,1,0,0:0:0:0:
492,128,8524,1,0,0:0:0:0:
448,84,8524,1,0,0:0:0:0:
512,230,8524,1,0,0:0:0:0:
461,246,8524,1,0,0:0:0:0:
444,305,8524,1,0,0:0:0:0:
503,290,8524,1,0,0:0:0:0:
0,152,8524,1,0,0:0:0:0:
35,195,8524,1,0,0:0:0:0:
50,136,8524,1,0,0:0:0:0:
362,0,8524,1,0,0:0:0:0:
464,25,8524,1,0,0:0:0:0:
406,41,8524,1,0,0:0:0:0:
421,0,8524,1,0,0:0:0:0:
267,353,8524,1,0,0:0:0:0:
239,251,8524,1,0,0:0:0:0:
212,147,8524,1,0,0:0:0:0:
271,132,8524,1,0,0:0:0:0:
228,88,8524,1,0,0:0:0:0:
373,160,8524,1,0,0:0:0:0:
330,116,8524,1,0,0:0:0:0:
287,72,8524,1,0,0:0:0:0:
346,57,8524,1,0,0:0:0:0:
303,13,8524,1,0,0:0:0:0:
179,267,8524,1,0,0:0:0:0:
298,235,8524,1,0,0:0:0:0:
314,176,8524,1,0,0:0:0:0:
196,208,8524,1,0,0:0:0:0:
358,219,8524,1,0,0:0:0:0:
433,144,8524,1,0,0:0:0:0:
389,100,8524,1,0,0:0:0:0:
243,29,8524,1,0,0:0:0:0:
417,203,8524,1,0,0:0:0:0:
326,337,8524,1,0,0:0:0:0:
386,321,8524,1,0,0:0:0:0:
401,262,8524,1,0,0:0:0:0:
223,310,8524,1,0,0:0:0:0:
283,294,8524,1,0,0:0:0:0:
342,278,8524,1,0,0:0:0:0:
137,223,8524,1,0,0:0:0:0:
184,45,8524,1,0,0:0:0:0:
168,104,8524,1,0,0:0:0:0:
152,163,8524,1,0,0:0:0:0:
256,192,8735,5,0,0:0:0:0:
109,414,8735,1,0,0:0:0:0:
73,314,8735,1,0,0:0:0:0:
62,375,8735,1,0,0:0:0:0:
119,354,8735,1,0,0:0:0:0:
0,114,8735,1,0,0:0:0:0:
25,275,8735,1,0,0:0:0:0:
166,393,8735,1,0,0:0:0:0:
129,294,8735,1,0,0:0:0:0:
176,333,8735,1,0,0:0:0:0:
222,373,8735,1,0,0:0:0:0:
82,255,8735,1,0,0:0:0:0:
92,193,8735,1,0,0:0:0:0:
113,73,8735,1,0,0:0:0:0:
103,133,8735,1,0,0:0:0:0:
57,93,8735,1,0,0:0:0:0:
475,168,8735,1,0,0:0:0:0:
486,108,8735,1,0,0:0:0:0:
438,68,8735,1,0,0:0:0:0:
512,207,8735,1,0,0:0:0:0:
465,228,8735,1,0,0:0:0:0:
454,289,8735,1,0,0:0:0:0:
511,268,8735,1,0,0:0:0:0:
0,175,8735,1,0,0:0:0:0:
36,214,8735,1,0,0:0:0:0:
46,154,8735,1,0,0:0:0:0:
345,0,8735,1,0,0:0:0:0:
449,7,8735,1,0,0:0:0:0:
392,28,8735,1,0,0:0:0:0:
402,0,8735,1,0,0:0:0:0:
281,352,8735,1,0,0:0:0:0:
244,252,8735,1,0,0:0:0:0:
208,151,8735,1,0,0:0:0:0:
265,130,8735,1,0,0:0:0:0:
219,91,8735,1,0,0:0:0:0:
370,150,8735,1,0,0:0:0:0:
323,109,8735,1,0,0:0:0:0:
276,70,8735,1,0,0:0:0:0:
287,10,8735,1,0,0:0:0:0:
334,49,8735,1,0,0:0:0:0:
186,273,8735,1,0,0:0:0:0:
302,231,8735,1,0,0:0:0:0:
313,171,8735,1,0,0:0:0:0:
197,213,8735,1,0,0:0:0:0:
360,210,8735,1,0,0:0:0:0:
428,129,8735,1,0,0:0:0:0:
381,88,8735,1,0,0:0:0:0:
229,31,8735,1,0,0:0:0:0:
417,189,8735,1,0,0:0:0:0:
338,331,8735,1,0,0:0:0:0:
396,309,8735,1,0,0:0:0:0:
406,249,8735,1,0,0:0:0:0:
233,312,8735,1,0,0:0:0:0:
292,291,8735,1,0,0:0:0:0:
349,270,8735,1,0,0:0:0:0:
140,234,8735,1,0,0:0:0:0:
172,52,8735,1,0,0:0:0:0:
161,112,8735,1,0,0:0:0:0:
150,173,8735,1,0,0:0:0:0:
256,192,8946,5,0,0:0:0:0:
129,426,8946,1,0,0:0:0:0:
84,330,8946,1,0,0:0:0:0:
78,391,8946,1,0,0:0:0:0:
134,365,8946,1,0,0:0:0:0:
0,137,8946,1,0,0:0:0:0:
33,295,8946,1,0,0:0:0:0:
184,400,8946,1,0,0:0:0:0:
138,305,8946,1,0,0:0:0:0:
189,340,8946,1,0,0:0:0:0:
238,375,8946,1,0,0:0:0:0:
88,270,8946,1,0,0:0:0:0:
93,208,8946,1,0,0:0:0:0:
104,86,8946,1,0,0:0:0:0:
99,147,8946,1,0,0:0:0:0:
49,111,8946,1,0,0:0:0:0:
472,149,8946,1,0,0:0:0:0:
478,88,8946,1,0,0:0:0:0:
427,52,8946,1,0,0:0:0:0:
512,184,8946,1,0,0:0:0:0:
467,210,8946,1,0,0:0:0:0:
461,271,8946,1,0,0:0:0:0:
512,245,8946,1,0,0:0:0:0:
0,198,8946,1,0,0:0:0:0:
39,233,8946,1,0,0:0:0:0:
44,172,8946,1,0,0:0:0:0:
327,0,8946,1,0,0:0:0:0:
432,0,8946,1,0,0:0:0:0:
377,17,8946,1,0,0:0:0:0:
382,0,8946,1,0,0:0:0:0:
295,349,8946,1,0,0:0:0:0:
250,253,8946,1,0,0:0:0:0:
205,156,8946,1,0,0:0:0:0:
260,130,8946,1,0,0:0:0:0:
210,95,8946,1,0,0:0:0:0:
366,140,8946,1,0,0:0:0:0:
316,104,8946,1,0,0:0:0:0:
266,69,8946,1,0,0:0:0:0:
321,43,8946,1,0,0:0:0:0:
271,8,8946,1,0,0:0:0:0:
194,279,8946,1,0,0:0:0:0:
305,227,8946,1,0,0:0:0:0:
311,166,8946,1,0,0:0:0:0:
199,218,8946,1,0,0:0:0:0:
361,201,8946,1,0,0:0:0:0:
422,114,8946,1,0,0:0:0:0:
371,78,8946,1,0,0:0:0:0:
215,34,8946,1,0,0:0:0:0:
417,175,8946,1,0,0:0:0:0:
350,323,8946,1,0,0:0:0:0:
406,297,8946,1,0,0:0:0:0:
411,236,8946,1,0,0:0:0:0:
244,314,8946,1,0,0:0:0:0:
300,288,8946,1,0,0:0:0:0:
356,262,8946,1,0,0:0:0:0:
144,243,8946,1,0,0:0:0:0:
160,60,8946,1,0,0:0:0:0:
154,121,8946,1,0,0:0:0:0:
148,182,8946,1,0,0:0:0:0:
256,192,9158,5,0,0:0:0:0:
150,436,9158,1,0,0:0:0:0:
97,344,9158,1,0,0:0:0:0:
96,406,9158,1,0,0:0:0:0:
149,375,9158,1,0,0:0:0:0:
0,160,9158,1,0,0:0:0:0:
43,314,9158,1,0,0:0:0:0:
202,406,9158,1,0,0:0:0:0:
149,314,9158,1,0,0:0:0:0:
202,345,9158,1,0,0:0:0:0:
254,376,9158,1,0,0:0:0:0:
95,284,9158,1,0,0:0:0:0:
95,222,9158,1,0,0:0:0:0:
95,99,9158,1,0,0:0:0:0:
95,160,9158,1,0,0:0:0:0:
43,129,9158,1,0,0:0:0:0:
467,130,9158,1,0,0:0:0:0:
468,69,9158,1,0,0:0:0:0:
414,38,9158,1,0,0:0:0:0:
512,161,9158,1,0,0:0:0:0:
468,191,9158,1,0,0:0:0:0:
468,253,9158,1,0,0:0:0:0:
512,222,9158,1,0,0:0:0:0:
0,221,9158,1,0,0:0:0:0:
43,252,9158,1,0,0:0:0:0:
43,191,9158,1,0,0:0:0:0:
308,0,9158,1,0,0:0:0:0:
414,0,9158,1,0,0:0:0:0:
361,7,9158,1,0,0:0:0:0:
361,0,9158,1,0,0:0:0:0:
308,345,9158,1,0,0:0:0:0:
255,253,9158,1,0,0:0:0:0:
202,160,9158,1,0,0:0:0:0:
254,130,9158,1,0,0:0:0:0:
202,99,9158,1,0,0:0:0:0:
361,130,9158,1,0,0:0:0:0:
308,99,9158,1,0,0:0:0:0:
255,68,9158,1,0,0:0:0:0:
255,7,9158,1,0,0:0:0:0:
308,38,9158,1,0,0:0:0:0:
201,284,9158,1,0,0:0:0:0:
308,222,9158,1,0,0:0:0:0:
308,161,9158,1,0,0:0:0:0:
202,223,9158,1,0,0:0:0:0:
362,191,9158,1,0,0:0:0:0:
415,100,9158,1,0,0:0:0:0:
361,68,9158,1,0,0:0:0:0:
201,38,9158,1,0,0:0:0:0:
415,161,9158,1,0,0:0:0:0:
361,314,9158,1,0,0:0:0:0:
415,283,9158,1,0,0:0:0:0:
414,222,9158,1,0,0:0:0:0:
255,314,9158,1,0,0:0:0:0:
308,283,9158,1,0,0:0:0:0:
361,253,9158,1,0,0:0:0:0:
149,253,9158,1,0,0:0:0:0:
149,68,9158,1,0,0:0:0:0:
148,130,9158,1,0,0:0:0:0:
148,191,9158,1,0,0:0:0:0:
256,192,9369,5,0,0:0:0:0:
171,444,9369,1,0,0:0:0:0:
111,358,9369,1,0,0:0:0:0:
116,419,9369,1,0,0:0:0:0:
166,384,9369,1,0,0:0:0:0:
0,183,9369,1,0,0:0:0:0:
55,332,9369,1,0,0:0:0:0:
221,410,9369,1,0,0:0:0:0:
160,323,9369,1,0,0:0:0:0:
216,349,9369,1,0,0:0:0:0:
271,375,9369,1,0,0:0:0:0:
104,298,9369,1,0,0:0:0:0:
98,236,9369,1,0,0:0:0:0:
88,114,9369,1,0,0:0:0:0:
93,174,9369,1,0,0:0:0:0:
38,148,9369,1,0,0:0:0:0:
461,112,9369,1,0,0:0:0:0:
456,51,9369,1,0,0:0:0:0:
400,25,9369,1,0,0:0:0:0:
512,138,9369,1,0,0:0:0:0:
467,173,9369,1,0,0:0:0:0:
472,234,9369,1,0,0:0:0:0:
512,199,9369,1,0,0:0:0:0:
0,244,9369,1,0,0:0:0:0:
49,270,9369,1,0,0:0:0:0:
43,209,9369,1,0,0:0:0:0:
289,0,9369,1,0,0:0:0:0:
395,0,9369,1,0,0:0:0:0:
345,0,9369,1,0,0:0:0:0:
339,0,9369,1,0,0:0:0:0:
321,340,9369,1,0,0:0:0:0:
261,253,9369,1,0,0:0:0:0:
199,165,9369,1,0,0:0:0:0:
249,130,9369,1,0,0:0:0:0:
194,104,9369,1,0,0:0:0:0:
355,122,9369,1,0,0:0:0:0:
300,94,9369,1,0,0:0:0:0:
244,69,9369,1,0,0:0:0:0:
294,34,9369,1,0,0:0:0:0:
239,8,9369,1,0,0:0:0:0:
210,288,9369,1,0,0:0:0:0:
310,218,9369,1,0,0:0:0:0:
305,157,9369,1,0,0:0:0:0:
205,227,9369,1,0,0:0:0:0:
361,182,9369,1,0,0:0:0:0:
406,86,9369,1,0,0:0:0:0:
350,60,9369,1,0,0:0:0:0:
188,43,9369,1,0,0:0:0:0:
411,147,9369,1,0,0:0:0:0:
371,305,9369,1,0,0:0:0:0:
422,269,9369,1,0,0:0:0:0:
416,208,9369,1,0,0:0:0:0:
266,314,9369,1,0,0:0:0:0:
316,278,9369,1,0,0:0:0:0:
366,243,9369,1,0,0:0:0:0:
155,262,9369,1,0,0:0:0:0:
138,78,9369,1,0,0:0:0:0:
143,139,9369,1,0,0:0:0:0:
148,201,9369,1,0,0:0:0:0:
256,192,9580,5,0,0:0:0:0:
194,451,9580,1,0,0:0:0:0:
126,370,9580,1,0,0:0:0:0:
136,430,9580,1,0,0:0:0:0:
183,391,9580,1,0,0:0:0:0:
0,206,9580,1,0,0:0:0:0:
68,349,9580,1,0,0:0:0:0:
240,412,9580,1,0,0:0:0:0:
172,331,9580,1,0,0:0:0:0:
229,352,9580,1,0,0:0:0:0:
286,373,9580,1,0,0:0:0:0:
114,310,9580,1,0,0:0:0:0:
103,249,9580,1,0,0:0:0:0:
81,129,9580,1,0,0:0:0:0:
92,189,9580,1,0,0:0:0:0:
35,167,9580,1,0,0:0:0:0:
454,95,9580,1,0,0:0:0:0:
443,34,9580,1,0,0:0:0:0:
385,13,9580,1,0,0:0:0:0:
511,115,9580,1,0,0:0:0:0:
465,154,9580,1,0,0:0:0:0:
475,215,9580,1,0,0:0:0:0:
512,176,9580,1,0,0:0:0:0:
0,267,9580,1,0,0:0:0:0:
57,288,9580,1,0,0:0:0:0:
46,228,9580,1,0,0:0:0:0:
270,0,9580,1,0,0:0:0:0:
374,0,9580,1,0,0:0:0:0:
328,0,9580,1,0,0:0:0:0:
317,0,9580,1,0,0:0:0:0:
334,333,9580,1,0,0:0:0:0:
266,252,9580,1,0,0:0:0:0:
197,170,9580,1,0,0:0:0:0:
244,131,9580,1,0,0:0:0:0:
187,110,9580,1,0,0:0:0:0:
349,113,9580,1,0,0:0:0:0:
291,91,9580,1,0,0:0:0:0:
233,70,9580,1,0,0:0:0:0:
223,10,9580,1,0,0:0:0:0:
280,31,9580,1,0,0:0:0:0:
218,292,9580,1,0,0:0:0:0:
313,213,9580,1,0,0:0:0:0:
302,152,9580,1,0,0:0:0:0:
208,231,9580,1,0,0:0:0:0:
360,173,9580,1,0,0:0:0:0:
396,73,9580,1,0,0:0:0:0:
338,52,9580,1,0,0:0:0:0:
176,50,9580,1,0,0:0:0:0:
407,134,9580,1,0,0:0:0:0:
381,294,9580,1,0,0:0:0:0:
428,254,9580,1,0,0:0:0:0:
417,194,9580,1,0,0:0:0:0:
276,313,9580,1,0,0:0:0:0:
324,273,9580,1,0,0:0:0:0:
370,233,9580,1,0,0:0:0:0:
161,271,9580,1,0,0:0:0:0:
129,89,9580,1,0,0:0:0:0:
139,149,9580,1,0,0:0:0:0:
150,210,9580,1,0,0:0:0:0:
256,192,10003,5,0,0:0:0:0:
95,167,10003,1,0,0:0:0:0:
74,224,10003,1,0,0:0:0:0:
134,214,10003,1,0,0:0:0:0:
356,229,10003,1,0,0:0:0:0:
295,239,10003,1,0,0:0:0:0:
216,145,10003,1,0,0:0:0:0:
277,134,10003,1,0,0:0:0:0:
234,250,10003,1,0,0:0:0:0:
316,181,10003,1,0,0:0:0:0:
397,113,10003,1,0,0:0:0:0:
195,203,10003,1,0,0:0:0:0:
155,156,10003,1,0,0:0:0:0:
177,98,10003,1,0,0:0:0:0:
174,260,10003,1,0,0:0:0:0:
237,87,10003,1,0,0:0:0:0:
297,77,10003,1,0,0:0:0:0:
337,123,10003,1,0,0:0:0:0:
377,171,10003,1,0,0:0:0:0:
335,286,10003,1,0,0:0:0:0:
274,297,10003,1,0,0:0:0:0:
213,308,10003,1,0,0:0:0:0:
153,318,10003,1,0,0:0:0:0:
114,271,10003,1,0,0:0:0:0:
116,109,10003,1,0,0:0:0:0:
137,51,10003,1,0,0:0:0:0:
198,40,10003,1,0,0:0:0:0:
258,30,10003,1,0,0:0:0:0:
318,19,10003,1,0,0:0:0:0:
358,66,10003,1,0,0:0:0:0:
0,130,10003,1,0,0:0:0:0:
416,218,10003,1,0,0:0:0:0:
395,275,10003,1,0,0:0:0:0:
476,207,10003,1,0,0:0:0:0:
437,161,10003,1,0,0:0:0:0:
193,366,10003,1,0,0:0:0:0:
313,344,10003,1,0,0:0:0:0:
374,333,10003,1,0,0:0:0:0:
434,321,10003,1,0,0:0:0:0:
512,253,10003,1,0,0:0:0:0:
494,311,10003,1,0,0:0:0:0:
413,379,10003,1,0,0:0:0:0:
270,458,10003,1,0,0:0:0:0:
455,264,10003,1,0,0:0:0:0:
253,355,10003,1,0,0:0:0:0:
352,390,10003,1,0,0:0:0:0:
331,448,10003,1,0,0:0:0:0:
240,0,10003,1,0,0:0:0:0:
292,401,10003,1,0,0:0:0:0:
55,119,10003,1,0,0:0:0:0:
16,73,10003,1,0,0:0:0:0:
35,177,10003,1,0,0:0:0:0:
98,4,10003,1,0,0:0:0:0:
159,0,10003,1,0,0:0:0:0:
231,412,10003,1,0,0:0:0:0:
77,62,10003,1,0,0:0:0:0:
279,0,10003,1,0,0:0:0:0:
218,0,10003,1,0,0:0:0:0:
179,0,10003,1,0,0:0:0:0:
256,192,10214,5,0,0:0:0:0:
94,181,10214,1,0,0:0:0:0:
77,240,10214,1,0,0:0:0:0:
137,224,10214,1,0,0:0:0:0:
359,220,10214,1,0,0:0:0:0:
299,235,10214,1,0,0:0:0:0:
212,148,10214,1,0,0:0:0:0:
272,133,10214,1,0,0:0:0:0:
239,252,10214,1,0,0:0:0:0:
315,176,10214,1,0,0:0:0:0:
390,101,10214,1,0,0:0:0:0:
196,208,10214,1,0,0:0:0:0:
152,165,10214,1,0,0:0:0:0:
169,105,10214,1,0,0:0:0:0:
180,267,10214,1,0,0:0:0:0:
228,89,10214,1,0,0:0:0:0:
287,73,10214,1,0,0:0:0:0:
330,117,10214,1,0,0:0:0:0:
374,160,10214,1,0,0:0:0:0:
342,278,10214,1,0,0:0:0:0:
283,295,10214,1,0,0:0:0:0:
224,311,10214,1,0,0:0:0:0:
164,327,10214,1,0,0:0:0:0:
121,283,10214,1,0,0:0:0:0:
109,121,10214,1,0,0:0:0:0:
125,61,10214,1,0,0:0:0:0:
185,46,10214,1,0,0:0:0:0:
244,30,10214,1,0,0:0:0:0:
303,14,10214,1,0,0:0:0:0:
347,58,10214,1,0,0:0:0:0:
0,153,10214,1,0,0:0:0:0:
417,204,10214,1,0,0:0:0:0:
402,263,10214,1,0,0:0:0:0:
476,187,10214,1,0,0:0:0:0:
434,145,10214,1,0,0:0:0:0:
208,370,10214,1,0,0:0:0:0:
326,339,10214,1,0,0:0:0:0:
386,322,10214,1,0,0:0:0:0:
512,230,10214,1,0,0:0:0:0:
444,305,10214,1,0,0:0:0:0:
504,290,10214,1,0,0:0:0:0:
429,365,10214,1,0,0:0:0:0:
294,456,10214,1,0,0:0:0:0:
461,247,10214,1,0,0:0:0:0:
267,354,10214,1,0,0:0:0:0:
369,381,10214,1,0,0:0:0:0:
353,440,10214,1,0,0:0:0:0:
217,0,10214,1,0,0:0:0:0:
310,397,10214,1,0,0:0:0:0:
50,137,10214,1,0,0:0:0:0:
7,94,10214,1,0,0:0:0:0:
34,196,10214,1,0,0:0:0:0:
82,18,10214,1,0,0:0:0:0:
142,3,10214,1,0,0:0:0:0:
251,413,10214,1,0,0:0:0:0:
66,78,10214,1,0,0:0:0:0:
260,0,10214,1,0,0:0:0:0:
200,0,10214,1,0,0:0:0:0:
157,0,10214,1,0,0:0:0:0:
256,192,10425,5,0,0:0:0:0:
93,195,10425,1,0,0:0:0:0:
82,255,10425,1,0,0:0:0:0:
140,234,10425,1,0,0:0:0:0:
361,211,10425,1,0,0:0:0:0:
303,231,10425,1,0,0:0:0:0:
209,152,10425,1,0,0:0:0:0:
267,132,10425,1,0,0:0:0:0:
245,253,10425,1,0,0:0:0:0:
313,171,10425,1,0,0:0:0:0:
381,90,10425,1,0,0:0:0:0:
198,214,10425,1,0,0:0:0:0:
150,174,10425,1,0,0:0:0:0:
162,113,10425,1,0,0:0:0:0:
187,273,10425,1,0,0:0:0:0:
219,92,10425,1,0,0:0:0:0:
277,71,10425,1,0,0:0:0:0:
324,110,10425,1,0,0:0:0:0:
371,150,10425,1,0,0:0:0:0:
350,271,10425,1,0,0:0:0:0:
292,293,10425,1,0,0:0:0:0:
234,313,10425,1,0,0:0:0:0:
176,334,10425,1,0,0:0:0:0:
130,295,10425,1,0,0:0:0:0:
104,135,10425,1,0,0:0:0:0:
115,73,10425,1,0,0:0:0:0:
172,53,10425,1,0,0:0:0:0:
230,32,10425,1,0,0:0:0:0:
287,11,10425,1,0,0:0:0:0:
335,50,10425,1,0,0:0:0:0:
0,177,10425,1,0,0:0:0:0:
418,189,10425,1,0,0:0:0:0:
408,250,10425,1,0,0:0:0:0:
475,168,10425,1,0,0:0:0:0:
429,129,10425,1,0,0:0:0:0:
224,374,10425,1,0,0:0:0:0:
339,332,10425,1,0,0:0:0:0:
397,310,10425,1,0,0:0:0:0:
454,288,10425,1,0,0:0:0:0:
512,207,10425,1,0,0:0:0:0:
511,268,10425,1,0,0:0:0:0:
443,349,10425,1,0,0:0:0:0:
317,452,10425,1,0,0:0:0:0:
465,229,10425,1,0,0:0:0:0:
281,353,10425,1,0,0:0:0:0:
385,370,10425,1,0,0:0:0:0:
374,431,10425,1,0,0:0:0:0:
194,0,10425,1,0,0:0:0:0:
328,392,10425,1,0,0:0:0:0:
46,155,10425,1,0,0:0:0:0:
0,116,10425,1,0,0:0:0:0:
35,216,10425,1,0,0:0:0:0:
68,34,10425,1,0,0:0:0:0:
126,13,10425,1,0,0:0:0:0:
270,412,10425,1,0,0:0:0:0:
57,95,10425,1,0,0:0:0:0:
240,0,10425,1,0,0:0:0:0:
183,0,10425,1,0,0:0:0:0:
136,0,10425,1,0,0:0:0:0:
256,192,10636,5,0,0:0:0:0:
94,209,10636,1,0,0:0:0:0:
88,270,10636,1,0,0:0:0:0:
144,244,10636,1,0,0:0:0:0:
362,201,10636,1,0,0:0:0:0:
306,227,10636,1,0,0:0:0:0:
206,157,10636,1,0,0:0:0:0:
261,131,10636,1,0,0:0:0:0:
250,254,10636,1,0,0:0:0:0:
311,166,10636,1,0,0:0:0:0:
372,79,10636,1,0,0:0:0:0:
200,219,10636,1,0,0:0:0:0:
149,183,10636,1,0,0:0:0:0:
156,122,10636,1,0,0:0:0:0:
194,279,10636,1,0,0:0:0:0:
211,95,10636,1,0,0:0:0:0:
266,70,10636,1,0,0:0:0:0:
316,105,10636,1,0,0:0:0:0:
367,140,10636,1,0,0:0:0:0:
356,262,10636,1,0,0:0:0:0:
301,289,10636,1,0,0:0:0:0:
245,315,10636,1,0,0:0:0:0:
189,340,10636,1,0,0:0:0:0:
139,305,10636,1,0,0:0:0:0:
99,148,10636,1,0,0:0:0:0:
105,86,10636,1,0,0:0:0:0:
161,60,10636,1,0,0:0:0:0:
216,35,10636,1,0,0:0:0:0:
271,8,10636,1,0,0:0:0:0:
322,44,10636,1,0,0:0:0:0:
0,200,10636,1,0,0:0:0:0:
417,175,10636,1,0,0:0:0:0:
412,236,10636,1,0,0:0:0:0:
472,149,10636,1,0,0:0:0:0:
423,115,10636,1,0,0:0:0:0:
240,376,10636,1,0,0:0:0:0:
351,324,10636,1,0,0:0:0:0:
407,298,10636,1,0,0:0:0:0:
512,184,10636,1,0,0:0:0:0:
461,271,10636,1,0,0:0:0:0:
512,245,10636,1,0,0:0:0:0:
456,332,10636,1,0,0:0:0:0:
339,445,10636,1,0,0:0:0:0:
467,210,10636,1,0,0:0:0:0:
295,350,10636,1,0,0:0:0:0:
400,358,10636,1,0,0:0:0:0:
395,420,10636,1,0,0:0:0:0:
171,0,10636,1,0,0:0:0:0:
345,385,10636,1,0,0:0:0:0:
43,174,10636,1,0,0:0:0:0:
0,139,10636,1,0,0:0:0:0:
38,235,10636,1,0,0:0:0:0:
55,51,10636,1,0,0:0:0:0:
111,25,10636,1,0,0:0:0:0:
289,410,10636,1,0,0:0:0:0:
49,113,10636,1,0,0:0:0:0:
221,0,10636,1,0,0:0:0:0:
166,0,10636,1,0,0:0:0:0:
116,0,10636,1,0,0:0:0:0:
256,192,10848,5,0,0:0:0:0:
96,223,10848,1,0,0:0:0:0:
96,284,10848,1,0,0:0:0:0:
149,254,10848,1,0,0:0:0:0:
363,192,10848,1,0,0:0:0:0:
309,222,10848,1,0,0:0:0:0:
203,161,10848,1,0,0:0:0:0:
256,131,10848,1,0,0:0:0:0:
255,254,10848,1,0,0:0:0:0:
309,161,10848,1,0,0:0:0:0:
362,69,10848,1,0,0:0:0:0:
203,223,10848,1,0,0:0:0:0:
149,192,10848,1,0,0:0:0:0:
150,130,10848,1,0,0:0:0:0:
202,284,10848,1,0,0:0:0:0:
202,100,10848,1,0,0:0:0:0:
256,69,10848,1,0,0:0:0:0:
309,100,10848,1,0,0:0:0:0:
362,131,10848,1,0,0:0:0:0:
362,253,10848,1,0,0:0:0:0:
309,285,10848,1,0,0:0:0:0:
256,315,10848,1,0,0:0:0:0:
202,346,10848,1,0,0:0:0:0:
150,315,10848,1,0,0:0:0:0:
96,162,10848,1,0,0:0:0:0:
96,100,10848,1,0,0:0:0:0:
149,69,10848,1,0,0:0:0:0:
203,39,10848,1,0,0:0:0:0:
255,8,10848,1,0,0:0:0:0:
309,39,10848,1,0,0:0:0:0:
0,223,10848,1,0,0:0:0:0:
415,161,10848,1,0,0:0:0:0:
415,223,10848,1,0,0:0:0:0:
468,130,10848,1,0,0:0:0:0:
416,100,10848,1,0,0:0:0:0:
256,377,10848,1,0,0:0:0:0:
362,315,10848,1,0,0:0:0:0:
416,284,10848,1,0,0:0:0:0:
467,253,10848,1,0,0:0:0:0:
512,161,10848,1,0,0:0:0:0:
512,222,10848,1,0,0:0:0:0:
468,314,10848,1,0,0:0:0:0:
361,437,10848,1,0,0:0:0:0:
468,192,10848,1,0,0:0:0:0:
309,346,10848,1,0,0:0:0:0:
414,345,10848,1,0,0:0:0:0:
414,407,10848,1,0,0:0:0:0:
150,0,10848,1,0,0:0:0:0:
361,376,10848,1,0,0:0:0:0:
43,192,10848,1,0,0:0:0:0:
0,162,10848,1,0,0:0:0:0:
43,254,10848,1,0,0:0:0:0:
43,69,10848,1,0,0:0:0:0:
97,39,10848,1,0,0:0:0:0:
308,407,10848,1,0,0:0:0:0:
43,131,10848,1,0,0:0:0:0:
202,0,10848,1,0,0:0:0:0:
149,8,10848,1,0,0:0:0:0:
96,0,10848,1,0,0:0:0:0:
256,192,11059,5,0,0:0:0:0:
100,237,11059,1,0,0:0:0:0:
105,298,11059,1,0,0:0:0:0:
155,263,11059,1,0,0:0:0:0:
362,183,11059,1,0,0:0:0:0:
312,218,11059,1,0,0:0:0:0:
200,166,11059,1,0,0:0:0:0:
251,131,11059,1,0,0:0:0:0:
261,254,11059,1,0,0:0:0:0:
306,157,11059,1,0,0:0:0:0:
351,60,11059,1,0,0:0:0:0:
205,228,11059,1,0,0:0:0:0:
149,202,11059,1,0,0:0:0:0:
145,140,11059,1,0,0:0:0:0:
210,288,11059,1,0,0:0:0:0:
195,105,11059,1,0,0:0:0:0:
245,70,11059,1,0,0:0:0:0:
300,95,11059,1,0,0:0:0:0:
356,122,11059,1,0,0:0:0:0:
367,243,11059,1,0,0:0:0:0:
317,280,11059,1,0,0:0:0:0:
266,315,11059,1,0,0:0:0:0:
216,350,11059,1,0,0:0:0:0:
161,324,11059,1,0,0:0:0:0:
94,176,11059,1,0,0:0:0:0:
89,114,11059,1,0,0:0:0:0:
139,79,11059,1,0,0:0:0:0:
190,44,11059,1,0,0:0:0:0:
239,9,11059,1,0,0:0:0:0:
296,35,11059,1,0,0:0:0:0:
0,246,11059,1,0,0:0:0:0:
412,147,11059,1,0,0:0:0:0:
417,209,11059,1,0,0:0:0:0:
461,112,11059,1,0,0:0:0:0:
407,87,11059,1,0,0:0:0:0:
272,376,11059,1,0,0:0:0:0:
372,306,11059,1,0,0:0:0:0:
423,270,11059,1,0,0:0:0:0:
512,138,11059,1,0,0:0:0:0:
472,234,11059,1,0,0:0:0:0:
512,199,11059,1,0,0:0:0:0:
478,295,11059,1,0,0:0:0:0:
382,427,11059,1,0,0:0:0:0:
467,173,11059,1,0,0:0:0:0:
322,340,11059,1,0,0:0:0:0:
427,331,11059,1,0,0:0:0:0:
432,392,11059,1,0,0:0:0:0:
129,0,11059,1,0,0:0:0:0:
377,366,11059,1,0,0:0:0:0:
44,211,11059,1,0,0:0:0:0:
0,185,11059,1,0,0:0:0:0:
49,272,11059,1,0,0:0:0:0:
33,88,11059,1,0,0:0:0:0:
84,53,11059,1,0,0:0:0:0:
327,401,11059,1,0,0:0:0:0:
39,150,11059,1,0,0:0:0:0:
184,0,11059,1,0,0:0:0:0:
134,18,11059,1,0,0:0:0:0:
78,0,11059,1,0,0:0:0:0:
256,192,11270,5,0,0:0:0:0:
104,250,11270,1,0,0:0:0:0:
114,310,11270,1,0,0:0:0:0:
162,271,11270,1,0,0:0:0:0:
361,174,11270,1,0,0:0:0:0:
314,213,11270,1,0,0:0:0:0:
198,171,11270,1,0,0:0:0:0:
245,131,11270,1,0,0:0:0:0:
266,253,11270,1,0,0:0:0:0:
303,152,11270,1,0,0:0:0:0:
339,53,11270,1,0,0:0:0:0:
209,232,11270,1,0,0:0:0:0:
151,211,11270,1,0,0:0:0:0:
141,150,11270,1,0,0:0:0:0:
219,292,11270,1,0,0:0:0:0:
187,110,11270,1,0,0:0:0:0:
234,71,11270,1,0,0:0:0:0:
292,92,11270,1,0,0:0:0:0:
350,113,11270,1,0,0:0:0:0:
371,234,11270,1,0,0:0:0:0:
324,274,11270,1,0,0:0:0:0:
277,313,11270,1,0,0:0:0:0:
230,352,11270,1,0,0:0:0:0:
173,332,11270,1,0,0:0:0:0:
93,190,11270,1,0,0:0:0:0:
83,129,11270,1,0,0:0:0:0:
130,89,11270,1,0,0:0:0:0:
177,50,11270,1,0,0:0:0:0:
223,11,11270,1,0,0:0:0:0:
282,32,11270,1,0,0:0:0:0:
0,269,11270,1,0,0:0:0:0:
407,134,11270,1,0,0:0:0:0:
418,194,11270,1,0,0:0:0:0:
454,94,11270,1,0,0:0:0:0:
397,74,11270,1,0,0:0:0:0:
288,374,11270,1,0,0:0:0:0:
382,295,11270,1,0,0:0:0:0:
429,255,11270,1,0,0:0:0:0:
475,215,11270,1,0,0:0:0:0:
511,115,11270,1,0,0:0:0:0:
512,176,11270,1,0,0:0:0:0:
486,275,11270,1,0,0:0:0:0:
402,415,11270,1,0,0:0:0:0:
465,155,11270,1,0,0:0:0:0:
334,334,11270,1,0,0:0:0:0:
438,315,11270,1,0,0:0:0:0:
449,376,11270,1,0,0:0:0:0:
109,0,11270,1,0,0:0:0:0:
392,355,11270,1,0,0:0:0:0:
46,229,11270,1,0,0:0:0:0:
0,208,11270,1,0,0:0:0:0:
57,290,11270,1,0,0:0:0:0:
25,108,11270,1,0,0:0:0:0:
73,69,11270,1,0,0:0:0:0:
345,394,11270,1,0,0:0:0:0:
36,169,11270,1,0,0:0:0:0:
166,0,11270,1,0,0:0:0:0:
119,29,11270,1,0,0:0:0:0:
62,8,11270,1,0,0:0:0:0:
256,192,11323,5,0,0:0:0:0:
105,253,11323,1,0,0:0:0:0:
116,313,11323,1,0,0:0:0:0:
163,273,11323,1,0,0:0:0:0:
361,172,11323,1,0,0:0:0:0:
314,212,11323,1,0,0:0:0:0:
198,172,11323,1,0,0:0:0:0:
244,132,11323,1,0,0:0:0:0:
267,253,11323,1,0,0:0:0:0:
302,151,11323,1,0,0:0:0:0:
337,51,11323,1,0,0:0:0:0:
210,233,11323,1,0,0:0:0:0:
151,213,11323,1,0,0:0:0:0:
140,152,11323,1,0,0:0:0:0:
221,293,11323,1,0,0:0:0:0:
186,111,11323,1,0,0:0:0:0:
232,71,11323,1,0,0:0:0:0:
290,91,11323,1,0,0:0:0:0:
349,111,11323,1,0,0:0:0:0:
372,232,11323,1,0,0:0:0:0:
326,273,11323,1,0,0:0:0:0:
279,313,11323,1,0,0:0:0:0:
233,353,11323,1,0,0:0:0:0:
175,333,11323,1,0,0:0:0:0:
93,193,11323,1,0,0:0:0:0:
82,132,11323,1,0,0:0:0:0:
128,92,11323,1,0,0:0:0:0:
175,52,11323,1,0,0:0:0:0:
220,11,11323,1,0,0:0:0:0:
279,31,11323,1,0,0:0:0:0:
47,233,11323,1,0,0:0:0:0:
406,131,11323,1,0,0:0:0:0:
418,192,11323,1,0,0:0:0:0:
487,271,11323,1,0,0:0:0:0:
1,273,11323,1,0,0:0:0:0:
291,373,11323,1,0,0:0:0:0:
384,293,11323,1,0,0:0:0:0:
452,91,11323,1,0,0:0:0:0:
475,211,11323,1,0,0:0:0:0:
510,111,11323,1,0,0:0:0:0:
430,252,11323,1,0,0:0:0:0:
406,412,11323,1,0,0:0:0:0:
464,151,11323,1,0,0:0:0:0:
512,171,11323,1,0,0:0:0:0:
395,71,11323,1,0,0:0:0:0:
452,372,11323,1,0,0:0:0:0:
105,0,11323,1,0,0:0:0:0:
163,0,11323,1,0,0:0:0:0:
440,312,11323,1,0,0:0:0:0:
0,213,11323,1,0,0:0:0:0:
59,293,11323,1,0,0:0:0:0:
395,353,11323,1,0,0:0:0:0:
70,72,11323,1,0,0:0:0:0:
348,393,11323,1,0,0:0:0:0:
337,333,11323,1,0,0:0:0:0:
24,112,11323,1,0,0:0:0:0:
116,31,11323,1,0,0:0:0:0:
58,12,11323,1,0,0:0:0:0:
36,173,11323,1,0,0:0:0:0:
256,192,11376,5,0,0:0:0:0:
106,256,11376,1,0,0:0:0:0:
119,315,11376,1,0,0:0:0:0:
164,274,11376,1,0,0:0:0:0:
360,170,11376,1,0,0:0:0:0:
314,211,11376,1,0,0:0:0:0:
197,173,11376,1,0,0:0:0:0:
243,132,11376,1,0,0:0:0:0:
268,252,11376,1,0,0:0:0:0:
301,151,11376,1,0,0:0:0:0:
334,50,11376,1,0,0:0:0:0:
210,234,11376,1,0,0:0:0:0:
151,214,11376,1,0,0:0:0:0:
139,154,11376,1,0,0:0:0:0:
222,293,11376,1,0,0:0:0:0:
184,113,11376,1,0,0:0:0:0:
230,72,11376,1,0,0:0:0:0:
288,91,11376,1,0,0:0:0:0:
347,110,11376,1,0,0:0:0:0:
372,230,11376,1,0,0:0:0:0:
327,272,11376,1,0,0:0:0:0:
281,312,11376,1,0,0:0:0:0:
236,353,11376,1,0,0:0:0:0:
178,334,11376,1,0,0:0:0:0:
93,196,11376,1,0,0:0:0:0:
81,135,11376,1,0,0:0:0:0:
126,94,11376,1,0,0:0:0:0:
172,53,11376,1,0,0:0:0:0:
217,12,11376,1,0,0:0:0:0:
276,31,11376,1,0,0:0:0:0:
47,236,11376,1,0,0:0:0:0:
405,129,11376,1,0,0:0:0:0:
418,189,11376,1,0,0:0:0:0:
489,267,11376,1,0,0:0:0:0:
3,278,11376,1,0,0:0:0:0:
295,372,11376,1,0,0:0:0:0:
385,290,11376,1,0,0:0:0:0:
450,88,11376,1,0,0:0:0:0:
508,106,11376,1,0,0:0:0:0:
475,207,11376,1,0,0:0:0:0:
431,249,11376,1,0,0:0:0:0:
410,410,11376,1,0,0:0:0:0:
463,148,11376,1,0,0:0:0:0:
512,166,11376,1,0,0:0:0:0:
393,69,11376,1,0,0:0:0:0:
455,369,11376,1,0,0:0:0:0:
101,0,11376,1,0,0:0:0:0:
159,0,11376,1,0,0:0:0:0:
442,309,11376,1,0,0:0:0:0:
0,218,11376,1,0,0:0:0:0:
61,296,11376,1,0,0:0:0:0:
397,350,11376,1,0,0:0:0:0:
68,75,11376,1,0,0:0:0:0:
352,391,11376,1,0,0:0:0:0:
339,331,11376,1,0,0:0:0:0:
22,116,11376,1,0,0:0:0:0:
113,34,11376,1,0,0:0:0:0:
55,15,11376,1,0,0:0:0:0:
35,177,11376,1,0,0:0:0:0:
256,192,11429,5,0,0:0:0:0:
108,258,11429,1,0,0:0:0:0:
121,318,11429,1,0,0:0:0:0:
166,276,11429,1,0,0:0:0:0:
360,168,11429,1,0,0:0:0:0:
315,210,11429,1,0,0:0:0:0:
197,174,11429,1,0,0:0:0:0:
242,132,11429,1,0,0:0:0:0:
269,252,11429,1,0,0:0:0:0:
301,150,11429,1,0,0:0:0:0:
332,49,11429,1,0,0:0:0:0:
211,234,11429,1,0,0:0:0:0:
152,216,11429,1,0,0:0:0:0:
139,156,11429,1,0,0:0:0:0:
224,294,11429,1,0,0:0:0:0:
183,114,11429,1,0,0:0:0:0:
228,72,11429,1,0,0:0:0:0:
286,90,11429,1,0,0:0:0:0:
346,108,11429,1,0,0:0:0:0:
373,227,11429,1,0,0:0:0:0:
329,270,11429,1,0,0:0:0:0:
284,312,11429,1,0,0:0:0:0:
238,354,11429,1,0,0:0:0:0:
180,336,11429,1,0,0:0:0:0:
93,198,11429,1,0,0:0:0:0:
80,138,11429,1,0,0:0:0:0:
125,96,11429,1,0,0:0:0:0:
170,54,11429,1,0,0:0:0:0:
214,13,11429,1,0,0:0:0:0:
273,31,11429,1,0,0:0:0:0:
48,240,11429,1,0,0:0:0:0:
404,126,11429,1,0,0:0:0:0:
418,186,11429,1,0,0:0:0:0:
490,263,11429,1,0,0:0:0:0:
4,282,11429,1,0,0:0:0:0:
298,372,11429,1,0,0:0:0:0:
387,288,11429,1,0,0:0:0:0:
448,84,11429,1,0,0:0:0:0:
476,203,11429,1,0,0:0:0:0:
507,102,11429,1,0,0:0:0:0:
432,246,11429,1,0,0:0:0:0:
413,407,11429,1,0,0:0:0:0:
462,144,11429,1,0,0:0:0:0:
512,162,11429,1,0,0:0:0:0:
391,67,11429,1,0,0:0:0:0:
459,365,11429,1,0,0:0:0:0:
97,0,11429,1,0,0:0:0:0:
156,0,11429,1,0,0:0:0:0:
444,306,11429,1,0,0:0:0:0:
0,222,11429,1,0,0:0:0:0:
62,300,11429,1,0,0:0:0:0:
400,348,11429,1,0,0:0:0:0:
66,78,11429,1,0,0:0:0:0:
355,389,11429,1,0,0:0:0:0:
342,330,11429,1,0,0:0:0:0:
21,120,11429,1,0,0:0:0:0:
111,36,11429,1,0,0:0:0:0:
52,19,11429,1,0,0:0:0:0:
35,181,11429,1,0,0:0:0:0:
256,192,11481,5,0,0:0:0:0:
49,22,11481,1,0,0:0:0:0:
108,39,11481,1,0,0:0:0:0:
152,0,11481,1,0,0:0:0:0:
35,184,11481,1,0,0:0:0:0:
358,387,11481,1,0,0:0:0:0:
64,82,11481,1,0,0:0:0:0:
20,124,11481,1,0,0:0:0:0:
64,303,11481,1,0,0:0:0:0:
0,227,11481,1,0,0:0:0:0:
49,244,11481,1,0,0:0:0:0:
403,345,11481,1,0,0:0:0:0:
94,0,11481,1,0,0:0:0:0:
462,362,11481,1,0,0:0:0:0:
446,302,11481,1,0,0:0:0:0:
344,328,11481,1,0,0:0:0:0:
462,140,11481,1,0,0:0:0:0:
417,404,11481,1,0,0:0:0:0:
491,259,11481,1,0,0:0:0:0:
512,157,11481,1,0,0:0:0:0:
505,98,11481,1,0,0:0:0:0:
476,200,11481,1,0,0:0:0:0:
433,242,11481,1,0,0:0:0:0:
389,286,11481,1,0,0:0:0:0:
301,371,11481,1,0,0:0:0:0:
389,64,11481,1,0,0:0:0:0:
446,81,11481,1,0,0:0:0:0:
418,183,11481,1,0,0:0:0:0:
403,124,11481,1,0,0:0:0:0:
6,286,11481,1,0,0:0:0:0:
270,30,11481,1,0,0:0:0:0:
167,56,11481,1,0,0:0:0:0:
123,98,11481,1,0,0:0:0:0:
285,90,11481,1,0,0:0:0:0:
211,13,11481,1,0,0:0:0:0:
183,337,11481,1,0,0:0:0:0:
241,354,11481,1,0,0:0:0:0:
79,141,11481,1,0,0:0:0:0:
330,269,11481,1,0,0:0:0:0:
374,225,11481,1,0,0:0:0:0:
286,311,11481,1,0,0:0:0:0:
226,73,11481,1,0,0:0:0:0:
182,115,11481,1,0,0:0:0:0:
344,107,11481,1,0,0:0:0:0:
94,201,11481,1,0,0:0:0:0:
226,294,11481,1,0,0:0:0:0:
138,158,11481,1,0,0:0:0:0:
152,218,11481,1,0,0:0:0:0:
212,235,11481,1,0,0:0:0:0:
329,47,11481,1,0,0:0:0:0:
300,149,11481,1,0,0:0:0:0:
270,252,11481,1,0,0:0:0:0:
241,132,11481,1,0,0:0:0:0:
197,175,11481,1,0,0:0:0:0:
315,209,11481,1,0,0:0:0:0:
360,166,11481,1,0,0:0:0:0:
167,278,11481,1,0,0:0:0:0:
123,320,11481,1,0,0:0:0:0:
109,261,11481,1,0,0:0:0:0:
256,192,11534,5,0,0:0:0:0:
374,223,11534,1,0,0:0:0:0:
331,268,11534,1,0,0:0:0:0:
288,311,11534,1,0,0:0:0:0:
343,105,11534,1,0,0:0:0:0:
180,116,11534,1,0,0:0:0:0:
224,73,11534,1,0,0:0:0:0:
283,89,11534,1,0,0:0:0:0:
121,101,11534,1,0,0:0:0:0:
165,58,11534,1,0,0:0:0:0:
208,14,11534,1,0,0:0:0:0:
78,144,11534,1,0,0:0:0:0:
244,354,11534,1,0,0:0:0:0:
185,338,11534,1,0,0:0:0:0:
94,204,11534,1,0,0:0:0:0:
315,208,11534,1,0,0:0:0:0:
197,176,11534,1,0,0:0:0:0:
240,133,11534,1,0,0:0:0:0:
359,164,11534,1,0,0:0:0:0:
110,263,11534,1,0,0:0:0:0:
125,322,11534,1,0,0:0:0:0:
169,279,11534,1,0,0:0:0:0:
153,220,11534,1,0,0:0:0:0:
138,160,11534,1,0,0:0:0:0:
228,295,11534,1,0,0:0:0:0:
213,236,11534,1,0,0:0:0:0:
271,252,11534,1,0,0:0:0:0:
299,148,11534,1,0,0:0:0:0:
327,46,11534,1,0,0:0:0:0:
268,30,11534,1,0,0:0:0:0:
50,247,11534,1,0,0:0:0:0:
66,306,11534,1,0,0:0:0:0:
406,342,11534,1,0,0:0:0:0:
63,85,11534,1,0,0:0:0:0:
0,231,11534,1,0,0:0:0:0:
90,0,11534,1,0,0:0:0:0:
149,0,11534,1,0,0:0:0:0:
448,299,11534,1,0,0:0:0:0:
46,26,11534,1,0,0:0:0:0:
35,188,11534,1,0,0:0:0:0:
105,41,11534,1,0,0:0:0:0:
362,386,11534,1,0,0:0:0:0:
347,327,11534,1,0,0:0:0:0:
19,128,11534,1,0,0:0:0:0:
464,358,11534,1,0,0:0:0:0:
304,370,11534,1,0,0:0:0:0:
390,284,11534,1,0,0:0:0:0:
444,78,11534,1,0,0:0:0:0:
7,291,11534,1,0,0:0:0:0:
402,121,11534,1,0,0:0:0:0:
418,180,11534,1,0,0:0:0:0:
492,255,11534,1,0,0:0:0:0:
461,137,11534,1,0,0:0:0:0:
512,153,11534,1,0,0:0:0:0:
386,62,11534,1,0,0:0:0:0:
421,401,11534,1,0,0:0:0:0:
476,196,11534,1,0,0:0:0:0:
503,93,11534,1,0,0:0:0:0:
434,239,11534,1,0,0:0:0:0:
256,192,11587,5,0,0:0:0:0:
103,44,11587,1,0,0:0:0:0:
18,132,11587,1,0,0:0:0:0:
273,251,11587,1,0,0:0:0:0:
265,30,11587,1,0,0:0:0:0:
61,88,11587,1,0,0:0:0:0:
408,340,11587,1,0,0:0:0:0:
86,0,11587,1,0,0:0:0:0:
467,355,11587,1,0,0:0:0:0:
450,296,11587,1,0,0:0:0:0:
213,237,11587,1,0,0:0:0:0:
349,325,11587,1,0,0:0:0:0:
0,236,11587,1,0,0:0:0:0:
384,60,11587,1,0,0:0:0:0:
298,148,11587,1,0,0:0:0:0:
43,29,11587,1,0,0:0:0:0:
146,0,11587,1,0,0:0:0:0:
68,310,11587,1,0,0:0:0:0:
424,399,11587,1,0,0:0:0:0:
435,236,11587,1,0,0:0:0:0:
400,118,11587,1,0,0:0:0:0:
460,133,11587,1,0,0:0:0:0:
442,74,11587,1,0,0:0:0:0:
392,281,11587,1,0,0:0:0:0:
476,192,11587,1,0,0:0:0:0:
51,251,11587,1,0,0:0:0:0:
493,251,11587,1,0,0:0:0:0:
512,148,11587,1,0,0:0:0:0:
365,384,11587,1,0,0:0:0:0:
9,295,11587,1,0,0:0:0:0:
128,324,11587,1,0,0:0:0:0:
307,369,11587,1,0,0:0:0:0:
375,221,11587,1,0,0:0:0:0:
502,89,11587,1,0,0:0:0:0:
418,177,11587,1,0,0:0:0:0:
205,15,11587,1,0,0:0:0:0:
163,59,11587,1,0,0:0:0:0:
170,281,11587,1,0,0:0:0:0:
77,147,11587,1,0,0:0:0:0:
196,177,11587,1,0,0:0:0:0:
247,354,11587,1,0,0:0:0:0:
290,310,11587,1,0,0:0:0:0:
333,266,11587,1,0,0:0:0:0:
188,339,11587,1,0,0:0:0:0:
281,89,11587,1,0,0:0:0:0:
94,207,11587,1,0,0:0:0:0:
359,163,11587,1,0,0:0:0:0:
230,295,11587,1,0,0:0:0:0:
341,104,11587,1,0,0:0:0:0:
239,133,11587,1,0,0:0:0:0:
153,222,11587,1,0,0:0:0:0:
179,118,11587,1,0,0:0:0:0:
111,266,11587,1,0,0:0:0:0:
222,74,11587,1,0,0:0:0:0:
120,103,11587,1,0,0:0:0:0:
137,162,11587,1,0,0:0:0:0:
35,192,11587,1,0,0:0:0:0:
316,206,11587,1,0,0:0:0:0:
324,45,11587,1,0,0:0:0:0:
256,192,11640,5,0,0:0:0:0:
160,61,11640,1,0,0:0:0:0:
220,74,11640,1,0,0:0:0:0:
76,150,11640,1,0,0:0:0:0:
334,265,11640,1,0,0:0:0:0:
214,237,11640,1,0,0:0:0:0:
316,205,11640,1,0,0:0:0:0:
292,310,11640,1,0,0:0:0:0:
178,119,11640,1,0,0:0:0:0:
190,341,11640,1,0,0:0:0:0:
321,44,11640,1,0,0:0:0:0:
279,88,11640,1,0,0:0:0:0:
250,354,11640,1,0,0:0:0:0:
375,219,11640,1,0,0:0:0:0:
202,16,11640,1,0,0:0:0:0:
340,102,11640,1,0,0:0:0:0:
94,210,11640,1,0,0:0:0:0:
113,268,11640,1,0,0:0:0:0:
196,178,11640,1,0,0:0:0:0:
238,133,11640,1,0,0:0:0:0:
154,223,11640,1,0,0:0:0:0:
17,136,11640,1,0,0:0:0:0:
130,327,11640,1,0,0:0:0:0:
172,282,11640,1,0,0:0:0:0:
274,251,11640,1,0,0:0:0:0:
137,164,11640,1,0,0:0:0:0:
231,296,11640,1,0,0:0:0:0:
0,241,11640,1,0,0:0:0:0:
358,161,11640,1,0,0:0:0:0:
298,147,11640,1,0,0:0:0:0:
52,254,11640,1,0,0:0:0:0:
70,313,11640,1,0,0:0:0:0:
382,57,11640,1,0,0:0:0:0:
452,292,11640,1,0,0:0:0:0:
399,116,11640,1,0,0:0:0:0:
83,0,11640,1,0,0:0:0:0:
411,337,11640,1,0,0:0:0:0:
262,30,11640,1,0,0:0:0:0:
41,33,11640,1,0,0:0:0:0:
470,351,11640,1,0,0:0:0:0:
59,92,11640,1,0,0:0:0:0:
369,382,11640,1,0,0:0:0:0:
35,196,11640,1,0,0:0:0:0:
142,2,11640,1,0,0:0:0:0:
11,299,11640,1,0,0:0:0:0:
310,368,11640,1,0,0:0:0:0:
393,279,11640,1,0,0:0:0:0:
440,71,11640,1,0,0:0:0:0:
351,323,11640,1,0,0:0:0:0:
118,105,11640,1,0,0:0:0:0:
417,175,11640,1,0,0:0:0:0:
494,247,11640,1,0,0:0:0:0:
459,130,11640,1,0,0:0:0:0:
512,143,11640,1,0,0:0:0:0:
100,47,11640,1,0,0:0:0:0:
428,396,11640,1,0,0:0:0:0:
476,188,11640,1,0,0:0:0:0:
500,85,11640,1,0,0:0:0:0:
436,233,11640,1,0,0:0:0:0:
256,192,11693,5,0,0:0:0:0:
335,264,11693,1,0,0:0:0:0:
376,217,11693,1,0,0:0:0:0:
294,309,11693,1,0,0:0:0:0:
338,101,11693,1,0,0:0:0:0:
177,121,11693,1,0,0:0:0:0:
218,75,11693,1,0,0:0:0:0:
278,88,11693,1,0,0:0:0:0:
117,108,11693,1,0,0:0:0:0:
158,62,11693,1,0,0:0:0:0:
199,17,11693,1,0,0:0:0:0:
76,153,11693,1,0,0:0:0:0:
253,354,11693,1,0,0:0:0:0:
193,342,11693,1,0,0:0:0:0:
95,213,11693,1,0,0:0:0:0:
316,204,11693,1,0,0:0:0:0:
196,179,11693,1,0,0:0:0:0:
237,133,11693,1,0,0:0:0:0:
357,159,11693,1,0,0:0:0:0:
114,271,11693,1,0,0:0:0:0:
132,329,11693,1,0,0:0:0:0:
174,283,11693,1,0,0:0:0:0:
154,225,11693,1,0,0:0:0:0:
136,166,11693,1,0,0:0:0:0:
233,296,11693,1,0,0:0:0:0:
215,238,11693,1,0,0:0:0:0:
275,251,11693,1,0,0:0:0:0:
297,146,11693,1,0,0:0:0:0:
319,42,11693,1,0,0:0:0:0:
259,30,11693,1,0,0:0:0:0:
13,304,11693,1,0,0:0:0:0:
0,245,11693,1,0,0:0:0:0:
73,316,11693,1,0,0:0:0:0:
16,141,11693,1,0,0:0:0:0:
53,258,11693,1,0,0:0:0:0:
473,347,11693,1,0,0:0:0:0:
79,0,11693,1,0,0:0:0:0:
413,334,11693,1,0,0:0:0:0:
98,50,11693,1,0,0:0:0:0:
38,37,11693,1,0,0:0:0:0:
139,4,11693,1,0,0:0:0:0:
57,95,11693,1,0,0:0:0:0:
372,380,11693,1,0,0:0:0:0:
35,200,11693,1,0,0:0:0:0:
454,289,11693,1,0,0:0:0:0:
313,367,11693,1,0,0:0:0:0:
395,276,11693,1,0,0:0:0:0:
436,230,11693,1,0,0:0:0:0:
380,55,11693,1,0,0:0:0:0:
398,113,11693,1,0,0:0:0:0:
417,172,11693,1,0,0:0:0:0:
438,68,11693,1,0,0:0:0:0:
432,392,11693,1,0,0:0:0:0:
458,126,11693,1,0,0:0:0:0:
354,322,11693,1,0,0:0:0:0:
495,242,11693,1,0,0:0:0:0:
476,184,11693,1,0,0:0:0:0:
498,80,11693,1,0,0:0:0:0:
512,139,11693,1,0,0:0:0:0:
256,192,11746,5,0,0:0:0:0:
35,41,11746,1,0,0:0:0:0:
35,204,11746,1,0,0:0:0:0:
95,52,11746,1,0,0:0:0:0:
15,145,11746,1,0,0:0:0:0:
356,320,11746,1,0,0:0:0:0:
375,378,11746,1,0,0:0:0:0:
56,99,11746,1,0,0:0:0:0:
416,332,11746,1,0,0:0:0:0:
75,319,11746,1,0,0:0:0:0:
0,250,11746,1,0,0:0:0:0:
455,285,11746,1,0,0:0:0:0:
136,6,11746,1,0,0:0:0:0:
76,0,11746,1,0,0:0:0:0:
476,343,11746,1,0,0:0:0:0:
377,53,11746,1,0,0:0:0:0:
512,134,11746,1,0,0:0:0:0:
456,123,11746,1,0,0:0:0:0:
435,389,11746,1,0,0:0:0:0:
437,227,11746,1,0,0:0:0:0:
496,76,11746,1,0,0:0:0:0:
476,180,11746,1,0,0:0:0:0:
436,65,11746,1,0,0:0:0:0:
396,274,11746,1,0,0:0:0:0:
316,366,11746,1,0,0:0:0:0:
15,308,11746,1,0,0:0:0:0:
496,238,11746,1,0,0:0:0:0:
417,169,11746,1,0,0:0:0:0:
396,111,11746,1,0,0:0:0:0:
54,261,11746,1,0,0:0:0:0:
256,30,11746,1,0,0:0:0:0:
156,64,11746,1,0,0:0:0:0:
115,110,11746,1,0,0:0:0:0:
276,87,11746,1,0,0:0:0:0:
196,18,11746,1,0,0:0:0:0:
196,343,11746,1,0,0:0:0:0:
255,354,11746,1,0,0:0:0:0:
75,156,11746,1,0,0:0:0:0:
336,262,11746,1,0,0:0:0:0:
376,215,11746,1,0,0:0:0:0:
296,308,11746,1,0,0:0:0:0:
216,76,11746,1,0,0:0:0:0:
175,122,11746,1,0,0:0:0:0:
337,99,11746,1,0,0:0:0:0:
95,215,11746,1,0,0:0:0:0:
235,297,11746,1,0,0:0:0:0:
136,168,11746,1,0,0:0:0:0:
155,227,11746,1,0,0:0:0:0:
216,239,11746,1,0,0:0:0:0:
316,41,11746,1,0,0:0:0:0:
296,145,11746,1,0,0:0:0:0:
276,250,11746,1,0,0:0:0:0:
236,134,11746,1,0,0:0:0:0:
196,180,11746,1,0,0:0:0:0:
316,203,11746,1,0,0:0:0:0:
357,157,11746,1,0,0:0:0:0:
175,285,11746,1,0,0:0:0:0:
135,331,11746,1,0,0:0:0:0:
115,273,11746,1,0,0:0:0:0:
256,192,11799,5,0,0:0:0:0:
74,160,11799,1,0,0:0:0:0:
195,181,11799,1,0,0:0:0:0:
258,354,11799,1,0,0:0:0:0:
198,344,11799,1,0,0:0:0:0:
338,261,11799,1,0,0:0:0:0:
298,308,11799,1,0,0:0:0:0:
494,72,11799,1,0,0:0:0:0:
377,213,11799,1,0,0:0:0:0:
319,365,11799,1,0,0:0:0:0:
416,166,11799,1,0,0:0:0:0:
177,286,11799,1,0,0:0:0:0:
154,66,11799,1,0,0:0:0:0:
193,19,11799,1,0,0:0:0:0:
274,87,11799,1,0,0:0:0:0:
114,113,11799,1,0,0:0:0:0:
214,77,11799,1,0,0:0:0:0:
117,276,11799,1,0,0:0:0:0:
135,170,11799,1,0,0:0:0:0:
314,40,11799,1,0,0:0:0:0:
317,202,11799,1,0,0:0:0:0:
35,208,11799,1,0,0:0:0:0:
237,297,11799,1,0,0:0:0:0:
356,155,11799,1,0,0:0:0:0:
95,218,11799,1,0,0:0:0:0:
335,98,11799,1,0,0:0:0:0:
174,123,11799,1,0,0:0:0:0:
156,229,11799,1,0,0:0:0:0:
235,134,11799,1,0,0:0:0:0:
137,333,11799,1,0,0:0:0:0:
17,312,11799,1,0,0:0:0:0:
457,282,11799,1,0,0:0:0:0:
478,339,11799,1,0,0:0:0:0:
72,0,11799,1,0,0:0:0:0:
217,239,11799,1,0,0:0:0:0:
375,51,11799,1,0,0:0:0:0:
0,254,11799,1,0,0:0:0:0:
358,318,11799,1,0,0:0:0:0:
14,149,11799,1,0,0:0:0:0:
93,55,11799,1,0,0:0:0:0:
277,250,11799,1,0,0:0:0:0:
418,329,11799,1,0,0:0:0:0:
54,102,11799,1,0,0:0:0:0:
254,30,11799,1,0,0:0:0:0:
295,145,11799,1,0,0:0:0:0:
475,176,11799,1,0,0:0:0:0:
398,271,11799,1,0,0:0:0:0:
434,61,11799,1,0,0:0:0:0:
56,265,11799,1,0,0:0:0:0:
378,376,11799,1,0,0:0:0:0:
512,130,11799,1,0,0:0:0:0:
497,234,11799,1,0,0:0:0:0:
77,323,11799,1,0,0:0:0:0:
132,8,11799,1,0,0:0:0:0:
33,45,11799,1,0,0:0:0:0:
438,386,11799,1,0,0:0:0:0:
455,119,11799,1,0,0:0:0:0:
395,108,11799,1,0,0:0:0:0:
438,224,11799,1,0,0:0:0:0:
256,192,11852,5,0,0:0:0:0:
30,48,11852,1,0,0:0:0:0:
481,336,11852,1,0,0:0:0:0:
52,106,11852,1,0,0:0:0:0:
129,11,11852,1,0,0:0:0:0:
36,211,11852,1,0,0:0:0:0:
382,373,11852,1,0,0:0:0:0:
458,278,11852,1,0,0:0:0:0:
372,49,11852,1,0,0:0:0:0:
79,326,11852,1,0,0:0:0:0:
394,106,11852,1,0,0:0:0:0:
251,30,11852,1,0,0:0:0:0:
420,326,11852,1,0,0:0:0:0:
69,1,11852,1,0,0:0:0:0:
19,316,11852,1,0,0:0:0:0:
90,58,11852,1,0,0:0:0:0:
512,125,11852,1,0,0:0:0:0:
454,116,11852,1,0,0:0:0:0:
442,383,11852,1,0,0:0:0:0:
438,220,11852,1,0,0:0:0:0:
492,68,11852,1,0,0:0:0:0:
475,173,11852,1,0,0:0:0:0:
431,58,11852,1,0,0:0:0:0:
399,269,11852,1,0,0:0:0:0:
322,364,11852,1,0,0:0:0:0:
360,316,11852,1,0,0:0:0:0:
497,230,11852,1,0,0:0:0:0:
416,163,11852,1,0,0:0:0:0:
113,115,11852,1,0,0:0:0:0:
57,268,11852,1,0,0:0:0:0:
294,144,11852,1,0,0:0:0:0:
201,345,11852,1,0,0:0:0:0:
173,125,11852,1,0,0:0:0:0:
300,307,11852,1,0,0:0:0:0:
311,39,11852,1,0,0:0:0:0:
377,211,11852,1,0,0:0:0:0:
261,354,11852,1,0,0:0:0:0:
272,87,11852,1,0,0:0:0:0:
212,77,11852,1,0,0:0:0:0:
152,68,11852,1,0,0:0:0:0:
74,163,11852,1,0,0:0:0:0:
317,201,11852,1,0,0:0:0:0:
217,240,11852,1,0,0:0:0:0:
339,259,11852,1,0,0:0:0:0:
190,20,11852,1,0,0:0:0:0:
278,250,11852,1,0,0:0:0:0:
179,288,11852,1,0,0:0:0:0:
140,335,11852,1,0,0:0:0:0:
135,172,11852,1,0,0:0:0:0:
356,154,11852,1,0,0:0:0:0:
0,259,11852,1,0,0:0:0:0:
239,297,11852,1,0,0:0:0:0:
118,278,11852,1,0,0:0:0:0:
96,221,11852,1,0,0:0:0:0:
333,97,11852,1,0,0:0:0:0:
195,182,11852,1,0,0:0:0:0:
14,153,11852,1,0,0:0:0:0:
156,230,11852,1,0,0:0:0:0:
234,134,11852,1,0,0:0:0:0:
256,192,11904,5,0,0:0:0:0:
340,258,11904,1,0,0:0:0:0:
377,209,11904,1,0,0:0:0:0:
302,306,11904,1,0,0:0:0:0:
332,95,11904,1,0,0:0:0:0:
172,126,11904,1,0,0:0:0:0:
210,78,11904,1,0,0:0:0:0:
270,87,11904,1,0,0:0:0:0:
111,118,11904,1,0,0:0:0:0:
149,70,11904,1,0,0:0:0:0:
187,21,11904,1,0,0:0:0:0:
73,166,11904,1,0,0:0:0:0:
264,354,11904,1,0,0:0:0:0:
204,346,11904,1,0,0:0:0:0:
96,224,11904,1,0,0:0:0:0:
317,200,11904,1,0,0:0:0:0:
195,183,11904,1,0,0:0:0:0:
233,135,11904,1,0,0:0:0:0:
355,152,11904,1,0,0:0:0:0:
120,280,11904,1,0,0:0:0:0:
142,337,11904,1,0,0:0:0:0:
180,289,11904,1,0,0:0:0:0:
157,232,11904,1,0,0:0:0:0:
135,175,11904,1,0,0:0:0:0:
241,297,11904,1,0,0:0:0:0:
218,241,11904,1,0,0:0:0:0:
279,249,11904,1,0,0:0:0:0:
294,143,11904,1,0,0:0:0:0:
308,38,11904,1,0,0:0:0:0:
248,30,11904,1,0,0:0:0:0:
21,320,11904,1,0,0:0:0:0:
0,263,11904,1,0,0:0:0:0:
82,329,11904,1,0,0:0:0:0:
13,157,11904,1,0,0:0:0:0:
58,272,11904,1,0,0:0:0:0:
483,332,11904,1,0,0:0:0:0:
66,4,11904,1,0,0:0:0:0:
423,323,11904,1,0,0:0:0:0:
28,52,11904,1,0,0:0:0:0:
88,61,11904,1,0,0:0:0:0:
126,13,11904,1,0,0:0:0:0:
51,109,11904,1,0,0:0:0:0:
385,371,11904,1,0,0:0:0:0:
36,215,11904,1,0,0:0:0:0:
460,275,11904,1,0,0:0:0:0:
325,363,11904,1,0,0:0:0:0:
400,266,11904,1,0,0:0:0:0:
439,217,11904,1,0,0:0:0:0:
370,47,11904,1,0,0:0:0:0:
392,104,11904,1,0,0:0:0:0:
415,160,11904,1,0,0:0:0:0:
429,55,11904,1,0,0:0:0:0:
445,380,11904,1,0,0:0:0:0:
452,112,11904,1,0,0:0:0:0:
362,315,11904,1,0,0:0:0:0:
498,226,11904,1,0,0:0:0:0:
475,169,11904,1,0,0:0:0:0:
490,64,11904,1,0,0:0:0:0:
512,121,11904,1,0,0:0:0:0:
256,192,11957,5,0,0:0:0:0:
25,56,11957,1,0,0:0:0:0:
37,219,11957,1,0,0:0:0:0:
86,64,11957,1,0,0:0:0:0:
12,162,11957,1,0,0:0:0:0:
365,313,11957,1,0,0:0:0:0:
388,369,11957,1,0,0:0:0:0:
50,113,11957,1,0,0:0:0:0:
425,320,11957,1,0,0:0:0:0:
84,332,11957,1,0,0:0:0:0:
0,268,11957,1,0,0:0:0:0:
461,271,11957,1,0,0:0:0:0:
123,15,11957,1,0,0:0:0:0:
62,8,11957,1,0,0:0:0:0:
486,328,11957,1,0,0:0:0:0:
367,45,11957,1,0,0:0:0:0:
512,116,11957,1,0,0:0:0:0:
451,109,11957,1,0,0:0:0:0:
448,376,11957,1,0,0:0:0:0:
439,214,11957,1,0,0:0:0:0:
487,60,11957,1,0,0:0:0:0:
474,165,11957,1,0,0:0:0:0:
427,52,11957,1,0,0:0:0:0:
402,264,11957,1,0,0:0:0:0:
328,362,11957,1,0,0:0:0:0:
24,324,11957,1,0,0:0:0:0:
499,221,11957,1,0,0:0:0:0:
415,158,11957,1,0,0:0:0:0:
391,101,11957,1,0,0:0:0:0:
60,275,11957,1,0,0:0:0:0:
245,30,11957,1,0,0:0:0:0:
147,71,11957,1,0,0:0:0:0:
110,120,11957,1,0,0:0:0:0:
268,86,11957,1,0,0:0:0:0:
184,22,11957,1,0,0:0:0:0:
206,347,11957,1,0,0:0:0:0:
267,354,11957,1,0,0:0:0:0:
73,169,11957,1,0,0:0:0:0:
378,206,11957,1,0,0:0:0:0:
341,256,11957,1,0,0:0:0:0:
304,305,11957,1,0,0:0:0:0:
208,79,11957,1,0,0:0:0:0:
171,128,11957,1,0,0:0:0:0:
330,94,11957,1,0,0:0:0:0:
97,226,11957,1,0,0:0:0:0:
242,298,11957,1,0,0:0:0:0:
134,177,11957,1,0,0:0:0:0:
158,234,11957,1,0,0:0:0:0:
219,241,11957,1,0,0:0:0:0:
306,37,11957,1,0,0:0:0:0:
293,143,11957,1,0,0:0:0:0:
280,249,11957,1,0,0:0:0:0:
232,135,11957,1,0,0:0:0:0:
195,184,11957,1,0,0:0:0:0:
317,199,11957,1,0,0:0:0:0:
354,150,11957,1,0,0:0:0:0:
182,290,11957,1,0,0:0:0:0:
145,339,11957,1,0,0:0:0:0:
121,283,11957,1,0,0:0:0:0:
256,192,12010,5,0,0:0:0:0:
73,172,12010,1,0,0:0:0:0:
195,185,12010,1,0,0:0:0:0:
270,354,12010,1,0,0:0:0:0:
209,347,12010,1,0,0:0:0:0:
342,255,12010,1,0,0:0:0:0:
306,304,12010,1,0,0:0:0:0:
485,56,12010,1,0,0:0:0:0:
378,204,12010,1,0,0:0:0:0:
331,360,12010,1,0,0:0:0:0:
414,155,12010,1,0,0:0:0:0:
184,292,12010,1,0,0:0:0:0:
145,73,12010,1,0,0:0:0:0:
181,24,12010,1,0,0:0:0:0:
267,86,12010,1,0,0:0:0:0:
109,123,12010,1,0,0:0:0:0:
206,80,12010,1,0,0:0:0:0:
123,285,12010,1,0,0:0:0:0:
134,179,12010,1,0,0:0:0:0:
303,37,12010,1,0,0:0:0:0:
317,198,12010,1,0,0:0:0:0:
37,223,12010,1,0,0:0:0:0:
244,298,12010,1,0,0:0:0:0:
354,149,12010,1,0,0:0:0:0:
98,229,12010,1,0,0:0:0:0:
328,93,12010,1,0,0:0:0:0:
170,129,12010,1,0,0:0:0:0:
158,236,12010,1,0,0:0:0:0:
231,136,12010,1,0,0:0:0:0:
147,341,12010,1,0,0:0:0:0:
26,328,12010,1,0,0:0:0:0:
463,268,12010,1,0,0:0:0:0:
488,324,12010,1,0,0:0:0:0:
59,11,12010,1,0,0:0:0:0:
220,242,12010,1,0,0:0:0:0:
365,43,12010,1,0,0:0:0:0:
1,272,12010,1,0,0:0:0:0:
367,311,12010,1,0,0:0:0:0:
84,67,12010,1,0,0:0:0:0:
12,166,12010,1,0,0:0:0:0:
281,248,12010,1,0,0:0:0:0:
427,317,12010,1,0,0:0:0:0:
48,116,12010,1,0,0:0:0:0:
242,30,12010,1,0,0:0:0:0:
292,142,12010,1,0,0:0:0:0:
474,161,12010,1,0,0:0:0:0:
403,261,12010,1,0,0:0:0:0:
424,49,12010,1,0,0:0:0:0:
61,279,12010,1,0,0:0:0:0:
391,367,12010,1,0,0:0:0:0:
510,112,12010,1,0,0:0:0:0:
499,217,12010,1,0,0:0:0:0:
87,335,12010,1,0,0:0:0:0:
120,17,12010,1,0,0:0:0:0:
23,60,12010,1,0,0:0:0:0:
452,373,12010,1,0,0:0:0:0:
450,105,12010,1,0,0:0:0:0:
389,99,12010,1,0,0:0:0:0:
439,211,12010,1,0,0:0:0:0:
256,192,12063,5,0,0:0:0:0:
21,65,12063,1,0,0:0:0:0:
490,319,12063,1,0,0:0:0:0:
47,120,12063,1,0,0:0:0:0:
117,20,12063,1,0,0:0:0:0:
38,227,12063,1,0,0:0:0:0:
394,364,12063,1,0,0:0:0:0:
464,264,12063,1,0,0:0:0:0:
362,41,12063,1,0,0:0:0:0:
89,338,12063,1,0,0:0:0:0:
387,97,12063,1,0,0:0:0:0:
239,30,12063,1,0,0:0:0:0:
429,314,12063,1,0,0:0:0:0:
56,14,12063,1,0,0:0:0:0:
28,332,12063,1,0,0:0:0:0:
81,70,12063,1,0,0:0:0:0:
509,107,12063,1,0,0:0:0:0:
448,102,12063,1,0,0:0:0:0:
455,370,12063,1,0,0:0:0:0:
440,208,12063,1,0,0:0:0:0:
483,52,12063,1,0,0:0:0:0:
473,157,12063,1,0,0:0:0:0:
422,46,12063,1,0,0:0:0:0:
404,259,12063,1,0,0:0:0:0:
334,359,12063,1,0,0:0:0:0:
369,309,12063,1,0,0:0:0:0:
500,213,12063,1,0,0:0:0:0:
414,152,12063,1,0,0:0:0:0:
108,125,12063,1,0,0:0:0:0:
63,282,12063,1,0,0:0:0:0:
291,141,12063,1,0,0:0:0:0:
212,348,12063,1,0,0:0:0:0:
168,131,12063,1,0,0:0:0:0:
308,303,12063,1,0,0:0:0:0:
300,36,12063,1,0,0:0:0:0:
378,202,12063,1,0,0:0:0:0:
272,354,12063,1,0,0:0:0:0:
265,86,12063,1,0,0:0:0:0:
143,75,12063,1,0,0:0:0:0:
204,81,12063,1,0,0:0:0:0:
72,175,12063,1,0,0:0:0:0:
317,197,12063,1,0,0:0:0:0:
221,243,12063,1,0,0:0:0:0:
343,253,12063,1,0,0:0:0:0:
178,25,12063,1,0,0:0:0:0:
282,248,12063,1,0,0:0:0:0:
185,293,12063,1,0,0:0:0:0:
150,343,12063,1,0,0:0:0:0:
134,181,12063,1,0,0:0:0:0:
353,147,12063,1,0,0:0:0:0:
2,277,12063,1,0,0:0:0:0:
246,298,12063,1,0,0:0:0:0:
125,287,12063,1,0,0:0:0:0:
98,232,12063,1,0,0:0:0:0:
327,91,12063,1,0,0:0:0:0:
195,186,12063,1,0,0:0:0:0:
11,170,12063,1,0,0:0:0:0:
159,237,12063,1,0,0:0:0:0:
230,136,12063,1,0,0:0:0:0:
256,192,12115,5,0,0:0:0:0:
345,252,12115,1,0,0:0:0:0:
378,200,12115,1,0,0:0:0:0:
310,303,12115,1,0,0:0:0:0:
325,90,12115,1,0,0:0:0:0:
167,132,12115,1,0,0:0:0:0:
202,82,12115,1,0,0:0:0:0:
263,86,12115,1,0,0:0:0:0:
107,128,12115,1,0,0:0:0:0:
141,77,12115,1,0,0:0:0:0:
175,26,12115,1,0,0:0:0:0:
72,179,12115,1,0,0:0:0:0:
275,353,12115,1,0,0:0:0:0:
214,349,12115,1,0,0:0:0:0:
99,235,12115,1,0,0:0:0:0:
317,196,12115,1,0,0:0:0:0:
195,187,12115,1,0,0:0:0:0:
229,137,12115,1,0,0:0:0:0:
352,145,12115,1,0,0:0:0:0:
126,290,12115,1,0,0:0:0:0:
153,345,12115,1,0,0:0:0:0:
187,294,12115,1,0,0:0:0:0:
160,239,12115,1,0,0:0:0:0:
134,183,12115,1,0,0:0:0:0:
248,298,12115,1,0,0:0:0:0:
222,243,12115,1,0,0:0:0:0:
283,248,12115,1,0,0:0:0:0:
290,141,12115,1,0,0:0:0:0:
298,35,12115,1,0,0:0:0:0:
237,31,12115,1,0,0:0:0:0:
31,336,12115,1,0,0:0:0:0:
4,281,12115,1,0,0:0:0:0:
92,340,12115,1,0,0:0:0:0:
11,174,12115,1,0,0:0:0:0:
64,285,12115,1,0,0:0:0:0:
492,315,12115,1,0,0:0:0:0:
53,18,12115,1,0,0:0:0:0:
432,311,12115,1,0,0:0:0:0:
79,73,12115,1,0,0:0:0:0:
18,69,12115,1,0,0:0:0:0:
114,22,12115,1,0,0:0:0:0:
46,124,12115,1,0,0:0:0:0:
397,362,12115,1,0,0:0:0:0:
38,230,12115,1,0,0:0:0:0:
465,260,12115,1,0,0:0:0:0:
337,358,12115,1,0,0:0:0:0:
405,256,12115,1,0,0:0:0:0:
440,204,12115,1,0,0:0:0:0:
359,39,12115,1,0,0:0:0:0:
386,94,12115,1,0,0:0:0:0:
413,149,12115,1,0,0:0:0:0:
419,44,12115,1,0,0:0:0:0:
458,366,12115,1,0,0:0:0:0:
446,99,12115,1,0,0:0:0:0:
371,307,12115,1,0,0:0:0:0:
500,209,12115,1,0,0:0:0:0:
473,154,12115,1,0,0:0:0:0:
480,48,12115,1,0,0:0:0:0:
507,103,12115,1,0,0:0:0:0:
256,192,12168,5,0,0:0:0:0:
16,73,12168,1,0,0:0:0:0:
39,234,12168,1,0,0:0:0:0:
77,76,12168,1,0,0:0:0:0:
11,179,12168,1,0,0:0:0:0:
373,305,12168,1,0,0:0:0:0:
400,359,12168,1,0,0:0:0:0:
45,127,12168,1,0,0:0:0:0:
434,308,12168,1,0,0:0:0:0:
94,343,12168,1,0,0:0:0:0:
5,286,12168,1,0,0:0:0:0:
466,257,12168,1,0,0:0:0:0:
111,25,12168,1,0,0:0:0:0:
50,22,12168,1,0,0:0:0:0:
495,311,12168,1,0,0:0:0:0:
357,38,12168,1,0,0:0:0:0:
506,98,12168,1,0,0:0:0:0:
445,95,12168,1,0,0:0:0:0:
461,362,12168,1,0,0:0:0:0:
440,201,12168,1,0,0:0:0:0:
478,44,12168,1,0,0:0:0:0:
472,150,12168,1,0,0:0:0:0:
417,41,12168,1,0,0:0:0:0:
406,253,12168,1,0,0:0:0:0:
340,356,12168,1,0,0:0:0:0:
33,340,12168,1,0,0:0:0:0:
500,204,12168,1,0,0:0:0:0:
412,147,12168,1,0,0:0:0:0:
384,92,12168,1,0,0:0:0:0:
66,289,12168,1,0,0:0:0:0:
234,31,12168,1,0,0:0:0:0:
139,79,12168,1,0,0:0:0:0:
105,131,12168,1,0,0:0:0:0:
261,86,12168,1,0,0:0:0:0:
172,28,12168,1,0,0:0:0:0:
217,350,12168,1,0,0:0:0:0:
278,353,12168,1,0,0:0:0:0:
72,182,12168,1,0,0:0:0:0:
346,250,12168,1,0,0:0:0:0:
378,198,12168,1,0,0:0:0:0:
312,302,12168,1,0,0:0:0:0:
200,82,12168,1,0,0:0:0:0:
166,134,12168,1,0,0:0:0:0:
323,89,12168,1,0,0:0:0:0:
100,237,12168,1,0,0:0:0:0:
250,298,12168,1,0,0:0:0:0:
134,185,12168,1,0,0:0:0:0:
161,241,12168,1,0,0:0:0:0:
223,244,12168,1,0,0:0:0:0:
295,34,12168,1,0,0:0:0:0:
289,140,12168,1,0,0:0:0:0:
284,247,12168,1,0,0:0:0:0:
228,137,12168,1,0,0:0:0:0:
195,188,12168,1,0,0:0:0:0:
317,195,12168,1,0,0:0:0:0:
351,143,12168,1,0,0:0:0:0:
189,295,12168,1,0,0:0:0:0:
155,346,12168,1,0,0:0:0:0:
128,292,12168,1,0,0:0:0:0:
256,192,12221,5,0,0:0:0:0:
72,185,12221,1,0,0:0:0:0:
195,189,12221,1,0,0:0:0:0:
281,352,12221,1,0,0:0:0:0:
220,350,12221,1,0,0:0:0:0:
347,249,12221,1,0,0:0:0:0:
314,301,12221,1,0,0:0:0:0:
475,40,12221,1,0,0:0:0:0:
378,196,12221,1,0,0:0:0:0:
343,355,12221,1,0,0:0:0:0:
411,144,12221,1,0,0:0:0:0:
191,296,12221,1,0,0:0:0:0:
137,81,12221,1,0,0:0:0:0:
169,29,12221,1,0,0:0:0:0:
259,86,12221,1,0,0:0:0:0:
104,133,12221,1,0,0:0:0:0:
198,83,12221,1,0,0:0:0:0:
130,294,12221,1,0,0:0:0:0:
134,187,12221,1,0,0:0:0:0:
292,34,12221,1,0,0:0:0:0:
317,194,12221,1,0,0:0:0:0:
40,238,12221,1,0,0:0:0:0:
252,298,12221,1,0,0:0:0:0:
350,142,12221,1,0,0:0:0:0:
101,240,12221,1,0,0:0:0:0:
321,88,12221,1,0,0:0:0:0:
165,135,12221,1,0,0:0:0:0:
162,242,12221,1,0,0:0:0:0:
227,137,12221,1,0,0:0:0:0:
158,348,12221,1,0,0:0:0:0:
36,344,12221,1,0,0:0:0:0:
467,253,12221,1,0,0:0:0:0:
497,307,12221,1,0,0:0:0:0:
47,25,12221,1,0,0:0:0:0:
224,244,12221,1,0,0:0:0:0:
354,36,12221,1,0,0:0:0:0:
7,290,12221,1,0,0:0:0:0:
375,303,12221,1,0,0:0:0:0:
11,183,12221,1,0,0:0:0:0:
75,79,12221,1,0,0:0:0:0:
285,247,12221,1,0,0:0:0:0:
436,305,12221,1,0,0:0:0:0:
43,131,12221,1,0,0:0:0:0:
231,32,12221,1,0,0:0:0:0:
288,140,12221,1,0,0:0:0:0:
471,146,12221,1,0,0:0:0:0:
408,251,12221,1,0,0:0:0:0:
414,38,12221,1,0,0:0:0:0:
68,292,12221,1,0,0:0:0:0:
403,357,12221,1,0,0:0:0:0:
504,94,12221,1,0,0:0:0:0:
500,200,12221,1,0,0:0:0:0:
97,346,12221,1,0,0:0:0:0:
108,27,12221,1,0,0:0:0:0:
14,77,12221,1,0,0:0:0:0:
464,359,12221,1,0,0:0:0:0:
443,92,12221,1,0,0:0:0:0:
382,90,12221,1,0,0:0:0:0:
440,198,12221,1,0,0:0:0:0:
256,192,12274,5,0,0:0:0:0:
12,81,12274,1,0,0:0:0:0:
499,303,12274,1,0,0:0:0:0:
42,135,12274,1,0,0:0:0:0:
105,30,12274,1,0,0:0:0:0:
41,242,12274,1,0,0:0:0:0:
406,354,12274,1,0,0:0:0:0:
469,249,12274,1,0,0:0:0:0:
351,34,12274,1,0,0:0:0:0:
100,349,12274,1,0,0:0:0:0:
380,88,12274,1,0,0:0:0:0:
228,32,12274,1,0,0:0:0:0:
438,302,12274,1,0,0:0:0:0:
44,29,12274,1,0,0:0:0:0:
39,348,12274,1,0,0:0:0:0:
73,82,12274,1,0,0:0:0:0:
502,90,12274,1,0,0:0:0:0:
441,89,12274,1,0,0:0:0:0:
467,355,12274,1,0,0:0:0:0:
440,195,12274,1,0,0:0:0:0:
472,36,12274,1,0,0:0:0:0:
470,142,12274,1,0,0:0:0:0:
411,35,12274,1,0,0:0:0:0:
409,248,12274,1,0,0:0:0:0:
346,353,12274,1,0,0:0:0:0:
377,301,12274,1,0,0:0:0:0:
500,196,12274,1,0,0:0:0:0:
410,141,12274,1,0,0:0:0:0:
103,136,12274,1,0,0:0:0:0:
70,295,12274,1,0,0:0:0:0:
287,139,12274,1,0,0:0:0:0:
223,351,12274,1,0,0:0:0:0:
164,137,12274,1,0,0:0:0:0:
316,300,12274,1,0,0:0:0:0:
289,33,12274,1,0,0:0:0:0:
378,194,12274,1,0,0:0:0:0:
284,352,12274,1,0,0:0:0:0:
257,86,12274,1,0,0:0:0:0:
196,84,12274,1,0,0:0:0:0:
135,83,12274,1,0,0:0:0:0:
72,188,12274,1,0,0:0:0:0:
317,193,12274,1,0,0:0:0:0:
225,245,12274,1,0,0:0:0:0:
348,247,12274,1,0,0:0:0:0:
166,31,12274,1,0,0:0:0:0:
286,246,12274,1,0,0:0:0:0:
193,297,12274,1,0,0:0:0:0:
161,350,12274,1,0,0:0:0:0:
134,189,12274,1,0,0:0:0:0:
349,140,12274,1,0,0:0:0:0:
9,294,12274,1,0,0:0:0:0:
254,298,12274,1,0,0:0:0:0:
132,296,12274,1,0,0:0:0:0:
102,243,12274,1,0,0:0:0:0:
319,87,12274,1,0,0:0:0:0:
195,190,12274,1,0,0:0:0:0:
11,187,12274,1,0,0:0:0:0:
163,244,12274,1,0,0:0:0:0:
226,138,12274,1,0,0:0:0:0:
256,192,12327,5,0,0:0:0:0:
134,86,12327,1,0,0:0:0:0:
195,86,12327,1,0,0:0:0:0:
256,85,12327,1,0,0:0:0:0:
72,192,12327,1,0,0:0:0:0:
348,245,12327,1,0,0:0:0:0:
226,246,12327,1,0,0:0:0:0:
318,191,12327,1,0,0:0:0:0:
164,139,12327,1,0,0:0:0:0:
226,352,12327,1,0,0:0:0:0:
287,138,12327,1,0,0:0:0:0:
318,299,12327,1,0,0:0:0:0:
287,351,12327,1,0,0:0:0:0:
379,192,12327,1,0,0:0:0:0:
287,32,12327,1,0,0:0:0:0:
163,32,12327,1,0,0:0:0:0:
317,85,12327,1,0,0:0:0:0:
103,246,12327,1,0,0:0:0:0:
134,298,12327,1,0,0:0:0:0:
194,192,12327,1,0,0:0:0:0:
225,139,12327,1,0,0:0:0:0:
163,245,12327,1,0,0:0:0:0:
11,192,12327,1,0,0:0:0:0:
163,352,12327,1,0,0:0:0:0:
195,299,12327,1,0,0:0:0:0:
286,245,12327,1,0,0:0:0:0:
133,192,12327,1,0,0:0:0:0:
255,298,12327,1,0,0:0:0:0:
11,299,12327,1,0,0:0:0:0:
348,138,12327,1,0,0:0:0:0:
72,298,12327,1,0,0:0:0:0:
103,351,12327,1,0,0:0:0:0:
348,33,12327,1,0,0:0:0:0:
470,246,12327,1,0,0:0:0:0:
379,86,12327,1,0,0:0:0:0:
42,33,12327,1,0,0:0:0:0:
440,298,12327,1,0,0:0:0:0:
226,32,12327,1,0,0:0:0:0:
501,298,12327,1,0,0:0:0:0:
11,86,12327,1,0,0:0:0:0:
42,139,12327,1,0,0:0:0:0:
408,351,12327,1,0,0:0:0:0:
42,246,12327,1,0,0:0:0:0:
102,33,12327,1,0,0:0:0:0:
41,352,12327,1,0,0:0:0:0:
348,351,12327,1,0,0:0:0:0:
410,245,12327,1,0,0:0:0:0:
409,32,12327,1,0,0:0:0:0:
378,299,12327,1,0,0:0:0:0:
103,139,12327,1,0,0:0:0:0:
409,138,12327,1,0,0:0:0:0:
501,192,12327,1,0,0:0:0:0:
440,86,12327,1,0,0:0:0:0:
501,86,12327,1,0,0:0:0:0:
71,86,12327,1,0,0:0:0:0:
470,352,12327,1,0,0:0:0:0:
470,138,12327,1,0,0:0:0:0:
469,33,12327,1,0,0:0:0:0:
441,192,12327,1,0,0:0:0:0:
256,192,12749,5,0,0:0:0:0:
42,351,12749,1,0,0:0:0:0:
42,245,12749,1,0,0:0:0:0:
11,298,12749,1,0,0:0:0:0:
72,298,12749,1,0,0:0:0:0:
42,32,12749,1,0,0:0:0:0:
11,192,12749,1,0,0:0:0:0:
103,351,12749,1,0,0:0:0:0:
102,245,12749,1,0,0:0:0:0:
133,298,12749,1,0,0:0:0:0:
163,351,12749,1,0,0:0:0:0:
71,192,12749,1,0,0:0:0:0:
102,138,12749,1,0,0:0:0:0:
163,32,12749,1,0,0:0:0:0:
133,85,12749,1,0,0:0:0:0:
103,32,12749,1,0,0:0:0:0:
470,245,12749,1,0,0:0:0:0:
501,192,12749,1,0,0:0:0:0:
470,138,12749,1,0,0:0:0:0:
501,298,12749,1,0,0:0:0:0:
440,298,12749,1,0,0:0:0:0:
409,351,12749,1,0,0:0:0:0:
470,351,12749,1,0,0:0:0:0:
11,85,12749,1,0,0:0:0:0:
42,138,12749,1,0,0:0:0:0:
72,85,12749,1,0,0:0:0:0:
409,32,12749,1,0,0:0:0:0:
501,85,12749,1,0,0:0:0:0:
440,85,12749,1,0,0:0:0:0:
470,32,12749,1,0,0:0:0:0:
225,351,12749,1,0,0:0:0:0:
225,245,12749,1,0,0:0:0:0:
225,138,12749,1,0,0:0:0:0:
286,138,12749,1,0,0:0:0:0:
256,85,12749,1,0,0:0:0:0:
378,192,12749,1,0,0:0:0:0:
348,138,12749,1,0,0:0:0:0:
317,85,12749,1,0,0:0:0:0:
348,32,12749,1,0,0:0:0:0:
378,85,12749,1,0,0:0:0:0:
163,245,12749,1,0,0:0:0:0:
286,245,12749,1,0,0:0:0:0:
317,192,12749,1,0,0:0:0:0:
194,192,12749,1,0,0:0:0:0:
348,245,12749,1,0,0:0:0:0:
440,192,12749,1,0,0:0:0:0:
409,138,12749,1,0,0:0:0:0:
286,32,12749,1,0,0:0:0:0:
409,245,12749,1,0,0:0:0:0:
286,351,12749,1,0,0:0:0:0:
348,351,12749,1,0,0:0:0:0:
378,298,12749,1,0,0:0:0:0:
194,298,12749,1,0,0:0:0:0:
256,298,12749,1,0,0:0:0:0:
317,298,12749,1,0,0:0:0:0:
133,192,12749,1,0,0:0:0:0:
225,32,12749,1,0,0:0:0:0:
194,85,12749,1,0,0:0:0:0:
163,138,12749,1,0,0:0:0:0:
287,174,12960,5,0,0:0:0:0:
409,67,12960,1,0,0:0:0:0:
194,227,12960,1,0,0:0:0:0:
225,174,12960,1,0,0:0:0:0:
348,174,12960,1,0,0:0:0:0:
317,227,12960,1,0,0:0:0:0:
317,120,12960,1,0,0:0:0:0:
256,120,12960,1,0,0:0:0:0:
256,227,12960,1,0,0:0:0:0:
287,67,12960,1,0,0:0:0:0:
348,67,12960,1,0,0:0:0:0:
379,120,12960,1,0,0:0:0:0:
409,174,12960,1,0,0:0:0:0:
379,227,12960,1,0,0:0:0:0:
348,280,12960,1,0,0:0:0:0:
287,280,12960,1,0,0:0:0:0:
225,280,12960,1,0,0:0:0:0:
164,174,12960,1,0,0:0:0:0:
194,120,12960,1,0,0:0:0:0:
225,67,12960,1,0,0:0:0:0:
440,120,12960,1,0,0:0:0:0:
471,174,12960,1,0,0:0:0:0:
440,227,12960,1,0,0:0:0:0:
409,280,12960,1,0,0:0:0:0:
379,333,12960,1,0,0:0:0:0:
317,333,12960,1,0,0:0:0:0:
256,333,12960,1,0,0:0:0:0:
194,333,12960,1,0,0:0:0:0:
164,280,12960,1,0,0:0:0:0:
133,227,12960,1,0,0:0:0:0:
102,174,12960,1,0,0:0:0:0:
164,67,12960,1,0,0:0:0:0:
133,120,12960,1,0,0:0:0:0:
42,280,12960,1,0,0:0:0:0:
73,227,12960,1,0,0:0:0:0:
73,333,12960,1,0,0:0:0:0:
103,280,12960,1,0,0:0:0:0:
134,333,12960,1,0,0:0:0:0:
42,174,12960,1,0,0:0:0:0:
103,67,12960,1,0,0:0:0:0:
73,120,12960,1,0,0:0:0:0:
42,67,12960,1,0,0:0:0:0:
471,67,12960,1,0,0:0:0:0:
440,333,12960,1,0,0:0:0:0:
471,280,12960,1,0,0:0:0:0:
256,192,13172,5,0,0:0:0:0:
11,85,13172,1,0,0:0:0:0:
42,138,13172,1,0,0:0:0:0:
72,85,13172,1,0,0:0:0:0:
440,298,13172,1,0,0:0:0:0:
409,351,13172,1,0,0:0:0:0:
470,351,13172,1,0,0:0:0:0:
440,85,13172,1,0,0:0:0:0:
470,32,13172,1,0,0:0:0:0:
225,351,13172,1,0,0:0:0:0:
225,245,13172,1,0,0:0:0:0:
409,32,13172,1,0,0:0:0:0:
501,85,13172,1,0,0:0:0:0:
501,298,13172,1,0,0:0:0:0:
163,351,13172,1,0,0:0:0:0:
71,192,13172,1,0,0:0:0:0:
102,138,13172,1,0,0:0:0:0:
103,351,13172,1,0,0:0:0:0:
102,245,13172,1,0,0:0:0:0:
133,298,13172,1,0,0:0:0:0:
470,245,13172,1,0,0:0:0:0:
501,192,13172,1,0,0:0:0:0:
470,138,13172,1,0,0:0:0:0:
163,32,13172,1,0,0:0:0:0:
133,85,13172,1,0,0:0:0:0:
103,32,13172,1,0,0:0:0:0:
409,245,13172,1,0,0:0:0:0:
286,351,13172,1,0,0:0:0:0:
348,351,13172,1,0,0:0:0:0:
440,192,13172,1,0,0:0:0:0:
378,85,13172,1,0,0:0:0:0:
286,32,13172,1,0,0:0:0:0:
378,298,13172,1,0,0:0:0:0:
317,85,13172,1,0,0:0:0:0:
409,138,13172,1,0,0:0:0:0:
194,85,13172,1,0,0:0:0:0:
194,298,13172,1,0,0:0:0:0:
133,192,13172,1,0,0:0:0:0:
317,298,13172,1,0,0:0:0:0:
378,192,13172,1,0,0:0:0:0:
256,298,13172,1,0,0:0:0:0:
225,138,13172,1,0,0:0:0:0:
286,138,13172,1,0,0:0:0:0:
348,138,13172,1,0,0:0:0:0:
225,32,13172,1,0,0:0:0:0:
317,192,13172,1,0,0:0:0:0:
194,192,13172,1,0,0:0:0:0:
163,138,13172,1,0,0:0:0:0:
348,32,13172,1,0,0:0:0:0:
163,245,13172,1,0,0:0:0:0:
286,245,13172,1,0,0:0:0:0:
348,245,13172,1,0,0:0:0:0:
42,351,13172,1,0,0:0:0:0:
11,192,13172,1,0,0:0:0:0:
256,85,13172,1,0,0:0:0:0:
42,245,13172,1,0,0:0:0:0:
42,32,13172,1,0,0:0:0:0:
72,298,13172,1,0,0:0:0:0:
11,298,13172,1,0,0:0:0:0:
287,174,13383,5,0,0:0:0:0:
73,120,13383,1,0,0:0:0:0:
471,67,13383,1,0,0:0:0:0:
42,67,13383,1,0,0:0:0:0:
194,333,13383,1,0,0:0:0:0:
256,333,13383,1,0,0:0:0:0:
471,280,13383,1,0,0:0:0:0:
73,227,13383,1,0,0:0:0:0:
103,280,13383,1,0,0:0:0:0:
73,333,13383,1,0,0:0:0:0:
440,333,13383,1,0,0:0:0:0:
103,67,13383,1,0,0:0:0:0:
133,227,13383,1,0,0:0:0:0:
164,67,13383,1,0,0:0:0:0:
102,174,13383,1,0,0:0:0:0:
287,67,13383,1,0,0:0:0:0:
287,280,13383,1,0,0:0:0:0:
42,280,13383,1,0,0:0:0:0:
409,280,13383,1,0,0:0:0:0:
317,333,13383,1,0,0:0:0:0:
379,333,13383,1,0,0:0:0:0:
133,120,13383,1,0,0:0:0:0:
164,280,13383,1,0,0:0:0:0:
42,174,13383,1,0,0:0:0:0:
440,120,13383,1,0,0:0:0:0:
440,227,13383,1,0,0:0:0:0:
194,120,13383,1,0,0:0:0:0:
348,174,13383,1,0,0:0:0:0:
225,67,13383,1,0,0:0:0:0:
471,174,13383,1,0,0:0:0:0:
348,280,13383,1,0,0:0:0:0:
409,174,13383,1,0,0:0:0:0:
164,174,13383,1,0,0:0:0:0:
379,227,13383,1,0,0:0:0:0:
225,280,13383,1,0,0:0:0:0:
379,120,13383,1,0,0:0:0:0:
256,120,13383,1,0,0:0:0:0:
134,333,13383,1,0,0:0:0:0:
256,227,13383,1,0,0:0:0:0:
348,67,13383,1,0,0:0:0:0:
225,174,13383,1,0,0:0:0:0:
317,227,13383,1,0,0:0:0:0:
409,67,13383,1,0,0:0:0:0:
317,120,13383,1,0,0:0:0:0:
194,227,13383,1,0,0:0:0:0:
256,192,13594,5,0,0:0:0:0:
378,192,13594,1,0,0:0:0:0:
317,298,13594,1,0,0:0:0:0:
256,298,13594,1,0,0:0:0:0:
348,138,13594,1,0,0:0:0:0:
286,138,13594,1,0,0:0:0:0:
225,138,13594,1,0,0:0:0:0:
317,85,13594,1,0,0:0:0:0:
378,298,13594,1,0,0:0:0:0:
286,32,13594,1,0,0:0:0:0:
409,138,13594,1,0,0:0:0:0:
133,192,13594,1,0,0:0:0:0:
194,298,13594,1,0,0:0:0:0:
194,85,13594,1,0,0:0:0:0:
225,32,13594,1,0,0:0:0:0:
256,85,13594,1,0,0:0:0:0:
11,192,13594,1,0,0:0:0:0:
42,351,13594,1,0,0:0:0:0:
42,245,13594,1,0,0:0:0:0:
11,298,13594,1,0,0:0:0:0:
72,298,13594,1,0,0:0:0:0:
42,32,13594,1,0,0:0:0:0:
163,138,13594,1,0,0:0:0:0:
194,192,13594,1,0,0:0:0:0:
317,192,13594,1,0,0:0:0:0:
348,32,13594,1,0,0:0:0:0:
348,245,13594,1,0,0:0:0:0:
286,245,13594,1,0,0:0:0:0:
163,245,13594,1,0,0:0:0:0:
378,85,13594,1,0,0:0:0:0:
225,245,13594,1,0,0:0:0:0:
225,351,13594,1,0,0:0:0:0:
470,32,13594,1,0,0:0:0:0:
409,32,13594,1,0,0:0:0:0:
163,351,13594,1,0,0:0:0:0:
501,298,13594,1,0,0:0:0:0:
501,85,13594,1,0,0:0:0:0:
72,85,13594,1,0,0:0:0:0:
42,138,13594,1,0,0:0:0:0:
11,85,13594,1,0,0:0:0:0:
440,298,13594,1,0,0:0:0:0:
440,85,13594,1,0,0:0:0:0:
470,351,13594,1,0,0:0:0:0:
409,351,13594,1,0,0:0:0:0:
71,192,13594,1,0,0:0:0:0:
103,32,13594,1,0,0:0:0:0:
133,85,13594,1,0,0:0:0:0:
163,32,13594,1,0,0:0:0:0:
409,245,13594,1,0,0:0:0:0:
440,192,13594,1,0,0:0:0:0:
348,351,13594,1,0,0:0:0:0:
286,351,13594,1,0,0:0:0:0:
102,245,13594,1,0,0:0:0:0:
103,351,13594,1,0,0:0:0:0:
102,138,13594,1,0,0:0:0:0:
133,298,13594,1,0,0:0:0:0:
470,138,13594,1,0,0:0:0:0:
501,192,13594,1,0,0:0:0:0:
470,245,13594,1,0,0:0:0:0:
287,174,13805,5,0,0:0:0:0:
348,280,13805,1,0,0:0:0:0:
409,174,13805,1,0,0:0:0:0:
379,227,13805,1,0,0:0:0:0:
164,174,13805,1,0,0:0:0:0:
471,174,13805,1,0,0:0:0:0:
440,227,13805,1,0,0:0:0:0:
440,120,13805,1,0,0:0:0:0:
194,120,13805,1,0,0:0:0:0:
225,67,13805,1,0,0:0:0:0:
348,174,13805,1,0,0:0:0:0:
317,227,13805,1,0,0:0:0:0:
225,174,13805,1,0,0:0:0:0:
409,67,13805,1,0,0:0:0:0:
194,227,13805,1,0,0:0:0:0:
317,120,13805,1,0,0:0:0:0:
348,67,13805,1,0,0:0:0:0:
379,120,13805,1,0,0:0:0:0:
225,280,13805,1,0,0:0:0:0:
256,120,13805,1,0,0:0:0:0:
256,227,13805,1,0,0:0:0:0:
134,333,13805,1,0,0:0:0:0:
42,174,13805,1,0,0:0:0:0:
103,280,13805,1,0,0:0:0:0:
73,227,13805,1,0,0:0:0:0:
73,333,13805,1,0,0:0:0:0:
103,67,13805,1,0,0:0:0:0:
440,333,13805,1,0,0:0:0:0:
471,280,13805,1,0,0:0:0:0:
471,67,13805,1,0,0:0:0:0:
73,120,13805,1,0,0:0:0:0:
42,67,13805,1,0,0:0:0:0:
256,333,13805,1,0,0:0:0:0:
194,333,13805,1,0,0:0:0:0:
317,333,13805,1,0,0:0:0:0:
409,280,13805,1,0,0:0:0:0:
379,333,13805,1,0,0:0:0:0:
164,280,13805,1,0,0:0:0:0:
133,120,13805,1,0,0:0:0:0:
42,280,13805,1,0,0:0:0:0:
164,67,13805,1,0,0:0:0:0:
133,227,13805,1,0,0:0:0:0:
102,174,13805,1,0,0:0:0:0:
287,280,13805,1,0,0:0:0:0:
287,67,13805,1,0,0:0:0:0:
256,192,14017,5,0,0:0:0:0:
11,85,14017,1,0,0:0:0:0:
42,138,14017,1,0,0:0:0:0:
72,85,14017,1,0,0:0:0:0:
440,298,14017,1,0,0:0:0:0:
409,351,14017,1,0,0:0:0:0:
470,351,14017,1,0,0:0:0:0:
440,85,14017,1,0,0:0:0:0:
470,32,14017,1,0,0:0:0:0:
225,351,14017,1,0,0:0:0:0:
225,245,14017,1,0,0:0:0:0:
409,32,14017,1,0,0:0:0:0:
501,85,14017,1,0,0:0:0:0:
501,298,14017,1,0,0:0:0:0:
163,351,14017,1,0,0:0:0:0:
71,192,14017,1,0,0:0:0:0:
102,138,14017,1,0,0:0:0:0:
103,351,14017,1,0,0:0:0:0:
102,245,14017,1,0,0:0:0:0:
133,298,14017,1,0,0:0:0:0:
470,245,14017,1,0,0:0:0:0:
501,192,14017,1,0,0:0:0:0:
470,138,14017,1,0,0:0:0:0:
163,32,14017,1,0,0:0:0:0:
133,85,14017,1,0,0:0:0:0:
103,32,14017,1,0,0:0:0:0:
409,245,14017,1,0,0:0:0:0:
286,351,14017,1,0,0:0:0:0:
348,351,14017,1,0,0:0:0:0:
440,192,14017,1,0,0:0:0:0:
378,85,14017,1,0,0:0:0:0:
286,32,14017,1,0,0:0:0:0:
378,298,14017,1,0,0:0:0:0:
317,85,14017,1,0,0:0:0:0:
409,138,14017,1,0,0:0:0:0:
194,85,14017,1,0,0:0:0:0:
194,298,14017,1,0,0:0:0:0:
133,192,14017,1,0,0:0:0:0:
317,298,14017,1,0,0:0:0:0:
378,192,14017,1,0,0:0:0:0:
256,298,14017,1,0,0:0:0:0:
225,138,14017,1,0,0:0:0:0:
286,138,14017,1,0,0:0:0:0:
348,138,14017,1,0,0:0:0:0:
225,32,14017,1,0,0:0:0:0:
317,192,14017,1,0,0:0:0:0:
194,192,14017,1,0,0:0:0:0:
163,138,14017,1,0,0:0:0:0:
348,32,14017,1,0,0:0:0:0:
163,245,14017,1,0,0:0:0:0:
286,245,14017,1,0,0:0:0:0:
348,245,14017,1,0,0:0:0:0:
42,351,14017,1,0,0:0:0:0:
11,192,14017,1,0,0:0:0:0:
256,85,14017,1,0,0:0:0:0:
42,245,14017,1,0,0:0:0:0:
42,32,14017,1,0,0:0:0:0:
72,298,14017,1,0,0:0:0:0:
11,298,14017,1,0,0:0:0:0:
287,174,14228,5,0,0:0:0:0:
73,120,14228,1,0,0:0:0:0:
471,67,14228,1,0,0:0:0:0:
42,67,14228,1,0,0:0:0:0:
194,333,14228,1,0,0:0:0:0:
256,333,14228,1,0,0:0:0:0:
471,280,14228,1,0,0:0:0:0:
73,227,14228,1,0,0:0:0:0:
103,280,14228,1,0,0:0:0:0:
73,333,14228,1,0,0:0:0:0:
440,333,14228,1,0,0:0:0:0:
103,67,14228,1,0,0:0:0:0:
133,227,14228,1,0,0:0:0:0:
164,67,14228,1,0,0:0:0:0:
102,174,14228,1,0,0:0:0:0:
287,67,14228,1,0,0:0:0:0:
287,280,14228,1,0,0:0:0:0:
42,280,14228,1,0,0:0:0:0:
409,280,14228,1,0,0:0:0:0:
317,333,14228,1,0,0:0:0:0:
379,333,14228,1,0,0:0:0:0:
133,120,14228,1,0,0:0:0:0:
164,280,14228,1,0,0:0:0:0:
42,174,14228,1,0,0:0:0:0:
440,120,14228,1,0,0:0:0:0:
440,227,14228,1,0,0:0:0:0:
194,120,14228,1,0,0:0:0:0:
348,174,14228,1,0,0:0:0:0:
225,67,14228,1,0,0:0:0:0:
471,174,14228,1,0,0:0:0:0:
348,280,14228,1,0,0:0:0:0:
409,174,14228,1,0,0:0:0:0:
164,174,14228,1,0,0:0:0:0:
379,227,14228,1,0,0:0:0:0:
225,280,14228,1,0,0:0:0:0:
379,120,14228,1,0,0:0:0:0:
256,120,14228,1,0,0:0:0:0:
134,333,14228,1,0,0:0:0:0:
256,227,14228,1,0,0:0:0:0:
348,67,14228,1,0,0:0:0:0:
225,174,14228,1,0,0:0:0:0:
317,227,14228,1,0,0:0:0:0:
409,67,14228,1,0,0:0:0:0:
317,120,14228,1,0,0:0:0:0:
194,227,14228,1,0,0:0:0:0:
287,174,14439,5,0,0:0:0:0:
348,280,14439,1,0,0:0:0:0:
471,174,14439,1,0,0:0:0:0:
409,174,14439,1,0,0:0:0:0:
379,227,14439,1,0,0:0:0:0:
164,174,14439,1,0,0:0:0:0:
225,67,14439,1,0,0:0:0:0:
440,120,14439,1,0,0:0:0:0:
42,174,14439,1,0,0:0:0:0:
440,227,14439,1,0,0:0:0:0:
348,174,14439,1,0,0:0:0:0:
194,120,14439,1,0,0:0:0:0:
317,227,14439,1,0,0:0:0:0:
225,174,14439,1,0,0:0:0:0:
409,67,14439,1,0,0:0:0:0:
194,227,14439,1,0,0:0:0:0:
317,120,14439,1,0,0:0:0:0:
348,67,14439,1,0,0:0:0:0:
379,120,14439,1,0,0:0:0:0:
225,280,14439,1,0,0:0:0:0:
256,120,14439,1,0,0:0:0:0:
256,227,14439,1,0,0:0:0:0:
134,333,14439,1,0,0:0:0:0:
164,280,14439,1,0,0:0:0:0:
73,227,14439,1,0,0:0:0:0:
471,280,14439,1,0,0:0:0:0:
103,280,14439,1,0,0:0:0:0:
440,333,14439,1,0,0:0:0:0:
73,333,14439,1,0,0:0:0:0:
256,333,14439,1,0,0:0:0:0:
73,120,14439,1,0,0:0:0:0:
471,67,14439,1,0,0:0:0:0:
194,333,14439,1,0,0:0:0:0:
42,67,14439,1,0,0:0:0:0:
409,280,14439,1,0,0:0:0:0:
42,280,14439,1,0,0:0:0:0:
317,333,14439,1,0,0:0:0:0:
133,120,14439,1,0,0:0:0:0:
379,333,14439,1,0,0:0:0:0:
287,280,14439,1,0,0:0:0:0:
133,227,14439,1,0,0:0:0:0:
103,67,14439,1,0,0:0:0:0:
164,67,14439,1,0,0:0:0:0:
287,67,14439,1,0,0:0:0:0:
102,174,14439,1,0,0:0:0:0:
317,120,14545,5,0,0:0:0:0:
103,66,14545,1,0,0:0:0:0:
501,13,14545,1,0,0:0:0:0:
72,13,14545,1,0,0:0:0:0:
224,279,14545,1,0,0:0:0:0:
286,279,14545,1,0,0:0:0:0:
501,226,14545,1,0,0:0:0:0:
103,173,14545,1,0,0:0:0:0:
133,226,14545,1,0,0:0:0:0:
103,279,14545,1,0,0:0:0:0:
470,279,14545,1,0,0:0:0:0:
133,13,14545,1,0,0:0:0:0:
163,173,14545,1,0,0:0:0:0:
194,13,14545,1,0,0:0:0:0:
132,120,14545,1,0,0:0:0:0:
317,13,14545,1,0,0:0:0:0:
317,226,14545,1,0,0:0:0:0:
72,226,14545,1,0,0:0:0:0:
439,226,14545,1,0,0:0:0:0:
347,279,14545,1,0,0:0:0:0:
409,279,14545,1,0,0:0:0:0:
163,66,14545,1,0,0:0:0:0:
194,226,14545,1,0,0:0:0:0:
72,120,14545,1,0,0:0:0:0:
470,66,14545,1,0,0:0:0:0:
470,173,14545,1,0,0:0:0:0:
224,66,14545,1,0,0:0:0:0:
378,120,14545,1,0,0:0:0:0:
255,13,14545,1,0,0:0:0:0:
501,120,14545,1,0,0:0:0:0:
378,226,14545,1,0,0:0:0:0:
439,120,14545,1,0,0:0:0:0:
194,120,14545,1,0,0:0:0:0:
409,173,14545,1,0,0:0:0:0:
255,226,14545,1,0,0:0:0:0:
409,66,14545,1,0,0:0:0:0:
286,66,14545,1,0,0:0:0:0:
164,279,14545,1,0,0:0:0:0:
286,173,14545,1,0,0:0:0:0:
378,13,14545,1,0,0:0:0:0:
255,120,14545,1,0,0:0:0:0:
347,173,14545,1,0,0:0:0:0:
439,13,14545,1,0,0:0:0:0:
347,66,14545,1,0,0:0:0:0:
224,173,14545,1,0,0:0:0:0:
255,120,14651,5,0,0:0:0:0:
316,226,14651,1,0,0:0:0:0:
439,120,14651,1,0,0:0:0:0:
377,120,14651,1,0,0:0:0:0:
347,173,14651,1,0,0:0:0:0:
132,120,14651,1,0,0:0:0:0:
193,13,14651,1,0,0:0:0:0:
408,66,14651,1,0,0:0:0:0:
10,120,14651,1,0,0:0:0:0:
408,173,14651,1,0,0:0:0:0:
316,120,14651,1,0,0:0:0:0:
162,66,14651,1,0,0:0:0:0:
285,173,14651,1,0,0:0:0:0:
193,120,14651,1,0,0:0:0:0:
377,13,14651,1,0,0:0:0:0:
162,173,14651,1,0,0:0:0:0:
285,66,14651,1,0,0:0:0:0:
316,13,14651,1,0,0:0:0:0:
347,66,14651,1,0,0:0:0:0:
193,226,14651,1,0,0:0:0:0:
224,66,14651,1,0,0:0:0:0:
224,173,14651,1,0,0:0:0:0:
102,279,14651,1,0,0:0:0:0:
132,226,14651,1,0,0:0:0:0:
41,173,14651,1,0,0:0:0:0:
439,226,14651,1,0,0:0:0:0:
71,226,14651,1,0,0:0:0:0:
408,279,14651,1,0,0:0:0:0:
41,279,14651,1,0,0:0:0:0:
224,279,14651,1,0,0:0:0:0:
41,66,14651,1,0,0:0:0:0:
439,13,14651,1,0,0:0:0:0:
162,279,14651,1,0,0:0:0:0:
10,13,14651,1,0,0:0:0:0:
377,226,14651,1,0,0:0:0:0:
10,226,14651,1,0,0:0:0:0:
285,279,14651,1,0,0:0:0:0:
101,66,14651,1,0,0:0:0:0:
347,279,14651,1,0,0:0:0:0:
255,226,14651,1,0,0:0:0:0:
101,173,14651,1,0,0:0:0:0:
71,13,14651,1,0,0:0:0:0:
132,13,14651,1,0,0:0:0:0:
255,13,14651,1,0,0:0:0:0:
70,120,14651,1,0,0:0:0:0:
256,224,14756,5,0,0:0:0:0:
42,170,14756,1,0,0:0:0:0:
440,117,14756,1,0,0:0:0:0:
11,117,14756,1,0,0:0:0:0:
163,383,14756,1,0,0:0:0:0:
225,383,14756,1,0,0:0:0:0:
440,330,14756,1,0,0:0:0:0:
42,277,14756,1,0,0:0:0:0:
72,330,14756,1,0,0:0:0:0:
42,383,14756,1,0,0:0:0:0:
409,383,14756,1,0,0:0:0:0:
72,117,14756,1,0,0:0:0:0:
102,277,14756,1,0,0:0:0:0:
133,117,14756,1,0,0:0:0:0:
71,224,14756,1,0,0:0:0:0:
256,117,14756,1,0,0:0:0:0:
256,330,14756,1,0,0:0:0:0:
11,330,14756,1,0,0:0:0:0:
378,330,14756,1,0,0:0:0:0:
286,383,14756,1,0,0:0:0:0:
348,383,14756,1,0,0:0:0:0:
102,170,14756,1,0,0:0:0:0:
133,330,14756,1,0,0:0:0:0:
11,224,14756,1,0,0:0:0:0:
409,170,14756,1,0,0:0:0:0:
409,277,14756,1,0,0:0:0:0:
163,170,14756,1,0,0:0:0:0:
317,224,14756,1,0,0:0:0:0:
194,117,14756,1,0,0:0:0:0:
440,224,14756,1,0,0:0:0:0:
317,330,14756,1,0,0:0:0:0:
378,224,14756,1,0,0:0:0:0:
133,224,14756,1,0,0:0:0:0:
348,277,14756,1,0,0:0:0:0:
194,330,14756,1,0,0:0:0:0:
348,170,14756,1,0,0:0:0:0:
225,170,14756,1,0,0:0:0:0:
103,383,14756,1,0,0:0:0:0:
225,277,14756,1,0,0:0:0:0:
317,117,14756,1,0,0:0:0:0:
194,224,14756,1,0,0:0:0:0:
286,277,14756,1,0,0:0:0:0:
378,117,14756,1,0,0:0:0:0:
286,170,14756,1,0,0:0:0:0:
163,277,14756,1,0,0:0:0:0:
256,192,14862,5,0,0:0:0:0:
378,85,14862,1,0,0:0:0:0:
348,32,14862,1,0,0:0:0:0:
317,85,14862,1,0,0:0:0:0:
163,245,14862,1,0,0:0:0:0:
194,192,14862,1,0,0:0:0:0:
317,192,14862,1,0,0:0:0:0:
286,245,14862,1,0,0:0:0:0:
225,138,14862,1,0,0:0:0:0:
225,245,14862,1,0,0:0:0:0:
225,351,14862,1,0,0:0:0:0:
286,138,14862,1,0,0:0:0:0:
348,138,14862,1,0,0:0:0:0:
378,192,14862,1,0,0:0:0:0:
256,85,14862,1,0,0:0:0:0:
348,245,14862,1,0,0:0:0:0:
317,298,14862,1,0,0:0:0:0:
256,298,14862,1,0,0:0:0:0:
194,298,14862,1,0,0:0:0:0:
133,192,14862,1,0,0:0:0:0:
163,138,14862,1,0,0:0:0:0:
194,85,14862,1,0,0:0:0:0:
225,32,14862,1,0,0:0:0:0:
286,32,14862,1,0,0:0:0:0:
409,138,14862,1,0,0:0:0:0:
440,192,14862,1,0,0:0:0:0:
409,245,14862,1,0,0:0:0:0:
378,298,14862,1,0,0:0:0:0:
348,351,14862,1,0,0:0:0:0:
286,351,14862,1,0,0:0:0:0:
470,32,14862,1,0,0:0:0:0:
133,298,14862,1,0,0:0:0:0:
102,245,14862,1,0,0:0:0:0:
103,351,14862,1,0,0:0:0:0:
163,351,14862,1,0,0:0:0:0:
163,32,14862,1,0,0:0:0:0:
102,138,14862,1,0,0:0:0:0:
71,192,14862,1,0,0:0:0:0:
42,245,14862,1,0,0:0:0:0:
42,351,14862,1,0,0:0:0:0:
11,298,14862,1,0,0:0:0:0:
11,192,14862,1,0,0:0:0:0:
42,32,14862,1,0,0:0:0:0:
72,298,14862,1,0,0:0:0:0:
133,85,14862,1,0,0:0:0:0:
42,138,14862,1,0,0:0:0:0:
11,85,14862,1,0,0:0:0:0:
470,351,14862,1,0,0:0:0:0:
72,85,14862,1,0,0:0:0:0:
440,85,14862,1,0,0:0:0:0:
501,85,14862,1,0,0:0:0:0:
409,32,14862,1,0,0:0:0:0:
501,192,14862,1,0,0:0:0:0:
470,245,14862,1,0,0:0:0:0:
103,32,14862,1,0,0:0:0:0:
470,138,14862,1,0,0:0:0:0:
409,351,14862,1,0,0:0:0:0:
440,298,14862,1,0,0:0:0:0:
501,298,14862,1,0,0:0:0:0:
256,192,15073,5,0,0:0:0:0:
0,153,15073,1,0,0:0:0:0:
67,78,15073,1,0,0:0:0:0:
7,93,15073,1,0,0:0:0:0:
50,136,15073,1,0,0:0:0:0:
217,0,15073,1,0,0:0:0:0:
82,18,15073,1,0,0:0:0:0:
35,196,15073,1,0,0:0:0:0:
109,120,15073,1,0,0:0:0:0:
94,179,15073,1,0,0:0:0:0:
77,238,15073,1,0,0:0:0:0:
125,61,15073,1,0,0:0:0:0:
185,44,15073,1,0,0:0:0:0:
303,13,15073,1,0,0:0:0:0:
244,29,15073,1,0,0:0:0:0:
260,0,15073,1,0,0:0:0:0:
369,380,15073,1,0,0:0:0:0:
429,365,15073,1,0,0:0:0:0:
445,305,15073,1,0,0:0:0:0:
354,440,15073,1,0,0:0:0:0:
311,397,15073,1,0,0:0:0:0:
251,412,15073,1,0,0:0:0:0:
294,455,15073,1,0,0:0:0:0:
158,0,15073,1,0,0:0:0:0:
142,2,15073,1,0,0:0:0:0:
201,0,15073,1,0,0:0:0:0:
477,187,15073,1,0,0:0:0:0:
504,289,15073,1,0,0:0:0:0:
461,246,15073,1,0,0:0:0:0:
512,230,15073,1,0,0:0:0:0:
121,282,15073,1,0,0:0:0:0:
196,207,15073,1,0,0:0:0:0:
272,131,15073,1,0,0:0:0:0:
315,175,15073,1,0,0:0:0:0:
331,116,15073,1,0,0:0:0:0:
342,278,15073,1,0,0:0:0:0:
359,218,15073,1,0,0:0:0:0:
374,159,15073,1,0,0:0:0:0:
434,143,15073,1,0,0:0:0:0:
417,202,15073,1,0,0:0:0:0:
152,163,15073,1,0,0:0:0:0:
239,250,15073,1,0,0:0:0:0:
299,235,15073,1,0,0:0:0:0:
212,148,15073,1,0,0:0:0:0:
283,294,15073,1,0,0:0:0:0:
386,322,15073,1,0,0:0:0:0:
402,262,15073,1,0,0:0:0:0:
390,100,15073,1,0,0:0:0:0:
326,337,15073,1,0,0:0:0:0:
164,325,15073,1,0,0:0:0:0:
208,369,15073,1,0,0:0:0:0:
267,353,15073,1,0,0:0:0:0:
137,223,15073,1,0,0:0:0:0:
181,266,15073,1,0,0:0:0:0:
224,310,15073,1,0,0:0:0:0:
169,105,15073,1,0,0:0:0:0:
347,56,15073,1,0,0:0:0:0:
287,72,15073,1,0,0:0:0:0:
228,88,15073,1,0,0:0:0:0:
256,192,15284,5,0,0:0:0:0:
363,314,15284,1,0,0:0:0:0:
416,284,15284,1,0,0:0:0:0:
363,253,15284,1,0,0:0:0:0:
203,99,15284,1,0,0:0:0:0:
256,130,15284,1,0,0:0:0:0:
256,253,15284,1,0,0:0:0:0:
203,222,15284,1,0,0:0:0:0:
310,161,15284,1,0,0:0:0:0:
203,161,15284,1,0,0:0:0:0:
97,161,15284,1,0,0:0:0:0:
310,222,15284,1,0,0:0:0:0:
310,284,15284,1,0,0:0:0:0:
256,314,15284,1,0,0:0:0:0:
363,192,15284,1,0,0:0:0:0:
203,284,15284,1,0,0:0:0:0:
150,253,15284,1,0,0:0:0:0:
150,192,15284,1,0,0:0:0:0:
150,130,15284,1,0,0:0:0:0:
256,69,15284,1,0,0:0:0:0:
310,99,15284,1,0,0:0:0:0:
363,130,15284,1,0,0:0:0:0:
416,161,15284,1,0,0:0:0:0:
416,222,15284,1,0,0:0:0:0:
310,345,15284,1,0,0:0:0:0:
256,376,15284,1,0,0:0:0:0:
203,345,15284,1,0,0:0:0:0:
150,314,15284,1,0,0:0:0:0:
97,284,15284,1,0,0:0:0:0:
97,222,15284,1,0,0:0:0:0:
416,406,15284,1,0,0:0:0:0:
150,69,15284,1,0,0:0:0:0:
203,38,15284,1,0,0:0:0:0:
97,39,15284,1,0,0:0:0:0:
97,99,15284,1,0,0:0:0:0:
416,99,15284,1,0,0:0:0:0:
310,38,15284,1,0,0:0:0:0:
256,7,15284,1,0,0:0:0:0:
203,0,15284,1,0,0:0:0:0:
97,0,15284,1,0,0:0:0:0:
150,0,15284,1,0,0:0:0:0:
256,0,15284,1,0,0:0:0:0:
416,0,15284,1,0,0:0:0:0:
150,8,15284,1,0,0:0:0:0:
363,69,15284,1,0,0:0:0:0:
310,0,15284,1,0,0:0:0:0:
363,0,15284,1,0,0:0:0:0:
97,406,15284,1,0,0:0:0:0:
363,8,15284,1,0,0:0:0:0:
363,376,15284,1,0,0:0:0:0:
363,437,15284,1,0,0:0:0:0:
416,345,15284,1,0,0:0:0:0:
256,437,15284,1,0,0:0:0:0:
203,406,15284,1,0,0:0:0:0:
416,39,15284,1,0,0:0:0:0:
310,406,15284,1,0,0:0:0:0:
97,345,15284,1,0,0:0:0:0:
150,376,15284,1,0,0:0:0:0:
150,437,15284,1,0,0:0:0:0:
256,192,15496,5,0,0:0:0:0:
294,0,15496,1,0,0:0:0:0:
369,3,15496,1,0,0:0:0:0:
354,0,15496,1,0,0:0:0:0:
311,0,15496,1,0,0:0:0:0:
512,153,15496,1,0,0:0:0:0:
429,18,15496,1,0,0:0:0:0:
251,0,15496,1,0,0:0:0:0:
327,45,15496,1,0,0:0:0:0:
268,30,15496,1,0,0:0:0:0:
209,13,15496,1,0,0:0:0:0:
386,61,15496,1,0,0:0:0:0:
403,121,15496,1,0,0:0:0:0:
434,239,15496,1,0,0:0:0:0:
418,180,15496,1,0,0:0:0:0:
477,196,15496,1,0,0:0:0:0:
67,305,15496,1,0,0:0:0:0:
82,365,15496,1,0,0:0:0:0:
142,381,15496,1,0,0:0:0:0:
7,290,15496,1,0,0:0:0:0:
50,247,15496,1,0,0:0:0:0:
35,187,15496,1,0,0:0:0:0:
0,230,15496,1,0,0:0:0:0:
504,94,15496,1,0,0:0:0:0:
445,78,15496,1,0,0:0:0:0:
461,137,15496,1,0,0:0:0:0:
260,413,15496,1,0,0:0:0:0:
158,440,15496,1,0,0:0:0:0:
201,397,15496,1,0,0:0:0:0:
217,456,15496,1,0,0:0:0:0:
165,57,15496,1,0,0:0:0:0:
240,132,15496,1,0,0:0:0:0:
316,208,15496,1,0,0:0:0:0:
272,251,15496,1,0,0:0:0:0:
331,267,15496,1,0,0:0:0:0:
169,278,15496,1,0,0:0:0:0:
229,295,15496,1,0,0:0:0:0:
288,310,15496,1,0,0:0:0:0:
304,370,15496,1,0,0:0:0:0:
245,353,15496,1,0,0:0:0:0:
284,88,15496,1,0,0:0:0:0:
197,175,15496,1,0,0:0:0:0:
212,235,15496,1,0,0:0:0:0:
299,148,15496,1,0,0:0:0:0:
153,219,15496,1,0,0:0:0:0:
125,322,15496,1,0,0:0:0:0:
185,338,15496,1,0,0:0:0:0:
347,326,15496,1,0,0:0:0:0:
110,262,15496,1,0,0:0:0:0:
122,100,15496,1,0,0:0:0:0:
78,144,15496,1,0,0:0:0:0:
94,203,15496,1,0,0:0:0:0:
224,73,15496,1,0,0:0:0:0:
181,117,15496,1,0,0:0:0:0:
137,160,15496,1,0,0:0:0:0:
342,105,15496,1,0,0:0:0:0:
391,283,15496,1,0,0:0:0:0:
375,223,15496,1,0,0:0:0:0:
359,164,15496,1,0,0:0:0:0:
256,192,15707,5,0,0:0:0:0:
378,85,15707,1,0,0:0:0:0:
348,32,15707,1,0,0:0:0:0:
317,85,15707,1,0,0:0:0:0:
163,245,15707,1,0,0:0:0:0:
194,192,15707,1,0,0:0:0:0:
317,192,15707,1,0,0:0:0:0:
286,245,15707,1,0,0:0:0:0:
225,138,15707,1,0,0:0:0:0:
225,245,15707,1,0,0:0:0:0:
225,351,15707,1,0,0:0:0:0:
286,138,15707,1,0,0:0:0:0:
348,138,15707,1,0,0:0:0:0:
378,192,15707,1,0,0:0:0:0:
256,85,15707,1,0,0:0:0:0:
348,245,15707,1,0,0:0:0:0:
317,298,15707,1,0,0:0:0:0:
256,298,15707,1,0,0:0:0:0:
194,298,15707,1,0,0:0:0:0:
133,192,15707,1,0,0:0:0:0:
163,138,15707,1,0,0:0:0:0:
194,85,15707,1,0,0:0:0:0:
225,32,15707,1,0,0:0:0:0:
286,32,15707,1,0,0:0:0:0:
409,138,15707,1,0,0:0:0:0:
440,192,15707,1,0,0:0:0:0:
409,245,15707,1,0,0:0:0:0:
378,298,15707,1,0,0:0:0:0:
348,351,15707,1,0,0:0:0:0:
286,351,15707,1,0,0:0:0:0:
470,32,15707,1,0,0:0:0:0:
133,298,15707,1,0,0:0:0:0:
102,245,15707,1,0,0:0:0:0:
103,351,15707,1,0,0:0:0:0:
163,351,15707,1,0,0:0:0:0:
163,32,15707,1,0,0:0:0:0:
102,138,15707,1,0,0:0:0:0:
71,192,15707,1,0,0:0:0:0:
42,245,15707,1,0,0:0:0:0:
42,351,15707,1,0,0:0:0:0:
11,298,15707,1,0,0:0:0:0:
11,192,15707,1,0,0:0:0:0:
42,32,15707,1,0,0:0:0:0:
72,298,15707,1,0,0:0:0:0:
133,85,15707,1,0,0:0:0:0:
42,138,15707,1,0,0:0:0:0:
11,85,15707,1,0,0:0:0:0:
470,351,15707,1,0,0:0:0:0:
72,85,15707,1,0,0:0:0:0:
440,85,15707,1,0,0:0:0:0:
501,85,15707,1,0,0:0:0:0:
409,32,15707,1,0,0:0:0:0:
501,192,15707,1,0,0:0:0:0:
470,245,15707,1,0,0:0:0:0:
103,32,15707,1,0,0:0:0:0:
470,138,15707,1,0,0:0:0:0:
409,351,15707,1,0,0:0:0:0:
440,298,15707,1,0,0:0:0:0:
501,298,15707,1,0,0:0:0:0:
256,192,15918,5,0,0:0:0:0:
0,153,15918,1,0,0:0:0:0:
67,78,15918,1,0,0:0:0:0:
7,93,15918,1,0,0:0:0:0:
50,136,15918,1,0,0:0:0:0:
217,0,15918,1,0,0:0:0:0:
82,18,15918,1,0,0:0:0:0:
35,196,15918,1,0,0:0:0:0:
109,120,15918,1,0,0:0:0:0:
94,179,15918,1,0,0:0:0:0:
77,238,15918,1,0,0:0:0:0:
125,61,15918,1,0,0:0:0:0:
185,44,15918,1,0,0:0:0:0:
303,13,15918,1,0,0:0:0:0:
244,29,15918,1,0,0:0:0:0:
260,0,15918,1,0,0:0:0:0:
369,380,15918,1,0,0:0:0:0:
429,365,15918,1,0,0:0:0:0:
445,305,15918,1,0,0:0:0:0:
354,440,15918,1,0,0:0:0:0:
311,397,15918,1,0,0:0:0:0:
251,412,15918,1,0,0:0:0:0:
294,455,15918,1,0,0:0:0:0:
158,0,15918,1,0,0:0:0:0:
142,2,15918,1,0,0:0:0:0:
201,0,15918,1,0,0:0:0:0:
477,187,15918,1,0,0:0:0:0:
504,289,15918,1,0,0:0:0:0:
461,246,15918,1,0,0:0:0:0:
512,230,15918,1,0,0:0:0:0:
164,325,15918,1,0,0:0:0:0:
196,207,15918,1,0,0:0:0:0:
272,131,15918,1,0,0:0:0:0:
239,250,15918,1,0,0:0:0:0:
121,282,15918,1,0,0:0:0:0:
342,278,15918,1,0,0:0:0:0:
359,218,15918,1,0,0:0:0:0:
315,175,15918,1,0,0:0:0:0:
434,143,15918,1,0,0:0:0:0:
417,202,15918,1,0,0:0:0:0:
374,159,15918,1,0,0:0:0:0:
299,235,15918,1,0,0:0:0:0:
212,148,15918,1,0,0:0:0:0:
152,163,15918,1,0,0:0:0:0:
331,116,15918,1,0,0:0:0:0:
402,262,15918,1,0,0:0:0:0:
390,100,15918,1,0,0:0:0:0:
347,56,15918,1,0,0:0:0:0:
386,322,15918,1,0,0:0:0:0:
208,369,15918,1,0,0:0:0:0:
267,353,15918,1,0,0:0:0:0:
326,337,15918,1,0,0:0:0:0:
181,266,15918,1,0,0:0:0:0:
224,310,15918,1,0,0:0:0:0:
283,294,15918,1,0,0:0:0:0:
137,223,15918,1,0,0:0:0:0:
287,72,15918,1,0,0:0:0:0:
228,88,15918,1,0,0:0:0:0:
169,105,15918,1,0,0:0:0:0:
256,192,16129,5,0,0:0:0:0:
97,0,16129,1,0,0:0:0:0:
203,0,16129,1,0,0:0:0:0:
256,7,16129,1,0,0:0:0:0:
150,0,16129,1,0,0:0:0:0:
150,8,16129,1,0,0:0:0:0:
416,0,16129,1,0,0:0:0:0:
256,0,16129,1,0,0:0:0:0:
203,38,16129,1,0,0:0:0:0:
150,69,16129,1,0,0:0:0:0:
416,406,16129,1,0,0:0:0:0:
97,39,16129,1,0,0:0:0:0:
310,38,16129,1,0,0:0:0:0:
416,99,16129,1,0,0:0:0:0:
97,99,16129,1,0,0:0:0:0:
363,69,16129,1,0,0:0:0:0:
416,39,16129,1,0,0:0:0:0:
203,406,16129,1,0,0:0:0:0:
256,437,16129,1,0,0:0:0:0:
310,406,16129,1,0,0:0:0:0:
150,437,16129,1,0,0:0:0:0:
150,376,16129,1,0,0:0:0:0:
97,345,16129,1,0,0:0:0:0:
97,406,16129,1,0,0:0:0:0:
363,0,16129,1,0,0:0:0:0:
310,0,16129,1,0,0:0:0:0:
363,8,16129,1,0,0:0:0:0:
416,345,16129,1,0,0:0:0:0:
363,437,16129,1,0,0:0:0:0:
363,376,16129,1,0,0:0:0:0:
97,222,16129,1,0,0:0:0:0:
203,161,16129,1,0,0:0:0:0:
310,161,16129,1,0,0:0:0:0:
203,222,16129,1,0,0:0:0:0:
97,161,16129,1,0,0:0:0:0:
256,314,16129,1,0,0:0:0:0:
310,284,16129,1,0,0:0:0:0:
310,222,16129,1,0,0:0:0:0:
416,284,16129,1,0,0:0:0:0:
363,314,16129,1,0,0:0:0:0:
363,253,16129,1,0,0:0:0:0:
256,253,16129,1,0,0:0:0:0:
256,130,16129,1,0,0:0:0:0:
203,99,16129,1,0,0:0:0:0:
363,192,16129,1,0,0:0:0:0:
310,345,16129,1,0,0:0:0:0:
416,222,16129,1,0,0:0:0:0:
416,161,16129,1,0,0:0:0:0:
256,376,16129,1,0,0:0:0:0:
97,284,16129,1,0,0:0:0:0:
150,314,16129,1,0,0:0:0:0:
203,345,16129,1,0,0:0:0:0:
150,192,16129,1,0,0:0:0:0:
150,253,16129,1,0,0:0:0:0:
203,284,16129,1,0,0:0:0:0:
150,130,16129,1,0,0:0:0:0:
363,130,16129,1,0,0:0:0:0:
310,99,16129,1,0,0:0:0:0:
256,69,16129,1,0,0:0:0:0:
256,192,16341,5,0,0:0:0:0:
294,0,16341,1,0,0:0:0:0:
369,3,16341,1,0,0:0:0:0:
354,0,16341,1,0,0:0:0:0:
311,0,16341,1,0,0:0:0:0:
512,153,16341,1,0,0:0:0:0:
429,18,16341,1,0,0:0:0:0:
251,0,16341,1,0,0:0:0:0:
327,45,16341,1,0,0:0:0:0:
268,30,16341,1,0,0:0:0:0:
209,13,16341,1,0,0:0:0:0:
386,61,16341,1,0,0:0:0:0:
403,121,16341,1,0,0:0:0:0:
434,239,16341,1,0,0:0:0:0:
418,180,16341,1,0,0:0:0:0:
477,196,16341,1,0,0:0:0:0:
67,305,16341,1,0,0:0:0:0:
82,365,16341,1,0,0:0:0:0:
142,381,16341,1,0,0:0:0:0:
7,290,16341,1,0,0:0:0:0:
50,247,16341,1,0,0:0:0:0:
35,187,16341,1,0,0:0:0:0:
0,230,16341,1,0,0:0:0:0:
504,94,16341,1,0,0:0:0:0:
445,78,16341,1,0,0:0:0:0:
461,137,16341,1,0,0:0:0:0:
260,413,16341,1,0,0:0:0:0:
158,440,16341,1,0,0:0:0:0:
201,397,16341,1,0,0:0:0:0:
217,456,16341,1,0,0:0:0:0:
122,100,16341,1,0,0:0:0:0:
240,132,16341,1,0,0:0:0:0:
316,208,16341,1,0,0:0:0:0:
197,175,16341,1,0,0:0:0:0:
165,57,16341,1,0,0:0:0:0:
169,278,16341,1,0,0:0:0:0:
229,295,16341,1,0,0:0:0:0:
272,251,16341,1,0,0:0:0:0:
304,370,16341,1,0,0:0:0:0:
245,353,16341,1,0,0:0:0:0:
288,310,16341,1,0,0:0:0:0:
212,235,16341,1,0,0:0:0:0:
299,148,16341,1,0,0:0:0:0:
284,88,16341,1,0,0:0:0:0:
331,267,16341,1,0,0:0:0:0:
185,338,16341,1,0,0:0:0:0:
347,326,16341,1,0,0:0:0:0:
391,283,16341,1,0,0:0:0:0:
125,322,16341,1,0,0:0:0:0:
78,144,16341,1,0,0:0:0:0:
94,203,16341,1,0,0:0:0:0:
110,262,16341,1,0,0:0:0:0:
181,117,16341,1,0,0:0:0:0:
137,160,16341,1,0,0:0:0:0:
153,219,16341,1,0,0:0:0:0:
224,73,16341,1,0,0:0:0:0:
375,223,16341,1,0,0:0:0:0:
359,164,16341,1,0,0:0:0:0:
342,105,16341,1,0,0:0:0:0:
256,192,16552,5,0,0:0:0:0:
42,351,16552,1,0,0:0:0:0:
42,245,16552,1,0,0:0:0:0:
71,192,16552,1,0,0:0:0:0:
11,298,16552,1,0,0:0:0:0:
72,298,16552,1,0,0:0:0:0:
42,32,16552,1,0,0:0:0:0:
11,192,16552,1,0,0:0:0:0:
102,245,16552,1,0,0:0:0:0:
133,298,16552,1,0,0:0:0:0:
470,32,16552,1,0,0:0:0:0:
103,351,16552,1,0,0:0:0:0:
102,138,16552,1,0,0:0:0:0:
163,32,16552,1,0,0:0:0:0:
163,351,16552,1,0,0:0:0:0:
133,85,16552,1,0,0:0:0:0:
103,32,16552,1,0,0:0:0:0:
470,245,16552,1,0,0:0:0:0:
501,192,16552,1,0,0:0:0:0:
470,138,16552,1,0,0:0:0:0:
501,298,16552,1,0,0:0:0:0:
440,298,16552,1,0,0:0:0:0:
409,351,16552,1,0,0:0:0:0:
470,351,16552,1,0,0:0:0:0:
11,85,16552,1,0,0:0:0:0:
42,138,16552,1,0,0:0:0:0:
72,85,16552,1,0,0:0:0:0:
409,32,16552,1,0,0:0:0:0:
501,85,16552,1,0,0:0:0:0:
440,85,16552,1,0,0:0:0:0:
286,351,16552,1,0,0:0:0:0:
225,245,16552,1,0,0:0:0:0:
225,138,16552,1,0,0:0:0:0:
286,245,16552,1,0,0:0:0:0:
225,351,16552,1,0,0:0:0:0:
378,192,16552,1,0,0:0:0:0:
348,138,16552,1,0,0:0:0:0:
286,138,16552,1,0,0:0:0:0:
348,32,16552,1,0,0:0:0:0:
378,85,16552,1,0,0:0:0:0:
317,85,16552,1,0,0:0:0:0:
317,192,16552,1,0,0:0:0:0:
194,192,16552,1,0,0:0:0:0:
163,245,16552,1,0,0:0:0:0:
256,85,16552,1,0,0:0:0:0:
409,138,16552,1,0,0:0:0:0:
286,32,16552,1,0,0:0:0:0:
225,32,16552,1,0,0:0:0:0:
440,192,16552,1,0,0:0:0:0:
348,351,16552,1,0,0:0:0:0:
378,298,16552,1,0,0:0:0:0:
409,245,16552,1,0,0:0:0:0:
256,298,16552,1,0,0:0:0:0:
317,298,16552,1,0,0:0:0:0:
348,245,16552,1,0,0:0:0:0:
194,298,16552,1,0,0:0:0:0:
194,85,16552,1,0,0:0:0:0:
163,138,16552,1,0,0:0:0:0:
133,192,16552,1,0,0:0:0:0:
163,245,16763,5,0,0:0:0:0:
225,245,16763,1,0,0:0:0:0:
286,351,16763,1,0,0:0:0:0:
286,245,16763,1,0,0:0:0:0:
225,351,16763,1,0,0:0:0:0:
348,245,16763,1,0,0:0:0:0:
317,298,16763,1,0,0:0:0:0:
256,298,16763,1,0,0:0:0:0:
194,298,16763,1,0,0:0:0:0:
409,245,16763,1,0,0:0:0:0:
378,298,16763,1,0,0:0:0:0:
348,351,16763,1,0,0:0:0:0:
133,298,16763,1,0,0:0:0:0:
102,245,16763,1,0,0:0:0:0:
103,351,16763,1,0,0:0:0:0:
42,245,16763,1,0,0:0:0:0:
42,351,16763,1,0,0:0:0:0:
72,298,16763,1,0,0:0:0:0:
11,298,16763,1,0,0:0:0:0:
163,351,16763,1,0,0:0:0:0:
470,351,16763,1,0,0:0:0:0:
409,351,16763,1,0,0:0:0:0:
470,245,16763,1,0,0:0:0:0:
440,298,16763,1,0,0:0:0:0:
501,298,16763,1,0,0:0:0:0:
256,192,16974,5,0,0:0:0:0:
42,351,16974,1,0,0:0:0:0:
42,245,16974,1,0,0:0:0:0:
71,192,16974,1,0,0:0:0:0:
11,298,16974,1,0,0:0:0:0:
72,298,16974,1,0,0:0:0:0:
42,32,16974,1,0,0:0:0:0:
11,192,16974,1,0,0:0:0:0:
102,245,16974,1,0,0:0:0:0:
133,298,16974,1,0,0:0:0:0:
103,351,16974,1,0,0:0:0:0:
102,138,16974,1,0,0:0:0:0:
163,32,16974,1,0,0:0:0:0:
163,351,16974,1,0,0:0:0:0:
133,85,16974,1,0,0:0:0:0:
103,32,16974,1,0,0:0:0:0:
11,85,16974,1,0,0:0:0:0:
42,138,16974,1,0,0:0:0:0:
72,85,16974,1,0,0:0:0:0:
225,245,16974,1,0,0:0:0:0:
225,138,16974,1,0,0:0:0:0:
225,351,16974,1,0,0:0:0:0:
194,192,16974,1,0,0:0:0:0:
163,245,16974,1,0,0:0:0:0:
256,85,16974,1,0,0:0:0:0:
225,32,16974,1,0,0:0:0:0:
256,298,16974,1,0,0:0:0:0:
194,298,16974,1,0,0:0:0:0:
194,85,16974,1,0,0:0:0:0:
163,138,16974,1,0,0:0:0:0:
133,192,16974,1,0,0:0:0:0:
256,192,17186,5,0,0:0:0:0:
287,138,17186,1,0,0:0:0:0:
287,351,17186,1,0,0:0:0:0:
318,192,17186,1,0,0:0:0:0:
287,245,17186,1,0,0:0:0:0:
501,85,17186,1,0,0:0:0:0:
470,138,17186,1,0,0:0:0:0:
440,85,17186,1,0,0:0:0:0:
349,245,17186,1,0,0:0:0:0:
318,85,17186,1,0,0:0:0:0:
349,138,17186,1,0,0:0:0:0:
379,192,17186,1,0,0:0:0:0:
318,298,17186,1,0,0:0:0:0:
256,85,17186,1,0,0:0:0:0:
287,32,17186,1,0,0:0:0:0:
256,298,17186,1,0,0:0:0:0:
409,32,17186,1,0,0:0:0:0:
501,298,17186,1,0,0:0:0:0:
440,298,17186,1,0,0:0:0:0:
470,32,17186,1,0,0:0:0:0:
441,192,17186,1,0,0:0:0:0:
470,351,17186,1,0,0:0:0:0:
470,245,17186,1,0,0:0:0:0:
501,192,17186,1,0,0:0:0:0:
349,32,17186,1,0,0:0:0:0:
349,351,17186,1,0,0:0:0:0:
379,85,17186,1,0,0:0:0:0:
410,138,17186,1,0,0:0:0:0:
410,245,17186,1,0,0:0:0:0:
379,298,17186,1,0,0:0:0:0:
409,351,17186,1,0,0:0:0:0:
72,85,18031,5,0,0:0:0:0:
102,138,18031,1,0,0:0:0:0:
42,32,18031,1,0,0:0:0:0:
11,85,18031,1,0,0:0:0:0:
42,138,18031,1,0,0:0:0:0:
103,32,18031,1,0,0:0:0:0:
133,85,18031,1,0,0:0:0:0:
194,192,18242,5,0,0:0:0:0:
164,245,18242,1,0,0:0:0:0:
225,139,18242,1,0,0:0:0:0:
255,192,18242,1,0,0:0:0:0:
133,192,18242,1,0,0:0:0:0:
224,245,18242,1,0,0:0:0:0:
164,139,18242,1,0,0:0:0:0:
317,85,18453,5,0,0:0:0:0:
347,138,18453,1,0,0:0:0:0:
287,32,18453,1,0,0:0:0:0:
256,85,18453,1,0,0:0:0:0:
287,138,18453,1,0,0:0:0:0:
348,32,18453,1,0,0:0:0:0:
378,85,18453,1,0,0:0:0:0:
71,298,18665,5,0,0:0:0:0:
41,351,18665,1,0,0:0:0:0:
102,245,18665,1,0,0:0:0:0:
132,298,18665,1,0,0:0:0:0:
10,298,18665,1,0,0:0:0:0:
101,351,18665,1,0,0:0:0:0:
41,245,18665,1,0,0:0:0:0:
317,298,18876,5,0,0:0:0:0:
347,351,18876,1,0,0:0:0:0:
287,245,18876,1,0,0:0:0:0:
256,298,18876,1,0,0:0:0:0:
287,351,18876,1,0,0:0:0:0:
348,245,18876,1,0,0:0:0:0:
378,298,18876,1,0,0:0:0:0:
194,85,19087,5,0,0:0:0:0:
164,138,19087,1,0,0:0:0:0:
225,32,19087,1,0,0:0:0:0:
255,85,19087,1,0,0:0:0:0:
133,85,19087,1,0,0:0:0:0:
224,138,19087,1,0,0:0:0:0:
164,32,19087,1,0,0:0:0:0:
194,298,19298,5,0,0:0:0:0:
224,351,19298,1,0,0:0:0:0:
164,245,19298,1,0,0:0:0:0:
133,298,19298,1,0,0:0:0:0:
164,351,19298,1,0,0:0:0:0:
225,245,19298,1,0,0:0:0:0:
255,298,19298,1,0,0:0:0:0:
440,85,19510,5,0,0:0:0:0:
410,138,19510,1,0,0:0:0:0:
471,32,19510,1,0,0:0:0:0:
501,85,19510,1,0,0:0:0:0:
379,85,19510,1,0,0:0:0:0:
470,138,19510,1,0,0:0:0:0:
410,32,19510,1,0,0:0:0:0:
71,298,19721,5,0,0:0:0:0:
101,351,19721,1,0,0:0:0:0:
41,245,19721,1,0,0:0:0:0:
10,298,19721,1,0,0:0:0:0:
41,351,19721,1,0,0:0:0:0:
102,245,19721,1,0,0:0:0:0:
132,298,19721,1,0,0:0:0:0:
41,138,19932,5,0,0:0:0:0:
133,85,19932,1,0,0:0:0:0:
71,192,19932,1,0,0:0:0:0:
317,192,19932,1,0,0:0:0:0:
378,192,19932,1,0,0:0:0:0:
440,192,19932,1,0,0:0:0:0:
409,245,19932,1,0,0:0:0:0:
501,192,19932,1,0,0:0:0:0:
470,245,19932,1,0,0:0:0:0:
440,298,19932,1,0,0:0:0:0:
409,351,19932,1,0,0:0:0:0:
470,351,19932,1,0,0:0:0:0:
501,298,19932,1,0,0:0:0:0:
133,192,19932,1,0,0:0:0:0:
163,138,19932,1,0,0:0:0:0:
71,85,19932,1,0,0:0:0:0:
102,138,20143,5,0,0:0:0:0:
287,351,20143,1,0,0:0:0:0:
348,245,20143,1,0,0:0:0:0:
378,298,20143,1,0,0:0:0:0:
256,298,20143,1,0,0:0:0:0:
347,351,20143,1,0,0:0:0:0:
287,245,20143,1,0,0:0:0:0:
10,192,20355,5,0,0:0:0:0:
163,245,20355,1,0,0:0:0:0:
133,298,20355,1,0,0:0:0:0:
41,245,20355,1,0,0:0:0:0:
102,245,20355,1,0,0:0:0:0:
10,298,20355,1,0,0:0:0:0:
71,298,20355,1,0,0:0:0:0:
41,351,20355,1,0,0:0:0:0:
102,351,20355,1,0,0:0:0:0:
194,192,20355,1,0,0:0:0:0:
256,192,20355,1,0,0:0:0:0:
225,245,20355,1,0,0:0:0:0:
194,298,20355,1,0,0:0:0:0:
225,351,20355,1,0,0:0:0:0:
163,351,20355,1,0,0:0:0:0:
10,85,20566,5,0,0:0:0:0:
470,138,20566,1,0,0:0:0:0:
41,32,20566,1,0,0:0:0:0:
102,32,20566,1,0,0:0:0:0:
163,32,20566,1,0,0:0:0:0:
194,85,20566,1,0,0:0:0:0:
225,138,20566,1,0,0:0:0:0:
286,138,20566,1,0,0:0:0:0:
348,138,20566,1,0,0:0:0:0:
409,138,20566,1,0,0:0:0:0:
501,85,20566,1,0,0:0:0:0:
409,32,20566,1,0,0:0:0:0:
470,32,20566,1,0,0:0:0:0:
378,85,20566,1,0,0:0:0:0:
348,32,20566,1,0,0:0:0:0:
317,85,20566,1,0,0:0:0:0:
225,32,20566,1,0,0:0:0:0:
286,32,20566,1,0,0:0:0:0:
256,85,20566,1,0,0:0:0:0:
440,85,21411,5,0,0:0:0:0:
470,138,21411,1,0,0:0:0:0:
256,192,21622,5,0,0:0:0:0:
42,351,21622,1,0,0:0:0:0:
42,245,21622,1,0,0:0:0:0:
11,298,21622,1,0,0:0:0:0:
72,298,21622,1,0,0:0:0:0:
102,245,21622,1,0,0:0:0:0:
163,351,21622,1,0,0:0:0:0:
71,192,21622,1,0,0:0:0:0:
470,245,21622,1,0,0:0:0:0:
501,192,21622,1,0,0:0:0:0:
501,298,21622,1,0,0:0:0:0:
409,351,21622,1,0,0:0:0:0:
409,32,21622,1,0,0:0:0:0:
501,85,21622,1,0,0:0:0:0:
470,32,21622,1,0,0:0:0:0:
225,351,21622,1,0,0:0:0:0:
225,245,21622,1,0,0:0:0:0:
225,138,21622,1,0,0:0:0:0:
286,138,21622,1,0,0:0:0:0:
378,192,21622,1,0,0:0:0:0:
348,138,21622,1,0,0:0:0:0:
348,32,21622,1,0,0:0:0:0:
378,85,21622,1,0,0:0:0:0:
194,192,21622,1,0,0:0:0:0:
440,192,21622,1,0,0:0:0:0:
409,138,21622,1,0,0:0:0:0:
286,32,21622,1,0,0:0:0:0:
286,351,21622,1,0,0:0:0:0:
378,298,21622,1,0,0:0:0:0:
194,298,21622,1,0,0:0:0:0:
256,298,21622,1,0,0:0:0:0:
133,192,21622,1,0,0:0:0:0:
225,32,21622,1,0,0:0:0:0:
348,351,21834,5,0,0:0:0:0:
440,298,21834,1,0,0:0:0:0:
470,351,21834,1,0,0:0:0:0:
286,245,21834,1,0,0:0:0:0:
317,192,21834,1,0,0:0:0:0:
348,245,21834,1,0,0:0:0:0:
409,245,21834,1,0,0:0:0:0:
317,298,21834,1,0,0:0:0:0:
163,32,22045,5,0,0:0:0:0:
133,85,22045,1,0,0:0:0:0:
163,138,22045,1,0,0:0:0:0:
256,85,22045,1,0,0:0:0:0:
317,85,22045,1,0,0:0:0:0:
194,85,22045,1,0,0:0:0:0:
102,351,22256,5,0,0:0:0:0:
133,298,22362,5,0,0:0:0:0:
163,245,22467,5,0,0:0:0:0:
102,138,22467,1,0,0:0:0:0:
71,85,22467,1,0,0:0:0:0:
10,192,22467,1,0,0:0:0:0:
41,138,22467,1,0,0:0:0:0:
10,85,22467,1,0,0:0:0:0:
41,32,22467,1,0,0:0:0:0:
102,32,22467,1,0,0:0:0:0:
317,298,22679,5,0,0:0:0:0:
470,245,22679,1,0,0:0:0:0:
501,298,22679,1,0,0:0:0:0:
440,298,22679,1,0,0:0:0:0:
409,351,22679,1,0,0:0:0:0:
470,351,22679,1,0,0:0:0:0:
286,245,22679,1,0,0:0:0:0:
348,245,22679,1,0,0:0:0:0:
409,245,22679,1,0,0:0:0:0:
286,351,22679,1,0,0:0:0:0:
348,351,22679,1,0,0:0:0:0:
378,298,22679,1,0,0:0:0:0:
378,192,22890,5,0,0:0:0:0:
501,192,22890,1,0,0:0:0:0:
470,138,22890,1,0,0:0:0:0:
409,32,22890,1,0,0:0:0:0:
501,85,22890,1,0,0:0:0:0:
440,85,22890,1,0,0:0:0:0:
470,32,22890,1,0,0:0:0:0:
286,138,22890,1,0,0:0:0:0:
348,138,22890,1,0,0:0:0:0:
317,85,22890,1,0,0:0:0:0:
348,32,22890,1,0,0:0:0:0:
378,85,22890,1,0,0:0:0:0:
317,192,22890,1,0,0:0:0:0:
440,192,22890,1,0,0:0:0:0:
409,138,22890,1,0,0:0:0:0:
286,32,22890,1,0,0:0:0:0:
195,298,23101,5,0,0:0:0:0:
134,192,23101,5,0,0:0:0:0:
103,351,23101,1,0,0:0:0:0:
42,351,23101,1,0,0:0:0:0:
226,351,23101,1,0,0:0:0:0:
42,245,23101,1,0,0:0:0:0:
11,298,23101,1,0,0:0:0:0:
72,298,23101,1,0,0:0:0:0:
164,351,23101,1,0,0:0:0:0:
134,298,23101,1,0,0:0:0:0:
164,245,23101,1,0,0:0:0:0:
103,245,23101,1,0,0:0:0:0:
226,245,23101,1,0,0:0:0:0:
226,32,23101,1,0,0:0:0:0:
195,192,23101,1,0,0:0:0:0:
72,192,23101,1,0,0:0:0:0:
103,138,23101,1,0,0:0:0:0:
134,85,23101,1,0,0:0:0:0:
226,138,23101,1,0,0:0:0:0:
195,85,23101,1,0,0:0:0:0:
164,32,23101,1,0,0:0:0:0:
42,32,23101,1,0,0:0:0:0:
72,85,23101,1,0,0:0:0:0:
11,85,23101,1,0,0:0:0:0:
103,32,23101,1,0,0:0:0:0:
11,192,23101,1,0,0:0:0:0:
42,138,23101,1,0,0:0:0:0:
164,138,23101,1,0,0:0:0:0:
256,85,23524,5,0,0:0:0:0:
256,192,23524,1,0,0:0:0:0:
256,298,23524,1,0,0:0:0:0:
195,298,23735,5,0,0:0:0:0:
317,298,23735,1,0,0:0:0:0:
226,138,23735,1,0,0:0:0:0:
195,85,23735,1,0,0:0:0:0:
195,192,23735,1,0,0:0:0:0:
226,351,23735,1,0,0:0:0:0:
226,245,23735,1,0,0:0:0:0:
226,32,23735,1,0,0:0:0:0:
286,351,23735,1,0,0:0:0:0:
286,245,23735,1,0,0:0:0:0:
286,32,23735,1,0,0:0:0:0:
317,192,23735,1,0,0:0:0:0:
286,138,23735,1,0,0:0:0:0:
317,85,23735,1,0,0:0:0:0:
164,138,23946,5,0,0:0:0:0:
348,138,23946,1,0,0:0:0:0:
378,192,23946,1,0,0:0:0:0:
134,192,23946,1,0,0:0:0:0:
163,245,23946,1,0,0:0:0:0:
348,245,23946,1,0,0:0:0:0:
409,32,24158,5,0,0:0:0:0:
72,298,24158,1,0,0:0:0:0:
103,351,24158,1,0,0:0:0:0:
102,245,24158,1,0,0:0:0:0:
133,298,24158,1,0,0:0:0:0:
163,351,24158,1,0,0:0:0:0:
102,138,24158,1,0,0:0:0:0:
163,32,24158,1,0,0:0:0:0:
133,85,24158,1,0,0:0:0:0:
103,32,24158,1,0,0:0:0:0:
440,298,24158,1,0,0:0:0:0:
409,351,24158,1,0,0:0:0:0:
72,85,24158,1,0,0:0:0:0:
440,85,24158,1,0,0:0:0:0:
348,32,24158,1,0,0:0:0:0:
378,85,24158,1,0,0:0:0:0:
409,138,24158,1,0,0:0:0:0:
409,245,24158,1,0,0:0:0:0:
348,351,24158,1,0,0:0:0:0:
378,298,24158,1,0,0:0:0:0:
440,192,24369,5,0,0:0:0:0:
470,32,24369,1,0,0:0:0:0:
501,85,24369,1,0,0:0:0:0:
470,138,24369,1,0,0:0:0:0:
501,192,24369,1,0,0:0:0:0:
470,245,24369,1,0,0:0:0:0:
501,298,24369,1,0,0:0:0:0:
470,351,24369,1,0,0:0:0:0:
71,192,24580,5,0,0:0:0:0:
11,298,24580,1,0,0:0:0:0:
42,245,24580,1,0,0:0:0:0:
42,351,24580,1,0,0:0:0:0:
11,192,24580,1,0,0:0:0:0:
42,32,24580,1,0,0:0:0:0:
42,138,24580,1,0,0:0:0:0:
11,85,24580,1,0,0:0:0:0:
225,32,24791,5,0,0:0:0:0:
286,32,24791,1,0,0:0:0:0:
194,85,24897,5,0,0:0:0:0:
318,85,24897,1,0,0:0:0:0:
225,138,25003,5,0,0:0:0:0:
287,138,25003,1,0,0:0:0:0:
194,192,25108,5,0,0:0:0:0:
318,192,25108,1,0,0:0:0:0:
133,192,25214,5,0,0:0:0:0:
379,192,25214,1,0,0:0:0:0:
163,138,25320,5,0,0:0:0:0:
349,138,25320,1,0,0:0:0:0:
194,192,25425,5,0,0:0:0:0:
318,192,25425,1,0,0:0:0:0:
163,245,25531,5,0,0:0:0:0:
349,245,25531,1,0,0:0:0:0:
102,245,25636,5,0,0:0:0:0:
410,245,25636,1,0,0:0:0:0:
71,298,25742,5,0,0:0:0:0:
441,298,25742,1,0,0:0:0:0:
102,351,25848,5,0,0:0:0:0:
410,351,25848,1,0,0:0:0:0:
163,351,25953,5,0,0:0:0:0:
349,351,25953,1,0,0:0:0:0:
194,298,26059,5,0,0:0:0:0:
318,298,26059,1,0,0:0:0:0:
133,298,26270,5,0,0:0:0:0:
378,298,26270,1,0,0:0:0:0:
256,192,26270,1,0,0:0:0:0:
225,245,26270,1,0,0:0:0:0:
256,85,26270,1,0,0:0:0:0:
286,245,26270,1,0,0:0:0:0:
256,298,26481,5,0,0:0:0:0:
348,32,26481,1,0,0:0:0:0:
225,351,26481,1,0,0:0:0:0:
286,351,26481,1,0,0:0:0:0:
194,192,26481,1,0,0:0:0:0:
133,192,26481,1,0,0:0:0:0:
163,138,26481,1,0,0:0:0:0:
317,192,26481,1,0,0:0:0:0:
348,138,26481,1,0,0:0:0:0:
378,192,26481,1,0,0:0:0:0:
163,32,26481,1,0,0:0:0:0:
41,245,26481,1,0,0:0:0:0:
470,245,26481,1,0,0:0:0:0:
225,138,26904,5,0,0:0:0:0:
71,192,26904,1,0,0:0:0:0:
440,192,26904,1,0,0:0:0:0:
286,32,26904,1,0,0:0:0:0:
286,138,26904,1,0,0:0:0:0:
317,85,26904,1,0,0:0:0:0:
225,32,26904,1,0,0:0:0:0:
194,85,26904,1,0,0:0:0:0:
409,244,26904,1,0,0:0:0:0:
348,245,26904,1,0,0:0:0:0:
102,245,26904,1,0,0:0:0:0:
163,245,26904,1,0,0:0:0:0:
440,85,27115,5,0,0:0:0:0:
71,85,27115,1,0,0:0:0:0:
41,32,27327,5,0,0:0:0:0:
102,32,27327,1,0,0:0:0:0:
409,32,27327,1,0,0:0:0:0:
470,32,27327,1,0,0:0:0:0:
10,85,27432,5,0,0:0:0:0:
133,85,27432,1,0,0:0:0:0:
378,85,27432,1,0,0:0:0:0:
501,85,27432,1,0,0:0:0:0:
41,138,27538,5,0,0:0:0:0:
102,138,27538,1,0,0:0:0:0:
409,138,27538,1,0,0:0:0:0:
470,138,27538,1,0,0:0:0:0:
71,298,27749,5,0,0:0:0:0:
10,298,27749,1,0,0:0:0:0:
41,351,27749,1,0,0:0:0:0:
440,298,27749,1,0,0:0:0:0:
501,298,27749,1,0,0:0:0:0:
470,351,27749,1,0,0:0:0:0:
163,351,27749,1,0,0:0:0:0:
348,351,27749,1,0,0:0:0:0:
225,351,27960,5,0,0:0:0:0:
286,351,27960,1,0,0:0:0:0:
194,298,27960,1,0,0:0:0:0:
256,298,27960,1,0,0:0:0:0:
317,298,27960,1,0,0:0:0:0:
133,298,28066,5,0,0:0:0:0:
378,298,28066,1,0,0:0:0:0:
163,245,28066,1,0,0:0:0:0:
225,245,28066,1,0,0:0:0:0:
348,245,28066,1,0,0:0:0:0:
286,245,28066,1,0,0:0:0:0:
102,351,28172,5,0,0:0:0:0:
409,351,28172,1,0,0:0:0:0:
102,245,28172,1,0,0:0:0:0:
133,192,28172,1,0,0:0:0:0:
256,192,28172,1,0,0:0:0:0:
378,192,28172,1,0,0:0:0:0:
409,245,28172,1,0,0:0:0:0:
41,245,28277,5,0,0:0:0:0:
10,192,28277,1,0,0:0:0:0:
501,192,28277,1,0,0:0:0:0:
470,245,28277,1,0,0:0:0:0:
163,138,28277,1,0,0:0:0:0:
348,138,28277,1,0,0:0:0:0:
256,85,28277,1,0,0:0:0:0:
133,85,28277,1,0,0:0:0:0:
378,85,28277,1,0,0:0:0:0:
11,85,28383,21,0,0:0:0:0:
348,32,28383,1,0,0:0:0:0:
317,85,28383,1,0,0:0:0:0:
194,192,28383,1,0,0:0:0:0:
317,192,28383,1,0,0:0:0:0:
225,138,28383,1,0,0:0:0:0:
286,138,28383,1,0,0:0:0:0:
194,85,28383,1,0,0:0:0:0:
225,32,28383,1,0,0:0:0:0:
286,32,28383,1,0,0:0:0:0:
409,138,28383,1,0,0:0:0:0:
440,192,28383,1,0,0:0:0:0:
470,32,28383,1,0,0:0:0:0:
163,32,28383,1,0,0:0:0:0:
102,138,28383,1,0,0:0:0:0:
71,192,28383,1,0,0:0:0:0:
42,32,28383,1,0,0:0:0:0:
42,138,28383,1,0,0:0:0:0:
72,85,28383,1,0,0:0:0:0:
440,85,28383,1,0,0:0:0:0:
501,85,28383,1,0,0:0:0:0:
409,32,28383,1,0,0:0:0:0:
103,32,28383,1,0,0:0:0:0:
470,138,28383,1,0,0:0:0:0:
163,351,28383,1,0,0:0:0:0:
348,351,28383,1,0,0:0:0:0:
440,298,28383,1,0,0:0:0:0:
470,351,28383,1,0,0:0:0:0:
501,298,28383,1,0,0:0:0:0:
71,298,28383,1,0,0:0:0:0:
10,298,28383,1,0,0:0:0:0:
41,351,28383,1,0,0:0:0:0:
