osu file format v14

[General]
AudioFilename: audio.mp3
AudioLeadIn: 0
PreviewTime: -1
Countdown: 1
SampleSet: None
StackLeniency: 0.7
Mode: 2
LetterboxInBreaks: 0
WidescreenStoryboard: 1

[Editor]
DistanceSpacing: 1
BeatDivisor: 4
GridSize: 32
TimelineZoom: 1

[Metadata]
Title:Harumachi Clover
TitleUnicode:Harumachi Clover
Artist:Hanasaka Yui(CV: M.A.O)
ArtistUnicode:Hanasaka Yui(CV: M.A.O)
Creator:Nipah
Version:Clover
Source:OneRoom
Tags:tv size one_room カントク kantoku -hakurei- karia lasse sekai sekai-nyan sekaii
BeatmapID:1963280
BeatmapSetID:580654

[Difficulty]
HPDrainRate:6
CircleSize:4
OverallDifficulty:8.5
ApproachRate:8.5
SliderMultiplier:1.4
SliderTickRate:1

[Events]
//Background and Video events
0,0,"maxresdefault.jpg",0,0
//Break Periods
//Storyboard Layer 0 (Background)
//Storyboard Layer 1 (Fail)
//Storyboard Layer 2 (Pass)
//Storyboard Layer 3 (Foreground)
//Storyboard Sound Samples

[TimingPoints]
-349,422.535211267606,4,2,1,40,1,0
1341,-100,4,2,1,80,0,0
1974,-50,4,2,1,80,0,0
2397,-100,4,2,1,80,0,0
4932,-50,4,2,1,80,0,0
6411,-90.0900900900901,4,2,1,80,0,0
7679,-100,4,2,1,80,0,0
9158,-50,4,2,1,80,0,0
9580,-100,4,2,1,80,0,0
10003,-50,4,2,1,80,0,0
10425,-100,4,2,1,80,0,0
13172,-50,4,2,1,80,0,0
14651,-100,4,2,1,80,0,0
18242,-52.6315789473684,4,2,1,80,0,0
19721,-100,4,2,1,80,0,0
22890,-50,4,2,1,80,0,0
24580,-86.9565217391304,4,2,1,80,0,0
26270,-100,4,2,1,80,0,0
29439,-100,4,2,1,5,0,0

[HitObjects]
154,218,284,6,0,L|105:137,1,70
311,212,707,2,0,L|360:131,1,70
154,218,1129,6,0,L|105:137,1,70
352,192,1552,1,8,0:0:0:0:
384,158,1658,1,8,0:0:0:0:
351,95,1763,1,8,0:0:0:0:
176,287,1974,6,2,B|144:255|80:255|35:292,2,140
384,288,2608,5,2,0:0:0:0:
224,128,2820,1,2,0:0:0:0:
448,64,3031,1,4,0:0:0:0:
128,288,3242,1,2,0:0:0:0:
320,288,3453,1,2,0:0:0:0:
448,160,3664,1,8,0:0:0:0:
480,96,3770,1,8,0:0:0:0:
448,64,3875,1,8,0:0:0:0:
128,352,4087,1,2,0:0:0:0:
64,256,4298,1,2,0:0:0:0:
96,160,4509,1,2,0:0:0:0:
320,160,4721,1,4,0:0:0:0:
224,160,4932,6,2,B|188:137|138:137|83:165,2,140
352,256,5566,1,2,0:0:0:0:
416,160,5777,1,2,0:0:0:0:
352,96,5989,1,0,0:0:0:0:
192,96,6200,1,2,0:0:0:0:
384,96,6411,1,4,0:0:0:0:
288,320,6622,1,2,0:0:0:0:
192,224,6834,1,2,0:0:0:0:
96,160,7045,1,8,0:0:0:0:
64,96,7151,1,8,0:0:0:0:
96,64,7256,1,8,0:0:0:0:
384,320,7467,5,2,0:0:0:0:
448,256,7679,1,2,0:0:0:0:
384,192,7890,1,2,0:0:0:0:
96,192,8101,5,4,0:0:0:0:
256,320,8312,1,2,0:0:0:0:
416,192,8524,1,2,0:0:0:0:
256,192,8735,1,2,0:0:0:0:
416,320,8946,1,2,0:0:0:0:
256,192,9158,6,8,B|220:169|170:169|115:197,2,140
416,320,9791,1,4,0:0:0:0:
448,192,10003,6,8,B|412:169|362:169|307:197,2,140
256,320,10636,1,2,0:0:0:0:
416,256,10848,1,2,0:0:0:0:
128,224,11059,1,2,0:0:0:0:
320,128,11270,1,2,0:0:0:0:
448,64,11481,1,4,0:0:0:0:
160,64,11693,1,6,0:0:0:0:
352,352,11904,1,4,0:0:0:0:
224,224,12115,1,4,0:0:0:0:
320,128,12327,1,4,0:0:0:0:
96,224,12538,1,8,0:0:0:0:
96,160,12749,5,2,0:0:0:0:
128,64,12960,1,2,0:0:0:0:
448,288,13172,6,2,P|343:225|343:224,1,140
160,288,13594,6,2,P|55:225|55:224,1,140
448,96,14017,6,2,P|343:33|343:32,1,140
160,96,14439,6,2,P|55:33|55:32,1,140
384,96,14862,1,4,0:0:0:0:
256,192,15073,1,2,0:0:0:0:
128,288,15284,1,2,0:0:0:0:
256,193,15496,1,2,0:0:0:0:
416,256,15707,1,0,0:0:0:0:
128,64,15918,1,2,0:0:0:0:
256,224,16129,1,2,0:0:0:0:
96,224,16341,1,8,0:0:0:0:
64,160,16447,1,8,0:0:0:0:
96,128,16552,1,8,0:0:0:0:
416,288,16763,5,2,0:0:0:0:
480,192,16974,1,2,0:0:0:0:
416,96,17186,1,2,0:0:0:0:
96,192,17397,1,8,0:0:0:0:
64,160,17503,1,8,0:0:0:0:
32,128,17609,1,8,0:0:0:0:
32,64,17714,1,8,0:0:0:0:
64,32,17820,1,8,0:0:0:0:
320,32,18031,1,8,0:0:0:0:
448,288,18242,6,4,L|449:152,1,132.999996448517,4|2,0:0|0:0,0:0:0:0:
64,288,18665,6,0,L|65:152,1,132.999996448517,4|2,0:0|0:0,0:0:0:0:
480,288,19087,6,0,L|481:152,1,132.999996448517,4|2,0:0|0:0,0:0:0:0:
32,288,19510,6,0,L|33:152,1,132.999996448517,4|2,0:0|0:0,0:0:0:0:
352,288,19932,1,2,0:0:0:0:
384,192,20143,1,2,0:0:0:0:
352,96,20355,1,2,0:0:0:0:
256,32,20566,1,2,0:0:0:0:
96,320,20777,1,8,0:0:0:0:
64,288,20883,1,8,0:0:0:0:
32,256,20989,1,8,0:0:0:0:
64,192,21094,1,8,0:0:0:0:
96,160,21200,1,8,0:0:0:0:
352,160,21411,1,0,0:0:0:0:
192,288,21622,5,2,0:0:0:0:
352,288,21834,1,2,0:0:0:0:
128,192,22045,1,2,0:0:0:0:
416,192,22256,1,2,0:0:0:0:
256,96,22467,1,2,0:0:0:0:
416,96,22679,1,0,0:0:0:0:
128,320,22890,1,8,0:0:0:0:
128,224,23101,1,4,0:0:0:0:
416,320,23312,1,2,0:0:0:0:
416,224,23523,1,2,0:0:0:0:
96,160,23735,1,2,0:0:0:0:
96,64,23946,1,2,0:0:0:0:
448,160,24158,5,8,0:0:0:0:
448,64,24369,1,4,0:0:0:0:
256,64,24580,1,0,0:0:0:0:
384,320,24791,1,2,0:0:0:0:
224,224,25003,1,4,0:0:0:0:
384,128,25214,1,2,0:0:0:0:
224,320,25425,1,2,0:0:0:0:
416,320,25636,1,2,0:0:0:0:
192,160,25848,1,2,0:0:0:0:
480,64,26059,1,2,0:0:0:0:
160,320,26270,1,2,0:0:0:0:
160,224,26481,5,2,0:0:0:0:
480,224,26693,1,8,0:0:0:0:
480,128,26904,1,2,0:0:0:0:
64,224,27115,5,2,0:0:0:0:
64,128,27327,1,2,0:0:0:0:
416,320,27538,1,0,0:0:0:0:
416,224,27749,1,0,0:0:0:0:
64,192,27960,1,0,0:0:0:0:
416,32,28172,1,2,0:0:0:0:
96,192,28383,2,8,B|96:288|160:320|256:288|288:224|160:128,1,350,8|4,0:0|0:0,0:0:0:0:
256,192,29545,12,2,30550,0:0:0:0:
