osu file format v14

[General]
AudioFilename: audio.mp3
AudioLeadIn: 0
PreviewTime: 0
Countdown: 1
SampleSet: Soft
StackLeniency: 0.2
Mode: 0
LetterboxInBreaks: 0
WidescreenStoryboard: 1

[Editor]
DistanceSpacing: 1
BeatDivisor: 4
GridSize: 4
TimelineZoom: 1.8

[Metadata]
Title:Harumachi Clover
TitleUnicode:Harumachi Clover
Artist:Hanasaka Yui(CV: M.A.O)
ArtistUnicode:花坂結衣(CV:M・A・O)
Creator:Nightlys
Version:Introducing the Mac Keyboard Grid
Source:
Tags:
BeatmapID:1657780
BeatmapSetID:789962

[Difficulty]
HPDrainRate:5
CircleSize:5.2
OverallDifficulty:5
ApproachRate:8.4
SliderMultiplier:1.8
SliderTickRate:1

[Events]
//Background and Video events
0,0,"download (1).jpg",0,0
//Break Periods
//Storyboard Layer 0 (Background)
//Storyboard Layer 1 (Fail)
//Storyboard Layer 2 (Pass)
//Storyboard Layer 3 (Foreground)
//Storyboard Sound Samples

[TimingPoints]
1341,422.535211267606,4,2,0,100,1,0
1552,-500,4,2,0,100,0,0
2819,-500,4,2,1,100,0,0
12749,-500,4,2,0,100,0,1
14439,-500,4,2,1,100,0,0
21833,-500,4,2,1,100,0,0
28383,-500,4,2,1,100,0,0
29439,-500,4,2,0,100,0,0

[HitObjects]
392,216,284,5,0,0:0:0:0:
308,152,495,1,0,0:0:0:0:
256,216,707,1,0,0:0:0:0:
172,152,918,1,0,0:0:0:0:
36,152,1129,1,0,0:0:0:0:
120,220,1341,5,0,0:0:0:0:
0,352,1552,1,0,0:0:0:0:
0,352,1763,2,0,L|24:352,1,18
92,352,2186,1,0,0:0:0:0:
152,352,2397,1,0,0:0:0:0:
212,352,2608,1,0,0:0:0:0:
212,352,2819,5,2,0:0:0:0:
272,352,2925,5,2,0:0:0:0:
332,352,3031,5,2,0:0:0:0:
332,352,3242,5,0,0:0:0:0:
332,352,3453,2,0,L|356:352,1,18
428,284,3876,1,0,0:0:0:0:
496,284,4087,1,0,0:0:0:0:
460,220,4298,1,0,0:0:0:0:
444,152,4510,1,0,0:0:0:0:
512,152,4721,5,0,0:0:0:0:
376,152,4932,1,0,0:0:0:0:
324,216,5143,1,0,0:0:0:0:
444,152,5355,1,0,0:0:0:0:
340,84,5566,1,0,0:0:0:0:
240,152,5777,1,0,0:0:0:0:
324,216,5988,1,0,0:0:0:0:
236,152,6200,5,2,0:0:0:0:
272,84,6306,5,2,0:0:0:0:
308,20,6411,5,2,0:0:0:0:
376,20,6622,5,0,0:0:0:0:
408,84,6833,1,0,0:0:0:0:
448,152,7045,1,0,0:0:0:0:
428,352,7256,2,0,L|452:352,1,18
18,352,7679,2,0,L|0:352,1,18
16,284,8101,5,0,0:0:0:0:
48,216,8312,1,0,0:0:0:0:
88,352,8524,2,0,L|112:352,1,18
124,352,8946,2,0,L|106:352,1,18
84,284,9369,1,0,0:0:0:0:
36,152,9580,1,0,0:0:0:0:
168,16,10002,5,0,0:0:0:0:
204,84,10214,1,0,0:0:0:0:
172,152,10425,1,0,0:0:0:0:
240,152,10636,1,0,0:0:0:0:
188,216,10848,1,0,0:0:0:0:
152,284,11059,1,0,0:0:0:0:
84,352,11270,6,0,L|192:352,1,108
224,284,12749,1,0,0:0:0:0:
32,152,12960,1,0,0:0:0:0:
464,220,13171,1,2,0:0:0:0:
68,88,13383,1,2,0:0:0:0:
392,220,13594,1,2,0:0:0:0:
120,216,13805,1,0,0:0:0:0:
377,154,14016,1,8,0:0:0:0:
272,84,14228,1,0,0:0:0:0:
360,352,14439,5,2,0:0:0:0:
304,352,14545,5,2,0:0:0:0:
248,352,14650,5,2,0:0:0:0:
192,352,14756,5,2,0:0:0:0:
136,352,14861,5,2,0:0:0:0:
84,284,15073,5,0,0:0:0:0:
188,216,15284,1,0,0:0:0:0:
172,152,15495,1,0,0:0:0:0:
48,220,15706,1,0,0:0:0:0:
116,220,15917,1,0,0:0:0:0:
184,220,16129,1,0,0:0:0:0:
240,152,16341,5,0,0:0:0:0:
240,152,16446,1,0,0:0:0:0:
240,152,16552,1,0,0:0:0:0:
256,216,16763,1,0,0:0:0:0:
288,284,16974,1,0,0:0:0:0:
360,352,17186,2,0,L|324:352,1,36
288,284,17819,1,0,0:0:0:0:
256,216,18031,1,0,0:0:0:0:
84,284,18242,5,0,0:0:0:0:
188,216,18453,1,0,0:0:0:0:
172,152,18664,1,0,0:0:0:0:
48,216,18875,1,0,0:0:0:0:
116,216,19086,1,0,0:0:0:0:
188,216,19298,1,0,0:0:0:0:
188,217,19510,1,0,0:0:0:0:
220,284,19721,1,0,0:0:0:0:
448,352,19932,6,0,L|424:352,1,18
84,352,20355,1,0,0:0:0:0:
84,352,20566,2,0,L|124:352,1,36
180,352,21200,1,0,0:0:0:0:
220,284,21411,1,0,0:0:0:0:
308,152,21622,1,0,0:0:0:0:
168,152,21833,1,2,0:0:0:0:
168,152,21939,1,2,0:0:0:0:
168,152,22045,1,2,0:0:0:0:
360,284,22256,1,0,0:0:0:0:
448,152,22467,1,0,0:0:0:0:
168,152,22679,1,0,0:0:0:0:
288,284,22890,1,0,0:0:0:0:
360,284,23101,5,0,0:0:0:0:
448,152,23524,1,0,0:0:0:0:
412,84,23735,1,0,0:0:0:0:
376,16,23946,1,0,0:0:0:0:
344,84,24157,1,0,0:0:0:0:
308,152,24369,1,0,0:0:0:0:
360,284,24580,1,0,0:0:0:0:
356,352,24791,2,0,L|248:352,1,108
220,284,26270,1,0,0:0:0:0:
428,284,26481,1,0,0:0:0:0:
444,152,26904,1,0,0:0:0:0:
328,220,27115,1,0,0:0:0:0:
240,152,27326,1,0,0:0:0:0:
100,16,27749,1,0,0:0:0:0:
168,152,27960,5,2,0:0:0:0:
184,216,28066,1,2,0:0:0:0:
256,216,28171,1,2,0:0:0:0:
288,284,28277,1,2,0:0:0:0:
324,352,28383,2,4,L|232:352,1,90,4|4,2:2|2:2,2:2:0:0:
