osu file format v14

[General]
AudioFilename: audio.mp3
AudioLeadIn: 0
PreviewTime: 1418
Countdown: 0
SampleSet: Soft
StackLeniency: 0.4
Mode: 0
LetterboxInBreaks: 0
WidescreenStoryboard: 1

[Editor]
DistanceSpacing: 1.9
BeatDivisor: 4
GridSize: 16
TimelineZoom: 1

[Metadata]
Title:Harumachi Clover
TitleUnicode:春待ちクローバー
Artist:Hanasaka Yui(CV: M.A.O)
ArtistUnicode:花坂結衣(CV:M・A・O)
Creator:Naotoshi
Version:ktgster's Special
Source:OneRoom
Tags:uber my angel kanan nextplay kalibe doj ktgster lolis mao ichimichi 市道 真央 kin 2nd chorus
BeatmapID:1385215
BeatmapSetID:649373

[Difficulty]
HPDrainRate:6
CircleSize:5
OverallDifficulty:8.5
ApproachRate:8.5
SliderMultiplier:2
SliderTickRate:1

[Events]
//Background and Video events
0,0,"11.jpg",0,0
//Break Periods
//Storyboard Layer 0 (Background)
//Storyboard Layer 1 (Fail)
//Storyboard Layer 2 (Pass)
//Storyboard Layer 3 (Foreground)
//Storyboard Sound Samples

[TimingPoints]
996,422.535211267606,4,2,1,87,1,0
996,-200,4,2,1,87,0,0
29939,-200,4,2,1,53,0,0
30362,-200,4,2,1,36,0,0
30784,-200,4,2,1,13,0,0

[Colours]
Combo1 : 237,133,18
Combo2 : 170,36,227
Combo3 : 227,124,121
Combo4 : 131,224,95

[HitObjects]
172,151,996,5,0,3:0:0:0:
340,233,1207,1,0,0:0:0:0:
146,245,1418,1,8,0:0:0:0:
365,138,1629,1,0,0:0:0:0:
128,352,1841,5,0,3:0:0:0:
256,304,2052,1,0,0:0:0:0:
384,352,2263,1,8,0:2:0:0:
256,304,2474,1,0,3:0:0:0:
480,208,2686,5,6,3:2:0:0:
381,222,2897,1,0,0:0:0:0:
292,176,3108,1,8,0:2:0:0:
193,190,3319,1,0,0:0:0:0:
317,348,3531,5,0,3:2:0:0:
255,269,3742,1,0,0:0:0:0:
218,363,3953,1,8,0:2:0:0:
156,284,4165,2,0,L|189:295,1,25,0|0,3:2|0:0,0:0:0:0:
416,333,4376,5,2,3:2:0:0:
317,348,4587,1,0,0:0:0:0:
479,254,4798,5,8,0:0:0:0:
380,239,5010,2,0,L|417:246,1,25
416,333,5221,5,0,3:0:0:0:
417,323,5432,1,0,0:0:0:0:
444,170,5643,1,8,0:0:0:0:
474,278,5855,2,0,L|481:241,1,25
512,114,6066,5,6,3:2:0:0:
413,100,6277,1,0,0:0:0:0:
324,146,6488,1,8,0:0:0:0:
225,132,6699,1,0,0:0:0:0:
408,200,6911,5,0,3:0:0:0:
329,46,7122,1,0,0:3:0:0:
408,200,7334,1,8,0:2:0:0:
418,0,7545,1,0,3:0:0:0:
313,233,7756,5,2,3:2:0:0:
328,134,7967,1,0,0:0:0:0:
234,296,8178,5,8,0:0:0:0:
219,197,8390,2,0,L|225:233,1,25,8|0,0:2|0:0,0:0:0:0:
313,233,8601,5,0,3:0:0:0:
303,234,8812,1,0,0:0:0:0:
146,258,9023,1,8,0:0:0:0:
287,371,9235,2,0,L|293:335,1,25,8|0,0:2|0:0,0:0:0:0:
313,233,9446,5,6,3:2:0:0:
328,134,9657,1,0,0:0:0:0:
336,286,9869,5,8,0:0:0:0:
351,187,10080,1,0,0:0:0:0:
359,339,10292,5,0,3:0:0:0:
374,240,10503,1,0,0:0:0:0:
452,302,10714,1,8,0:0:0:0:
281,277,10925,2,0,L|326:282,1,25,8|0,3:2|0:0,0:0:0:0:
452,302,11136,5,6,3:2:0:0:
359,339,11348,1,0,0:0:0:0:
480,312,11559,5,8,0:0:0:0:
387,349,11771,1,0,0:0:0:0:
508,322,11981,5,0,3:0:0:0:
415,359,12193,1,0,0:0:0:0:
336,297,12404,1,8,0:0:0:0:
429,260,12615,2,0,L|424:301,1,25,8|0,3:2|0:0,0:0:0:0:
299,374,12826,5,6,3:2:0:0:
295,363,13037,1,0,0:2:0:0:
276,241,13248,1,8,0:0:0:0:
209,353,13460,2,0,L|226:315,1,25
388,346,13672,5,0,3:0:0:0:
384,335,13883,1,0,0:0:0:0:
227,384,14094,2,0,L|244:346,1,25,8|0,0:0|0:0,0:0:0:0:
313,164,14305,1,0,3:0:0:0:
121,293,14517,6,0,L|160:287,1,25,2|0,3:2|0:0,0:0:0:0:
410,244,14728,1,0,0:0:0:0:
135,216,14939,6,0,L|174:210,1,25,10|0,0:0|0:0,0:0:0:0:
424,167,15150,1,0,0:0:0:0:
149,139,15362,5,2,3:2:0:0:
173,135,15467,1,2,0:2:0:0:
197,131,15573,1,2,3:2:0:0:
221,127,15679,1,2,0:2:0:0:
257,122,15784,5,8,0:0:0:0:
304,115,15890,1,0,3:0:0:0:
351,107,15996,1,0,3:0:0:0:
395,100,16101,1,0,0:0:0:0:
442,92,16207,5,6,3:2:0:0:
422,189,16418,1,0,0:0:0:0:
328,221,16629,1,8,0:0:0:0:
348,124,16841,1,0,0:0:0:0:
497,99,17052,5,0,3:0:0:0:
477,196,17263,1,0,0:0:0:0:
383,228,17474,1,8,0:0:0:0:
403,131,17686,2,0,L|395:169,1,25,0|0,3:0|0:0,0:0:0:0:
458,294,17897,5,2,3:2:0:0:
477,196,18108,1,0,0:0:0:0:
364,326,18319,5,8,0:0:0:0:
383,228,18531,2,0,L|374:269,1,25,0|0,0:0|0:0,0:0:0:0:
458,294,18742,5,0,3:0:0:0:
289,260,18953,1,0,0:0:0:0:
458,294,19165,1,8,0:0:0:0:
289,260,19376,2,0,L|322:267,1,25,0|0,3:0|0:0,0:0:0:0:
442,151,19587,5,6,3:2:0:0:
345,171,19798,1,0,0:0:0:0:
313,265,20009,1,8,0:0:0:0:
410,245,20221,1,0,0:0:0:0:
435,96,20432,5,0,3:0:0:0:
338,116,20643,1,0,0:0:0:0:
306,210,20854,1,8,0:0:0:0:
403,190,21066,2,0,L|365:198,1,25,0|0,3:0|0:0,0:0:0:0:
240,135,21277,5,4,3:2:0:0:
338,116,21488,1,0,0:0:0:0:
337,314,21699,5,8,0:0:0:0:
239,295,21911,2,0,L|280:304,1,25,8|8,0:0|0:0,0:0:0:0:
402,189,22122,5,0,3:0:0:0:
170,229,22333,1,0,0:0:0:0:
402,189,22545,1,8,0:0:0:0:
170,229,22756,2,0,L|203:222,1,25,0|0,3:0|0:0,0:0:0:0:
305,160,22967,5,6,3:2:0:0:
293,259,23179,1,0,0:0:0:0:
384,219,23390,1,8,0:0:0:0:
253,350,23601,2,0,L|266:315,1,25,0|0,3:0|0:0,0:0:0:0:
384,219,23812,5,0,3:0:0:0:
202,203,24024,1,0,0:0:0:0:
384,219,24235,1,8,0:0:0:0:
110,147,24446,6,0,B|94:195|94:195|110:243,1,100,2|0,0:0|0:0,0:0:0:0:
202,203,25080,1,8,0:0:0:0:
0,189,25291,2,0,L|40:191,1,25,0|0,0:0|0:0,0:0:0:0:
202,203,25503,5,0,3:0:0:0:
109,241,25714,1,0,0:0:0:0:
253,287,25925,1,8,0:0:0:0:
17,375,26136,6,0,B|1:327|1:327|17:279,1,100,2|0,0:0|0:0,0:0:0:0:
109,241,26770,1,8,0:0:0:0:
116,376,26981,2,0,L|114:335,1,25,0|0,0:0|0:0,0:0:0:0:
109,241,27193,5,0,3:0:0:0:
207,290,27404,1,0,0:0:0:0:
2,328,27615,1,8,0:0:0:0:
299,234,27826,6,0,B|315:282|315:282|299:330,1,100,6|0,0:0|0:0,0:0:0:0:
207,290,28460,1,8,0:0:0:0:
239,158,28672,2,0,L|230:197,1,25,0|0,0:0|0:0,0:0:0:0:
207,290,28883,5,2,3:2:0:0:
399,262,29094,1,0,0:0:0:0:
101,214,29305,1,8,0:0:0:0:
51,197,29411,1,0,0:0:0:0:
51,145,29517,1,2,3:2:0:0:
101,129,29622,1,0,0:0:0:0:
131,171,29728,5,2,3:2:0:0:
71,291,29939,2,0,B|98:297|123:320,1,50,2|8,0:0|0:0,0:0:0:0:
223,256,30362,2,0,P|206:291|216:351,1,100,2|2,0:0|0:0,0:0:0:0:
311,379,30996,1,8,0:0:0:0:
281,310,31207,5,2,0:0:0:0:
