osu file format v14

[General]
AudioFilename: audio.mp3
AudioLeadIn: 0
PreviewTime: 73
Countdown: 0
SampleSet: Soft
StackLeniency: 0.2
Mode: 0
LetterboxInBreaks: 0
WidescreenStoryboard: 0

[Editor]
Bookmarks: 27086,37033,47139,57244,67507,74928,77454,97665,102718,107770,118033,125454,140297,158454
DistanceSpacing: 1.2
BeatDivisor: 4
GridSize: 4
TimelineZoom: 1

[Metadata]
Title:Harumachi Clover
TitleUnicode:春待ちクローバー
Artist:Hanasaka Yui(CV: M.A.O)
ArtistUnicode:花坂結衣(CV:M・A・O)
Creator:Naotoshi
Version:ktgster's Cloverdose
Source:OneRoom
Tags:tvsize kantoku カントク one room ワンルーム Kisses Victorica ktgster frostwich Nao Tomori Mir
BeatmapID:1253252
BeatmapSetID:591987

[Difficulty]
HPDrainRate:6
CircleSize:4.6
OverallDifficulty:8.5
ApproachRate:8.5
SliderMultiplier:1
SliderTickRate:1

[Events]
//Background and Video events
0,0,"kantoku lolis.jpg",0,0
//Break Periods
//Storyboard Layer 0 (Background)
//Storyboard Layer 1 (Fail)
//Storyboard Layer 2 (Pass)
//Storyboard Layer 3 (Foreground)
//Storyboard Sound Samples

[TimingPoints]
-349,422.535211267606,4,2,1,50,1,0
1341,-58.8235294117647,4,2,1,100,0,0
23418,-58.8235294117647,4,2,1,5,0,0
23524,-58.8235294117647,4,2,1,100,0,0
28489,-58.8235294117647,4,2,1,65,0,0
29334,-58.8235294117647,4,2,1,45,0,0
30284,-58.8235294117647,4,2,1,5,0,0

[Colours]
Combo1 : 152,4,251
Combo2 : 244,120,117
Combo3 : 85,162,255
Combo4 : 63,233,160

[HitObjects]
256,40,284,5,0,0:2:0:0:
190,90,496,1,0,0:2:0:0:
187,71,707,1,0,0:2:0:0:
184,52,918,1,0,0:2:0:0:
181,36,1129,1,0,0:2:0:0:
33,206,1341,5,4,1:0:0:0:
128,170,1552,1,0,0:2:0:0:
229,183,1763,1,8,3:2:0:0:
302,254,1974,1,0,0:2:0:0:
204,282,2186,5,0,3:0:0:0:
326,155,2397,1,0,0:0:0:0:
374,324,2608,1,8,3:2:0:0:
156,113,2820,1,0,0:0:0:0:
156,113,2925,1,0,0:0:0:0:
156,113,3031,5,0,3:2:0:0:
405,84,3242,1,0,0:2:0:0:
214,35,3453,1,8,3:2:0:0:
358,171,3664,1,0,0:2:0:0:
201,384,3876,6,0,L|217:284,1,85.0000016212464,0|0,3:2|0:2,0:0:0:0:
229,199,4298,1,8,3:2:0:0:
229,199,4510,1,0,0:2:0:0:
33,176,4721,5,0,3:2:0:0:
128,212,4932,1,0,0:0:0:0:
229,199,5143,1,8,3:2:0:0:
302,128,5354,1,0,0:2:0:0:
204,100,5566,5,0,3:2:0:0:
326,227,5777,1,0,0:2:0:0:
374,58,5988,1,8,3:2:0:0:
156,269,6200,1,0,0:2:0:0:
156,269,6305,1,0,0:0:0:0:
156,269,6411,5,0,3:2:0:0:
434,202,6622,1,0,0:2:0:0:
172,176,6834,1,8,3:2:0:0:
423,312,7045,1,0,0:2:0:0:
295,24,7256,6,0,L|304:124,1,85.0000016212464,0|0,3:2|0:2,0:0:0:0:
308,210,7678,1,8,3:2:0:0:
127,190,7890,1,0,3:2:0:0:
127,190,7996,1,0,3:0:0:0:
127,190,8101,6,0,L|136:90,1,85.0000016212464,4|0,3:1|0:2,0:0:0:0:
206,32,8524,1,8,3:2:0:0:
24,88,8735,1,0,0:2:0:0:
280,169,8946,5,0,3:2:0:0:
134,105,9158,1,0,0:2:0:0:
358,90,9369,1,8,3:2:0:0:
134,105,9580,1,0,0:0:0:0:
208,242,9791,6,0,L|201:327,1,85.0000016212464,4|0,0:1|0:2,0:0:0:0:
280,169,10214,1,8,3:2:0:0:
319,337,10425,1,0,0:2:0:0:
319,337,10531,1,0,0:2:0:0:
319,337,10636,5,0,3:2:0:0:
122,282,10848,1,0,0:2:0:0:
353,234,11059,1,8,3:2:0:0:
115,145,11270,1,0,0:2:0:0:
115,145,11376,1,0,0:0:0:0:
115,145,11481,6,0,L|214:154,1,85.0000016212464,4|0,3:1|0:2,0:0:0:0:
272,80,11904,1,8,3:2:0:0:
162,249,12115,1,0,0:2:0:0:
263,235,12327,5,0,3:2:0:0:
360,263,12538,1,0,0:0:0:0:
400,356,12749,1,8,3:2:0:0:
461,147,12960,1,0,3:2:0:0:
461,147,13066,1,0,3:0:0:0:
461,147,13172,5,4,3:1:0:0:
161,102,13383,1,0,3:2:0:0:
479,66,13594,5,8,3:2:0:0:
200,195,13805,1,0,3:2:0:0:
506,222,14017,5,0,3:2:0:0:
161,102,14228,1,0,3:0:0:0:
117,127,14333,1,0,3:0:0:0:
91,170,14439,1,8,3:2:0:0:
88,221,14544,1,0,3:0:0:0:
106,269,14650,1,0,3:0:0:0:
145,300,14756,1,0,3:0:0:0:
193,315,14862,5,4,3:1:0:0:
285,273,15073,1,0,0:2:0:0:
370,328,15284,1,8,3:2:0:0:
462,286,15495,1,0,0:2:0:0:
443,167,15707,5,0,3:2:0:0:
482,366,15918,1,0,0:2:0:0:
285,273,16130,1,8,3:2:0:0:
324,74,16341,1,0,0:0:0:0:
498,40,16552,5,4,3:1:0:0:
266,129,16763,1,0,0:2:0:0:
461,135,16974,1,8,3:2:0:0:
287,207,17185,1,0,0:2:0:0:
429,237,17397,5,0,3:2:0:0:
313,281,17608,1,0,0:2:0:0:
410,360,17820,1,8,3:2:0:0:
332,158,18031,1,0,0:2:0:0:
317,109,18136,1,0,0:0:0:0:
299,61,18242,5,4,3:1:0:0:
207,103,18453,1,0,0:2:0:0:
122,48,18664,1,8,3:2:0:0:
30,90,18875,1,0,0:2:0:0:
55,206,19087,5,0,3:2:0:0:
16,7,19298,1,0,0:2:0:0:
207,103,19510,1,8,3:2:0:0:
168,302,19721,1,0,0:2:0:0:
12,338,19932,5,4,3:1:0:0:
244,249,20143,1,0,0:2:0:0:
49,237,20354,1,8,3:2:0:0:
197,97,20565,1,0,0:2:0:0:
197,97,20672,1,8,0:0:0:0:
197,97,20777,5,0,3:2:0:0:
81,141,20989,1,0,0:2:0:0:
223,177,21200,1,8,3:2:0:0:
121,282,21411,1,0,0:2:0:0:
106,331,21517,1,0,0:0:0:0:
129,376,21622,5,4,3:1:0:0:
216,322,21834,1,0,0:2:0:0:
315,345,22045,1,8,3:2:0:0:
121,282,22256,1,0,3:2:0:0:
152,237,22361,1,8,0:0:0:0:
204,218,22467,5,8,3:2:0:0:
216,322,22679,1,8,0:2:0:0:
77,170,22890,1,8,3:2:0:0:
377,220,23101,5,4,3:1:0:0:
377,220,23524,1,0,3:2:0:0:
178,202,23735,1,8,3:2:0:0:
315,121,23946,1,0,0:2:0:0:
359,103,24052,1,0,0:0:0:0:
409,97,24158,5,0,3:2:0:0:
503,233,24369,1,0,0:2:0:0:
276,212,24580,1,8,3:2:0:0:
88,359,24791,6,0,B|40:334|40:334|23:219,1,170.000003242493,4|0,3:1|3:2,0:0:0:0:
6,118,25425,1,8,3:2:0:0:
133,266,25636,1,0,0:2:0:0:
126,216,25742,1,0,0:0:0:0:
118,166,25848,5,0,3:2:0:0:
199,95,26059,1,0,0:2:0:0:
279,332,26270,1,8,3:2:0:0:
23,219,26481,6,0,L|37:39,1,170.000003242493,4|0,3:1|3:2,0:0:0:0:
128,5,27115,1,8,3:2:0:0:
135,107,27327,1,0,0:2:0:0:
139,157,27432,1,8,0:0:0:0:
143,207,27538,5,0,3:2:0:0:
61,365,27749,1,0,0:2:0:0:
239,358,27960,1,8,3:2:0:0:
283,333,28066,1,8,0:0:0:0:
304,286,28172,1,4,3:1:0:0:
303,234,28278,1,8,0:0:0:0:
274,191,28383,5,8,0:2:0:0:
256,192,28489,12,0,30284,0:2:0:0:
