osu file format v14

[General]
AudioFilename: audio.mp3
AudioLeadIn: 0
PreviewTime: 1418
Countdown: 0
SampleSet: Soft
StackLeniency: 0.7
Mode: 0
LetterboxInBreaks: 0
WidescreenStoryboard: 1

[Editor]
Bookmarks: 8390,21911,26981,29305
DistanceSpacing: 1.9
BeatDivisor: 4
GridSize: 16
TimelineZoom: 2.6

[Metadata]
Title:Harumachi Clover
TitleUnicode:春待ちクローバー
Artist:Hanasaka Yui(CV: M.A.O)
ArtistUnicode:花坂結衣(CV:M・A・O)
Creator:Naotoshi
Version:Kalibe's Hard
Source:OneRoom
Tags:uber my angel kanan nextplay kalibe doj ktgster lolis mao ichimichi 市道 真央 kin 2nd chorus
BeatmapID:1385213
BeatmapSetID:649373

[Difficulty]
HPDrainRate:5
CircleSize:4
OverallDifficulty:5.5
ApproachRate:7
SliderMultiplier:1.65
SliderTickRate:1

[Events]
//Background and Video events
0,0,"11.jpg",0,0
//Break Periods
//Storyboard Layer 0 (Background)
//Storyboard Layer 1 (Fail)
//Storyboard Layer 2 (Pass)
//Storyboard Layer 3 (Foreground)
//Storyboard Sound Samples

[TimingPoints]
996,422.535211267606,4,2,1,87,1,0
29939,-133.333333333333,4,2,1,53,0,0
30362,-133.333333333333,4,2,1,36,0,0
30784,-133.333333333333,4,2,1,13,0,0

[Colours]
Combo1 : 237,133,18
Combo2 : 170,36,227
Combo3 : 227,124,121
Combo4 : 131,224,95

[HitObjects]
102,351,996,6,0,P|82:313|88:269,1,82.5,0|0,3:0|0:0,0:0:0:0:
28,183,1418,2,0,P|66:163|110:169,1,82.5,8|0,0:0|0:0,0:0:0:0:
194,107,1841,2,0,P|213:142|210:183,1,82.5,0|0,3:0|0:0,0:0:0:0:
270,271,2263,2,0,P|234:290|193:287,1,82.5,8|0,0:2|3:0,0:0:0:0:
201,294,2580,1,0,0:0:0:0:
201,294,2686,6,0,P|209:336|217:379,1,82.5,6|0,3:2|0:0,0:0:0:0:
317,339,3108,2,0,L|420:355,1,82.5,8|0,0:2|0:0,0:0:0:0:
468,269,3531,2,0,L|386:256,1,82.5,0|0,3:2|0:0,0:0:0:0:
288,176,3953,1,8,0:2:0:0:
288,176,4165,1,0,0:0:0:0:
374,112,4376,6,0,P|417:118|460:138,1,82.5,2|0,3:2|0:0,0:0:0:0:
369,24,4798,1,8,0:0:0:0:
279,83,5010,2,0,B|182:100|218:45|105:66,1,165,0|0,0:0|0:0,0:0:0:0:
19,24,5643,2,0,P|7:63|22:109,1,82.5,8|0,0:0|0:0,0:0:0:0:
111,154,6066,5,6,3:2:0:0:
14,200,6277,1,0,0:0:0:0:
106,145,6488,1,8,0:0:0:0:
188,213,6700,1,0,0:0:0:0:
121,297,6911,2,0,P|82:295|30:281,1,82.5,0|0,3:0|0:3,0:0:0:0:
139,379,7334,2,0,P|175:369|230:367,1,82.5,8|0,0:2|0:0,0:0:0:0:
323,340,7756,5,2,3:2:0:0:
231,285,7967,1,0,0:0:0:0:
312,214,8179,1,8,0:0:0:0:
396,279,8390,2,0,P|314:265|222:251,1,165,8|0,0:2|0:0,0:0:0:0:
140,176,9024,1,8,0:0:0:0:
228,116,9235,1,8,0:2:0:0:
228,116,9341,1,8,0:0:0:0:
228,116,9446,6,0,P|269:109|324:99,1,82.5,6|0,3:2|0:0,0:0:0:0:
399,42,9869,2,0,P|406:83|416:138,1,82.5,8|0,0:2|0:0,0:0:0:0:
470,213,10291,2,0,P|429:220|374:230,1,82.5,2|0,3:2|0:0,0:0:0:0:
316,307,10714,1,8,0:0:0:0:
422,358,10925,1,0,3:0:0:0:
422,358,11031,1,0,0:0:0:0:
422,358,11136,6,0,L|332:342,1,82.5,6|0,3:2|0:0,0:0:0:0:
254,269,11559,2,0,P|211:271|176:291,1,82.5,8|0,0:0|0:0,0:0:0:0:
101,366,11981,1,0,3:0:0:0:
34,281,12193,1,0,0:0:0:0:
121,219,12404,1,8,0:0:0:0:
36,154,12615,1,0,3:0:0:0:
36,154,12721,1,0,0:0:0:0:
36,154,12826,6,0,L|202:176,1,165,6|8,3:2|0:0,0:0:0:0:
287,113,13460,1,0,0:0:0:0:
183,83,13672,2,0,P|224:85|265:71,1,82.5,0|0,3:0|0:0,0:0:0:0:
360,28,14094,2,0,P|401:26|442:40,1,82.5,8|0,0:0|3:0,0:0:0:0:
505,124,14517,5,2,3:2:0:0:
507,131,14728,1,0,0:0:0:0:
408,170,14939,5,10,0:0:0:0:
411,177,15150,1,0,0:0:0:0:
312,220,15362,5,2,3:2:0:0:
314,227,15573,1,2,3:2:0:0:
217,273,15784,6,0,L|204:226,3,41.25,8|0|0|0,0:0|3:0|3:0|0:0,0:0:0:0:
220,285,16207,6,0,P|178:275|130:272,1,82.5,6|0,3:2|0:0,0:0:0:0:
44,323,16629,2,0,P|34:281|31:233,1,82.5,8|0,0:0|0:0,0:0:0:0:
90,152,17052,2,0,P|131:148|171:138,1,82.5,0|0,3:0|0:0,0:0:0:0:
261,81,17474,1,8,0:0:0:0:
158,47,17686,1,0,3:0:0:0:
158,47,17791,1,0,0:0:0:0:
158,47,17897,6,0,P|195:46|242:63,1,82.5,2|0,3:2|0:0,0:0:0:0:
328,118,18319,1,8,0:0:0:0:
231,161,18531,2,0,B|292:153|292:153|329:168|329:168|399:160,1,165,2|2,0:0|0:0,0:0:0:0:
359,261,19165,1,8,0:0:0:0:
465,310,19376,1,0,3:0:0:0:
465,310,19481,1,0,0:0:0:0:
465,310,19587,6,0,P|424:297|374:292,1,82.5,6|0,3:2|0:0,0:0:0:0:
287,246,20010,2,0,P|246:259|196:264,1,82.5,8|0,0:0|0:0,0:0:0:0:
117,322,20432,2,0,P|104:281|99:231,1,82.5,0|0,3:0|0:0,0:0:0:0:
172,162,20855,1,8,0:0:0:0:
76,112,21066,1,0,3:0:0:0:
167,56,21277,6,0,P|127:66|75:78,1,82.5,2|0,3:2|0:0,0:0:0:0:
5,145,21700,1,8,0:0:0:0:
106,218,21911,1,8,0:0:0:0:
106,218,22017,1,8,0:0:0:0:
106,218,22122,1,0,3:0:0:0:
13,298,22334,1,0,0:0:0:0:
13,298,22545,2,0,L|98:311,1,82.5,10|0,0:0|3:0,0:0:0:0:
183,369,22967,6,0,P|223:359|271:356,1,82.5,6|0,3:2|0:0,0:0:0:0:
339,279,23390,2,0,P|297:275|257:265,1,82.5,8|0,0:0|3:0,0:0:0:0:
257,265,23707,1,0,0:0:0:0:
257,265,23812,1,0,3:0:0:0:
313,176,24024,1,0,0:0:0:0:
220,125,24235,1,8,0:0:0:0:
175,221,24446,6,0,P|240:164|322:182,1,165,2|0,0:0|0:0,0:0:0:0:
408,126,25080,2,0,P|425:163|413:214,1,82.5,8|0,0:0|0:0,0:0:0:0:
467,299,25503,2,0,P|430:316|379:304,1,82.5,0|0,3:0|0:0,0:0:0:0:
294,260,25925,1,8,0:0:0:0:
228,345,26136,6,0,B|141:323|150:376|64:355,1,165,2|0,0:0|0:0,0:0:0:0:
10,264,26770,2,0,P|49:268|95:247,1,82.5,8|0,0:0|0:0,0:0:0:0:
88,252,27087,1,0,0:0:0:0:
88,252,27193,1,0,3:0:0:0:
40,168,27404,1,0,0:0:0:0:
137,124,27615,1,8,0:0:0:0:
48,64,27826,6,0,P|134:77|217:89,1,165,6|0,0:0|0:0,0:0:0:0:
301,146,28460,2,0,P|308:104|321:53,1,82.5,8|0,0:0|0:0,0:0:0:0:
317,65,28777,1,0,0:0:0:0:
317,65,28883,1,2,3:2:0:0:
414,130,29094,1,0,0:0:0:0:
353,218,29305,2,0,L|359:266,3,41.25,8|0|2|0,0:0|0:0|3:2|0:0,0:0:0:0:
337,289,29728,5,2,3:2:0:0:
256,192,29834,12,0,32263,0:0:0:0:
