osu file format v14

[General]
AudioFilename: audio.mp3
AudioLeadIn: 0
PreviewTime: 1418
Countdown: 0
SampleSet: Soft
StackLeniency: 0.7
Mode: 0
LetterboxInBreaks: 0
WidescreenStoryboard: 0

[Editor]
DistanceSpacing: 1.9
BeatDivisor: 4
GridSize: 16
TimelineZoom: 1

[Metadata]
Title:Harumachi Clover
TitleUnicode:春待ちクローバー
Artist:Hanasaka Yui(CV: M.A.O)
ArtistUnicode:花坂結衣(CV:M・A・O)
Creator:Naotoshi
Version:Insane
Source:OneRoom
Tags:uber my angel kanan nextplay kalibe doj ktgster lolis mao ichimichi 市道 真央 kin 2nd chorus
BeatmapID:1385212
BeatmapSetID:649373

[Difficulty]
HPDrainRate:6
CircleSize:4
OverallDifficulty:7.3
ApproachRate:8
SliderMultiplier:1.4
SliderTickRate:1

[Events]
//Background and Video events
0,0,"11.jpg",0,0
//Break Periods
//Storyboard Layer 0 (Background)
//Storyboard Layer 1 (Fail)
//Storyboard Layer 2 (Pass)
//Storyboard Layer 3 (Foreground)
//Storyboard Sound Samples

[TimingPoints]
996,422.535211267606,4,2,1,87,1,0
29939,-133.333333333333,4,2,1,53,0,0
30362,-133.333333333333,4,2,1,36,0,0
30784,-133.333333333333,4,2,1,13,0,0

[Colours]
Combo1 : 237,133,18
Combo2 : 170,36,227
Combo3 : 227,124,121
Combo4 : 131,224,95

[HitObjects]
200,330,996,6,0,L|100:308,2,70,0|0|8,3:0|0:0|0:0,0:0:0:0:
279,265,1629,5,0,0:0:0:0:
279,118,1841,1,0,3:0:0:0:
333,192,2052,1,0,0:0:0:0:
193,237,2263,1,8,0:2:0:0:
193,146,2474,1,0,3:0:0:0:
182,121,2580,1,0,0:0:0:0:
171,93,2686,5,6,3:2:0:0:
217,19,2897,1,0,0:0:0:0:
372,126,3108,5,8,0:2:0:0:
326,200,3319,1,0,0:0:0:0:
191,299,3531,5,0,3:2:0:0:
108,260,3742,1,0,0:0:0:0:
146,177,3953,1,8,0:2:0:0:
230,216,4165,1,0,0:0:0:0:
379,351,4376,5,2,3:2:0:0:
377,259,4587,1,0,0:0:0:0:
476,128,4798,1,8,0:0:0:0:
474,220,5010,1,0,0:0:0:0:
282,157,5221,5,0,3:0:0:0:
347,93,5432,1,0,0:0:0:0:
367,181,5644,1,8,0:0:0:0:
193,129,5855,1,0,3:0:0:0:
193,129,5961,1,0,0:0:0:0:
193,129,6066,5,6,3:2:0:0:
96,144,6277,1,0,0:0:0:0:
16,272,6489,1,8,0:0:0:0:
107,253,6700,1,0,0:0:0:0:
303,332,6911,5,0,3:0:0:0:
371,266,7123,1,0,0:3:0:0:
414,146,7334,1,8,0:2:0:0:
334,100,7545,1,0,0:0:0:0:
166,212,7756,5,2,3:2:0:0:
255,186,7968,1,0,0:0:0:0:
130,109,8179,1,8,0:0:0:0:
76,258,8390,1,8,0:2:0:0:
76,258,8496,1,8,0:0:0:0:
78,262,8601,6,0,P|70:228|72:193,1,70,0|0,3:0|0:0,0:0:0:0:
161,306,9024,1,8,0:0:0:0:
269,248,9235,1,0,3:0:0:0:
269,248,9341,1,0,0:0:0:0:
269,248,9446,5,6,3:2:0:0:
238,152,9658,1,0,0:0:0:0:
352,0,9869,1,8,0:0:0:0:
321,96,10080,1,0,0:0:0:0:
148,174,10291,5,0,3:0:0:0:
102,98,10503,1,0,0:0:0:0:
184,72,10714,1,8,0:0:0:0:
233,150,10925,1,0,3:0:0:0:
233,150,11031,1,0,0:0:0:0:
233,150,11137,5,6,3:2:0:0:
226,236,11348,1,0,0:0:0:0:
369,107,11559,1,8,0:0:0:0:
461,71,11770,1,0,0:0:0:0:
354,210,11981,5,0,3:0:0:0:
256,176,12193,1,0,0:0:0:0:
170,227,12404,1,8,0:0:0:0:
250,294,12616,1,0,3:0:0:0:
250,294,12721,1,0,0:0:0:0:
250,294,12826,6,4,P|314:280|345:285,1,70,6|0,3:2|0:2,0:2:0:0:
475,323,13249,2,0,P|432:299|393:295,1,70,8|0,0:0|0:0,0:0:0:0:
405,142,13672,2,0,L|375:225,1,70,0|0,3:0|0:0,0:0:0:0:
302,369,14094,1,8,0:0:0:0:
243,196,14305,1,0,3:0:0:0:
243,196,14411,1,0,0:0:0:0:
243,196,14517,5,2,3:2:0:0:
202,82,14728,1,0,0:0:0:0:
89,240,14939,5,10,0:0:0:0:
130,354,15150,1,0,0:0:0:0:
299,354,15362,5,2,3:2:0:0:
228,259,15573,1,0,3:0:0:0:
258,242,15678,1,0,0:0:0:0:
292,235,15784,1,8,0:0:0:0:
327,239,15890,1,0,3:0:0:0:
359,253,15996,1,0,3:0:0:0:
385,276,16101,1,0,0:0:0:0:
402,306,16207,5,6,3:2:0:0:
456,156,16418,1,0,0:0:0:0:
286,248,16629,1,8,0:0:0:0:
232,97,16841,1,0,0:0:0:0:
127,294,17052,5,0,3:0:0:0:
187,181,17263,1,0,0:0:0:0:
223,348,17475,1,8,0:0:0:0:
96,202,17686,1,0,3:0:0:0:
96,202,17792,1,0,0:0:0:0:
96,202,17897,5,2,3:2:0:0:
230,109,18108,1,0,0:0:0:0:
271,265,18319,1,8,0:0:0:0:
188,200,18530,1,0,0:0:0:0:
379,177,18742,5,0,3:0:0:0:
319,110,18953,1,0,0:0:0:0:
285,187,19165,1,8,0:0:0:0:
457,227,19376,1,0,3:0:0:0:
457,227,19481,1,0,0:0:0:0:
457,227,19587,5,6,3:2:0:0:
388,60,19798,1,0,0:0:0:0:
273,258,20010,1,8,0:0:0:0:
296,101,20221,1,0,0:0:0:0:
110,192,20432,5,0,3:0:0:0:
79,64,20643,1,0,0:0:0:0:
29,234,20855,1,8,0:0:0:0:
157,111,21066,1,0,3:0:0:0:
157,111,21172,1,0,0:0:0:0:
157,111,21277,5,2,3:2:0:0:
226,178,21488,1,0,0:0:0:0:
370,87,21700,1,0,3:0:0:0:
448,192,21911,1,8,0:0:0:0:
448,192,22017,1,0,0:0:0:0:
448,192,22122,5,8,0:0:0:0:
494,93,22334,1,0,0:0:0:0:
341,233,22545,1,8,0:0:0:0:
216,154,22756,1,0,3:0:0:0:
216,154,22862,1,0,0:0:0:0:
216,154,22967,5,6,3:2:0:0:
102,172,23179,1,0,0:0:0:0:
194,249,23390,1,8,0:0:0:0:
321,203,23601,1,0,3:0:0:0:
321,203,23707,1,0,0:0:0:0:
321,203,23812,5,0,3:0:0:0:
223,334,24024,1,0,0:0:0:0:
338,354,24235,1,8,0:0:0:0:
462,284,24446,6,0,P|395:294|318:319,1,140,6|0,0:0|0:0,0:0:0:0:
219,225,25080,1,8,0:0:0:0:
267,101,25291,1,0,0:0:0:0:
99,216,25503,1,0,3:0:0:0:
169,17,25714,5,0,0:0:0:0:
179,153,25925,1,8,0:0:0:0:
74,230,26136,2,0,P|85:166|150:162,1,140,6|2,0:0|0:0,0:0:0:0:
189,253,26770,5,8,0:0:0:0:
120,332,26981,1,2,0:2:0:0:
120,332,27087,1,0,0:0:0:0:
120,332,27193,1,0,3:0:0:0:
224,285,27404,1,0,0:0:0:0:
204,372,27615,1,10,0:0:0:0:
371,204,27826,6,0,P|369:121|415:91,1,140,6|2,0:0|0:0,0:0:0:0:
483,183,28460,1,8,0:0:0:0:
398,231,28672,1,0,0:0:0:0:
359,236,28777,1,0,0:0:0:0:
315,243,28883,5,2,3:2:0:0:
240,206,29094,1,0,0:0:0:0:
240,303,29305,1,8,0:0:0:0:
240,303,29411,1,0,0:0:0:0:
240,303,29517,1,2,3:2:0:0:
240,303,29622,1,0,0:0:0:0:
240,303,29728,5,6,3:2:0:0:
163,345,29939,2,0,L|100:348,1,52.5000020027161,2|8,0:0|0:0,0:0:0:0:
35,306,30362,2,0,P|74:274|92:272,1,52.5000020027161,2|0,0:0|0:0,0:0:0:0:
105,188,30784,2,0,P|106:162|97:138,1,52.5000020027161,2|8,0:0|0:0,0:0:0:0:
165,254,31207,2,0,P|203:197|248:183,1,105.000004005432,2|0,0:0|0:0,0:0:0:0:
248,268,31841,5,8,0:0:0:0:
