osu file format v14

[General]
AudioFilename: audio.mp3
AudioLeadIn: 0
PreviewTime: 73
Countdown: 0
SampleSet: Soft
StackLeniency: 0.5
Mode: 0
LetterboxInBreaks: 0
WidescreenStoryboard: 0

[Editor]
Bookmarks: 16981,27086,37033,47139,57244,67507,74928,77454,97665,102718,107770,118033,125454,140297,158454
DistanceSpacing: 1.2
BeatDivisor: 4
GridSize: 4
TimelineZoom: 2

[Metadata]
Title:Harumachi Clover
TitleUnicode:春待ちクローバー
Artist:Hanasaka Yui(CV: M.A.O)
ArtistUnicode:花坂結衣(CV:M・A・O)
Creator:Naotoshi
Version:stwi's Normal
Source:OneRoom
Tags:tvsize kantoku カントク one room ワンルーム Kisses Victorica ktgster frostwich Nao Tomori Mir
BeatmapID:1252652
BeatmapSetID:591987

[Difficulty]
HPDrainRate:4
CircleSize:3.5
OverallDifficulty:4
ApproachRate:5
SliderMultiplier:1.1
SliderTickRate:1

[Events]
//Background and Video events
0,0,"kantoku lolis.jpg",0,0
//Break Periods
//Storyboard Layer 0 (Background)
//Storyboard Layer 1 (Fail)
//Storyboard Layer 2 (Pass)
//Storyboard Layer 3 (Foreground)
//Storyboard Sound Samples

[TimingPoints]
-349,422.535211267606,4,2,1,50,1,0
1341,-100,4,2,1,100,0,0
23524,-100,4,2,1,100,0,0
25214,-100,4,2,1,100,0,0
26904,-100,4,2,1,100,0,0
28489,-100,4,2,1,65,0,0
29334,-100,4,2,1,45,0,0
30284,-100,4,2,1,5,0,0

[Colours]
Combo1 : 152,4,251
Combo2 : 244,120,117
Combo3 : 85,162,255
Combo4 : 63,233,160

[HitObjects]
29,96,284,5,2,0:0:0:0:
28,96,496,2,0,P|34:122|37:149,1,55,2|0,0:2|0:0,0:0:0:0:
71,195,918,2,0,P|64:221|61:248,1,55,2|0,0:2|0:0,0:0:0:0:
38,299,1341,6,0,P|97:295|165:284,1,110,6|10,3:2|3:2,0:0:0:0:
242,342,2186,2,0,P|296:345|351:353,1,110,2|10,3:2|3:2,0:0:0:0:
401,375,2820,1,2,0:2:0:0:
401,375,3031,2,0,L|395:220,1,110,2|10,3:2|3:2,0:0:0:0:
329,177,3876,2,0,L|335:22,1,110,0|8,3:2|3:2,0:0:0:0:
232,23,4721,6,0,P|170:24|112:51,1,110,6|10,3:2|3:2,0:0:0:0:
54,125,5566,2,0,P|108:124|159:143,1,110,2|10,3:2|3:2,0:0:0:0:
203,177,6200,1,2,0:2:0:0:
203,177,6411,2,0,P|209:244|213:294,1,110,2|10,3:2|3:2,0:0:0:0:
311,334,7256,2,0,P|315:279|320:224,1,110,0|8,3:2|3:2,0:0:0:0:
345,175,7890,1,2,3:2:0:0:
345,175,8101,6,0,B|348:116|348:116|332:57,1,110,6|10,3:2|3:2,0:0:0:0:
231,28,8946,2,0,B|228:87|228:87|241:136,1,110,2|10,3:2|3:2,0:0:0:0:
219,186,9580,1,2,0:2:0:0:
219,186,9791,2,0,L|64:192,1,110,0|10,3:2|3:2,0:0:0:0:
57,287,10636,2,0,L|212:293,1,110,2|10,3:2|3:2,0:0:0:0:
208,328,11270,1,2,0:2:0:0:
208,328,11481,6,0,P|262:326|320:340,1,110,6|8,3:2|3:2,0:0:0:0:
404,272,12327,2,0,P|458:273|512:261,1,110,0|10,3:2|3:2,0:0:0:0:
453,167,13172,2,0,P|457:133|463:98,1,55,0|2,0:2|3:2,0:0:0:0:
415,80,13594,2,0,P|411:46|405:11,1,55,10|2,3:2|0:2,0:0:0:0:
362,0,14017,2,0,P|307:7|252:11,1,110,2|8,3:2|3:2,0:0:0:0:
214,50,14651,1,0,3:2:0:0:
214,50,14862,6,0,P|207:114|192:174,1,110,6|10,3:2|3:2,0:0:0:0:
118,236,15707,2,0,P|129:289|135:344,1,110,2|10,3:2|3:2,0:0:0:0:
179,377,16341,1,2,0:2:0:0:
179,377,16552,2,0,L|316:361,1,110,2|10,3:2|3:2,0:0:0:0:
335,264,17397,2,0,L|444:276,1,110,0|8,3:2|3:2,0:0:0:0:
494,254,18031,1,2,0:2:0:0:
494,254,18242,6,0,P|498:199|503:144,1,110,6|10,3:2|3:2,0:0:0:0:
400,104,19087,2,0,P|404:158|409:213,1,110,2|10,3:2|3:2,0:0:0:0:
350,306,19932,2,0,P|298:325|244:324,1,110,2|10,3:2|3:2,0:0:0:0:
197,295,20566,1,2,0:2:0:0:
197,295,20777,2,0,L|188:233,1,55,0|0,3:2|0:2,0:0:0:0:
225,198,21200,2,0,L|234:136,1,55,8|2,3:2|0:2,0:0:0:0:
266,100,21622,6,0,B|211:113|211:113|157:110,1,110,6|10,3:2|3:2,0:0:0:0:
108,86,22256,1,10,3:2:0:0:
108,86,22467,2,0,L|102:20,2,55,10|10|10,3:2|0:2|3:2,0:0:0:0:
85,136,23101,5,2,3:2:0:0:
140,231,23524,1,2,3:2:0:0:
140,231,23735,2,0,L|194:235,1,55,10|2,3:2|0:2,0:0:0:0:
231,277,24158,2,0,L|226:331,2,55,2|0|0,3:2|0:0|0:0,0:0:0:0:
277,248,24791,5,2,3:2:0:0:
345,161,25214,1,0,3:2:0:0:
345,161,25425,2,0,P|349:125|362:89,1,55,8|0,3:2|0:2,0:0:0:0:
317,65,25848,2,0,P|313:29|300:-7,2,55,0|0|0,3:2|0:0|0:0,0:0:0:0:
275,100,26481,6,0,P|220:95|165:90,1,110,2|2,3:2|3:2,0:0:0:0:
127,131,27115,1,10,3:2:0:0:
127,131,27327,2,0,P|72:135|17:140,1,110,2|2,0:2|0:2,0:0:0:0:
3,193,27960,1,10,3:2:0:0:
93,256,28383,1,6,3:2:0:0:
256,192,28489,12,0,30284,0:2:0:0:
