osu file format v14

[General]
AudioFilename: audio.mp3
AudioLeadIn: 0
PreviewTime: 73
Countdown: 0
SampleSet: Soft
StackLeniency: 0.2
Mode: 0
LetterboxInBreaks: 0
WidescreenStoryboard: 0

[Editor]
Bookmarks: 16981,27086,37033,47139,57244,67507,74928,77454,97665,102718,107770,118033,125454,140297,158454
DistanceSpacing: 1.2
BeatDivisor: 4
GridSize: 4
TimelineZoom: 1

[Metadata]
Title:Harumachi Clover
TitleUnicode:春待ちクローバー
Artist:Hanasaka Yui(CV: M.A.O)
ArtistUnicode:花坂結衣(CV:M・A・O)
Creator:Naotoshi
Version:Light Insane
Source:OneRoom
Tags:tvsize kantoku カントク one room ワンルーム Kisses Victorica ktgster frostwich Nao Tomori Mir
BeatmapID:1252651
BeatmapSetID:591987

[Difficulty]
HPDrainRate:5
CircleSize:4.1
OverallDifficulty:8
ApproachRate:8
SliderMultiplier:1
SliderTickRate:1

[Events]
//Background and Video events
0,0,"kantoku lolis.jpg",0,0
//Break Periods
//Storyboard Layer 0 (Background)
//Storyboard Layer 1 (Fail)
//Storyboard Layer 2 (Pass)
//Storyboard Layer 3 (Foreground)
//Storyboard Sound Samples

[TimingPoints]
-349,422.535211267606,4,2,1,50,1,0
1341,-56.8181818181818,4,2,1,100,0,0
23418,-56.8181818181818,4,2,1,5,0,0
23524,-56.8181818181818,4,2,1,100,0,0
25108,-56.8181818181818,4,2,1,5,0,0
25214,-56.8181818181818,4,2,1,100,0,0
26798,-56.8181818181818,4,2,1,5,0,0
26904,-56.8181818181818,4,2,1,100,0,0
28489,-56.8181818181818,4,2,1,65,0,0
29334,-56.8181818181818,4,2,1,45,0,0
30284,-56.8181818181818,4,2,1,5,0,0

[Colours]
Combo1 : 152,4,251
Combo2 : 244,120,117
Combo3 : 85,162,255
Combo4 : 63,233,160

[HitObjects]
265,192,284,5,2,0:2:0:0:
213,265,496,1,2,0:2:0:0:
127,237,707,1,2,0:2:0:0:
127,147,918,1,2,0:2:0:0:
213,119,1129,1,2,0:2:0:0:
213,265,1341,6,0,P|195:321|208:371,1,88.0000026855469,6|2,3:2|0:2,0:0:0:0:
341,192,1763,2,0,P|359:136|346:86,1,88.0000026855469,10|2,3:2|0:2,0:0:0:0:
289,324,2186,1,2,0:0:0:0:
266,134,2397,1,2,0:0:0:0:
213,265,2608,1,10,0:0:0:0:
67,168,2820,1,2,0:0:0:0:
65,190,2925,1,0,0:0:0:0:
65,213,3031,6,0,P|66:275|66:323,1,88.0000026855469,6|0,3:2|0:2,0:0:0:0:
205,198,3453,1,10,3:2:0:0:
204,337,3665,2,0,P|273:321|301:280,1,88.0000026855469,2|0,0:2|3:2,0:0:0:0:
333,197,4087,1,0,0:2:0:0:
380,347,4298,1,8,3:2:0:0:
218,253,4510,1,2,0:2:0:0:
415,255,4721,6,0,P|484:265|522:283,1,88.0000026855469,6|0,3:2|0:0,0:0:0:0:
358,110,5143,2,0,P|289:120|251:138,1,88.0000026855469,10|2,3:2|0:2,0:0:0:0:
477,179,5566,1,2,3:2:0:0:
426,26,5777,1,2,0:2:0:0:
323,200,5989,1,10,3:2:0:0:
456,98,6200,1,2,0:2:0:0:
381,281,6411,6,0,P|323:297|286:290,1,88.0000026855469,6|2,3:2|0:2,0:0:0:0:
184,179,6834,1,10,3:2:0:0:
309,114,7045,2,0,P|323:156|323:199,1,88.0000026855469,2|8,0:2|3:2,0:0:0:0:
225,38,7467,1,0,0:2:0:0:
375,29,7679,1,8,3:2:0:0:
236,171,7890,1,2,3:2:0:0:
216,174,7996,1,0,3:0:0:0:
197,171,8101,6,0,P|135:179|98:201,1,88.0000026855469,6|2,3:2|0:2,0:0:0:0:
225,323,8524,2,0,P|249:265|248:222,1,88.0000026855469,10|2,3:2|0:2,0:0:0:0:
241,75,8946,1,2,3:2:0:0:
166,250,9158,1,2,0:2:0:0:
147,105,9369,1,2,3:2:0:0:
78,271,9580,2,0,P|97:312|135:339,1,88.0000026855469,6|2,3:2|0:2,0:0:0:0:
250,240,10003,1,2,0:2:0:0:
369,367,10214,6,0,P|370:323|365:279,1,88.0000026855469,10|2,3:2|0:2,0:0:0:0:
362,254,10531,1,2,0:0:0:0:
361,229,10636,1,2,3:2:0:0:
336,87,10848,1,2,0:2:0:0:
273,252,11059,1,10,3:2:0:0:
220,136,11270,1,2,0:2:0:0:
212,118,11376,1,0,0:0:0:0:
203,99,11481,6,0,P|191:31|204:4,1,88.0000026855469,4|0,3:2|0:2,0:0:0:0:
362,169,11904,2,0,P|370:126|356:86,1,88.0000026855469,8|0,3:2|0:2,0:0:0:0:
196,182,12327,2,0,P|188:139|202:98,1,88.0000026855469,0|0,3:2|0:0,0:0:0:0:
290,263,12749,1,10,3:2:0:0:
356,86,12960,6,0,P|419:76|455:93,1,88.0000026855469,6|0,3:2|0:2,0:0:0:0:
285,17,13383,1,2,3:2:0:0:
404,170,13594,2,0,P|414:235|409:291,1,88.0000026855469,10|2,3:2|0:2,0:0:0:0:
316,348,14017,1,2,3:2:0:0:
288,224,14228,5,2,0:2:0:0:
260,198,14334,1,0,0:0:0:0:
226,178,14439,2,0,L|179:176,3,44.0000013427735,2|8|8|8,0:0|0:0|0:0|0:0,0:0:0:0:
128,226,14862,6,0,P|114:280|130:323,1,88.0000026855469,6|2,3:2|0:2,0:0:0:0:
288,224,15284,2,0,P|302:170|286:127,1,88.0000026855469,10|2,3:2|0:2,0:0:0:0:
314,315,15707,1,2,3:2:0:0:
210,172,15918,1,2,0:2:0:0:
122,309,16129,1,2,0:0:0:0:
40,197,16341,1,2,0:0:0:0:
32,178,16446,1,0,0:0:0:0:
23,157,16552,6,0,P|20:91|30:66,1,88.0000026855469,6|2,3:2|0:2,0:0:0:0:
115,237,16974,1,10,3:2:0:0:
207,87,17186,2,0,P|217:129|211:172,1,88.0000026855469,2|0,0:2|3:2,0:0:0:0:
130,16,17608,1,0,0:2:0:0:
307,118,17820,1,8,3:2:0:0:
128,132,18031,1,2,0:2:0:0:
105,137,18136,1,0,0:0:0:0:
83,145,18242,6,0,P|80:220|97:250,1,88.0000026855469,6|2,3:2|0:2,0:0:0:0:
209,357,18665,2,0,P|212:282|195:252,1,88.0000026855469,10|2,3:2|0:2,0:0:0:0:
68,369,19087,1,2,3:2:0:0:
157,187,19298,1,2,0:2:0:0:
209,357,19510,1,10,3:2:0:0:
80,270,19721,1,2,0:2:0:0:
275,217,19932,6,0,P|238:239|172:261,1,88.0000026855469,6|2,3:2|0:2,0:0:0:0:
297,317,20355,1,10,3:2:0:0:
316,127,20566,1,2,0:2:0:0:
320,113,20672,1,8,0:0:0:0:
325,99,20777,1,0,3:2:0:0:
389,203,20989,1,0,0:2:0:0:
426,28,21200,1,8,3:2:0:0:
485,141,21411,1,2,0:2:0:0:
319,100,21622,6,0,P|252:96|211:117,1,88.0000026855469,6|2,3:2|0:2,0:0:0:0:
241,313,22045,2,8,P|277:256|280:210,1,88.0000026855469,10|2,3:2|3:2,0:0:0:0:
282,214,22362,1,8,0:0:0:0:
280,191,22467,1,8,0:0:0:0:
135,187,22679,1,0,0:0:0:0:
239,101,22890,1,10,3:2:0:0:
96,43,23101,6,0,P|17:80|-2:150,1,132.00000402832,6|0,3:2|0:0,0:0:0:0:
0,152,23524,1,2,3:2:0:0:
142,205,23735,2,0,P|200:187|260:200,1,88.0000026855469,10|2,3:2|0:2,0:0:0:0:
309,295,24158,1,2,3:2:0:0:
341,159,24369,1,2,0:2:0:0:
196,270,24580,1,10,3:2:0:0:
401,254,24791,6,0,P|411:313|344:389,1,132.00000402832,6|0,3:2|0:0,0:0:0:0:
345,379,25214,1,0,3:2:0:0:
291,203,25425,1,8,3:2:0:0:
196,270,25636,1,0,0:2:0:0:
196,284,25742,1,0,0:0:0:0:
196,298,25848,1,8,3:2:0:0:
83,139,26059,1,0,0:2:0:0:
2,295,26270,1,8,3:2:0:0:
162,183,26481,6,0,P|162:98|103:50,1,132.00000402832,6|0,3:2|0:0,0:0:0:0:
108,54,26904,1,2,3:2:0:0:
265,114,27115,1,10,3:2:0:0:
83,139,27327,1,2,0:2:0:0:
50,145,27432,1,8,0:0:0:0:
17,151,27538,5,0,3:2:0:0:
98,278,27749,1,2,0:2:0:0:
189,189,27960,1,10,3:2:0:0:
219,187,28065,1,8,0:0:0:0:
252,184,28171,1,10,0:2:0:0:
281,182,28276,1,8,0:0:0:0:
314,181,28382,5,6,3:2:0:0:
256,192,28489,12,0,30284,0:2:0:0:
