osu file format v14

[General]
AudioFilename: audio.mp3
AudioLeadIn: 0
PreviewTime: 1418
Countdown: 0
SampleSet: Soft
StackLeniency: 0.7
Mode: 0
LetterboxInBreaks: 0
WidescreenStoryboard: 1

[Editor]
DistanceSpacing: 1.1
BeatDivisor: 4
GridSize: 16
TimelineZoom: 1

[Metadata]
Title:Harumachi Clover
TitleUnicode:春待ちクローバー
Artist:Hanasaka Yui(CV: M.A.O)
ArtistUnicode:花坂結衣(CV:M・A・O)
Creator:Naotoshi
Version:Light Hard
Source:OneRoom
Tags:uber my angel kanan nextplay kalibe doj ktgster lolis mao ichimichi 市道 真央 kin 2nd chorus
BeatmapID:1385216
BeatmapSetID:649373

[Difficulty]
HPDrainRate:4
CircleSize:3.7
OverallDifficulty:5
ApproachRate:6
SliderMultiplier:1.4
SliderTickRate:1

[Events]
//Background and Video events
0,0,"11.jpg",0,0
//Break Periods
//Storyboard Layer 0 (Background)
//Storyboard Layer 1 (Fail)
//Storyboard Layer 2 (Pass)
//Storyboard Layer 3 (Foreground)
//Storyboard Sound Samples

[TimingPoints]
996,422.535211267606,4,2,1,87,1,0
2686,-90.9090909090909,4,2,1,87,0,0
29939,-133.333333333333,4,2,1,53,0,0
30362,-133.333333333333,4,2,1,36,0,0
30784,-133.333333333333,4,2,1,13,0,0

[Colours]
Combo1 : 237,133,18
Combo2 : 170,36,227
Combo3 : 227,124,121
Combo4 : 131,224,95

[HitObjects]
112,169,996,6,0,P|170:155|199:161,1,70,0|0,3:0|0:0,0:0:0:0:
249,186,1418,2,0,P|308:196|339:190,1,70,8|0,0:0|0:0,0:0:0:0:
378,147,1841,2,0,L|391:74,2,70,0|0|8,3:0|0:0|0:2,0:0:0:0:
392,222,2474,1,0,3:0:0:0:
358,300,2686,6,0,L|269:321,1,77.0000023498536,6|0,3:2|0:0,0:0:0:0:
204,286,3108,1,8,0:2:0:0:
204,286,3319,1,0,0:0:0:0:
130,327,3531,2,0,P|116:278|136:233,1,77.0000023498536,0|0,3:2|0:0,0:0:0:0:
166,181,3953,2,0,P|174:130|152:91,1,77.0000023498536,8|0,0:2|0:0,0:0:0:0:
119,35,4376,6,0,P|179:24|213:36,1,77.0000023498536,2|0,3:2|0:0,0:0:0:0:
259,79,4798,1,8,0:0:0:0:
334,39,5010,2,0,P|299:135|315:195,1,154.000004699707,2|2,0:0|0:0,0:0:0:0:
355,253,5643,1,8,0:0:0:0:
287,304,5855,1,0,3:0:0:0:
235,236,6066,6,0,P|192:236|136:250,1,77.0000023498536,6|0,3:2|0:0,0:0:0:0:
92,190,6488,1,8,0:0:0:0:
92,190,6700,1,0,0:0:0:0:
42,258,6911,2,0,P|32:314|52:354,1,77.0000023498536,0|0,3:0|0:3,0:0:0:0:
113,369,7334,2,0,L|201:354,1,77.0000023498536,8|0,0:2|0:0,0:0:0:0:
265,321,7756,6,0,L|361:335,1,77.0000023498536,2|0,3:2|0:0,0:0:0:0:
417,295,8179,1,8,0:0:0:0:
396,212,8390,2,0,P|329:229|238:236,1,154.000004699707,8|0,0:2|0:0,0:0:0:0:
256,151,9024,1,8,0:0:0:0:
173,133,9235,1,0,3:0:0:0:
173,133,9341,1,0,0:0:0:0:
173,133,9446,6,0,L|155:234,1,77.0000023498536,6|0,3:2|0:0,0:0:0:0:
80,177,9869,2,0,L|64:92,1,77.0000023498536,8|0,0:0|0:0,0:0:0:0:
133,50,10291,2,0,P|173:42|227:63,1,77.0000023498536,0|0,3:0|0:0,0:0:0:0:
270,108,10714,1,8,0:0:0:0:
215,173,10925,6,0,P|196:218|262:295,1,154.000004699707,0|0,3:0|0:0,0:0:0:0:
319,239,11559,1,8,0:0:0:0:
352,316,11770,1,0,0:0:0:0:
414,258,11981,2,0,L|419:172,1,77.0000023498536,0|0,3:0|0:0,0:0:0:0:
492,138,12404,1,8,0:0:0:0:
437,73,12615,1,0,3:0:0:0:
437,73,12721,1,0,0:0:0:0:
437,73,12826,6,0,P|388:73|348:86,1,77.0000023498536,6|0,3:2|0:2,0:0:0:0:
323,156,13249,2,0,P|273:164|234:152,1,77.0000023498536,8|0,0:0|0:0,0:0:0:0:
171,126,13672,2,0,L|152:33,1,77.0000023498536,0|0,3:0|0:0,0:0:0:0:
72,34,14094,1,8,0:0:0:0:
15,96,14305,6,0,P|-13:170|-3:267,1,154.000004699707,2|2,0:2|0:0,0:0:0:0:
59,292,14939,1,10,0:0:0:0:
139,265,15150,1,0,0:0:0:0:
205,317,15362,2,0,P|277:335|307:326,1,77.0000023498536,2|0,3:2|3:0,0:0:0:0:
358,307,15784,2,0,L|348:258,2,38.5000011749268,8|0|0,0:0|3:0|3:0,0:0:0:0:
439,330,16207,6,0,P|455:285|452:246,1,77.0000023498536,6|0,3:2|0:0,0:0:0:0:
401,191,16629,2,0,P|387:151|396:105,1,77.0000023498536,8|0,0:0|0:0,0:0:0:0:
451,57,17052,1,0,3:0:0:0:
377,14,17263,1,0,0:0:0:0:
303,62,17474,2,0,P|245:74|204:61,1,77.0000023498536,8|0,0:0|3:0,0:0:0:0:
156,26,17897,6,0,P|120:65|109:107,1,77.0000023498536,2|0,3:2|0:0,0:0:0:0:
165,152,18319,1,8,0:0:0:0:
108,215,18531,2,0,P|170:195|261:223,1,154.000004699707,2|2,0:0|0:0,0:0:0:0:
305,284,19165,1,8,0:0:0:0:
241,339,19376,1,0,3:0:0:0:
241,339,19481,1,0,0:0:0:0:
241,339,19587,6,0,P|181:336|155:348,1,77.0000023498536,6|0,3:2|0:0,0:0:0:0:
99,288,20010,2,0,P|44:280|20:262,1,77.0000023498536,8|0,0:0|0:0,0:0:0:0:
3,192,20432,1,0,3:0:0:0:
85,173,20643,1,0,0:0:0:0:
38,101,20855,2,0,P|44:46|60:19,1,77.0000023498536,8|0,0:0|3:0,0:0:0:0:
139,33,21277,6,0,P|205:22|239:29,1,77.0000023498536,2|0,3:2|0:0,0:0:0:0:
276,80,21700,1,8,0:0:0:0:
235,154,21911,1,8,0:0:0:0:
235,154,22017,1,8,0:0:0:0:
235,154,22122,2,0,P|224:203|238:255,1,77.0000023498536,0|0,3:0|0:0,0:0:0:0:
311,240,22545,2,0,P|373:235|406:245,1,77.0000023498536,8|0,0:0|3:0,0:0:0:0:
386,322,22967,6,0,P|324:327|291:317,1,77.0000023498536,6|0,0:0|3:0,0:0:0:0:
233,360,23390,1,8,0:0:0:0:
203,287,23601,1,2,0:0:0:0:
203,287,23707,1,0,0:0:0:0:
203,287,23812,2,0,P|159:276|121:277,1,77.0000023498536,2|0,3:2|0:0,0:0:0:0:
48,307,24235,1,8,0:0:0:0:
120,350,24446,6,0,P|135:304|112:183,1,154.000004699707,2|0,0:0|0:0,0:0:0:0:
57,145,25080,2,0,P|44:99|55:61,1,77.0000023498536,8|0,0:0|0:0,0:0:0:0:
120,23,25503,1,0,3:0:0:0:
197,57,25714,1,0,0:0:0:0:
277,31,25925,1,8,0:0:0:0:
322,102,26136,6,0,P|254:85|210:148,1,154.000004699707,2|2,0:0|0:0,0:0:0:0:
234,227,26770,2,0,P|302:244|346:181,1,154.000004699707,8|0,0:0|3:0,0:0:0:0:
408,125,27404,2,8,P|452:105|511:126,1,77.0000023498536
460,191,27826,6,0,P|451:270|478:372,1,154.000004699707,6|0,0:0|0:0,0:0:0:0:
385,371,28460,1,8,0:0:0:0:
334,308,28672,1,0,0:0:0:0:
334,308,28777,1,0,0:0:0:0:
334,308,28883,2,0,P|271:307|240:315,1,77.0000023498536,2|0,3:2|0:0,0:0:0:0:
184,352,29305,5,8,0:0:0:0:
184,352,29411,1,2,0:0:0:0:
184,352,29517,2,0,L|130:355,2,38.5000011749268,2|0|2,3:2|0:0|3:2,0:0:0:0:
256,192,29834,12,0,32263,0:0:0:0:
