osu file format v14

[General]
AudioFilename: audio.mp3
AudioLeadIn: 0
PreviewTime: 73
Countdown: 0
SampleSet: Soft
StackLeniency: 0.2
Mode: 0
LetterboxInBreaks: 0
WidescreenStoryboard: 0

[Editor]
Bookmarks: 16981,27086,37033,47139,57244,67507,74928,77454,97665,102718,107770,118033,125454,140297,158454
DistanceSpacing: 0.9
BeatDivisor: 4
GridSize: 32
TimelineZoom: 1

[Metadata]
Title:Harumachi Clover
TitleUnicode:春待ちクローバー
Artist:Hanasaka Yui(CV: M.A.O)
ArtistUnicode:花坂結衣(CV:M・A・O)
Creator:Naotoshi
Version:Kisstorica's Insane
Source:OneRoom
Tags:tvsize kantoku カントク one room ワンルーム Kisses Victorica ktgster frostwich Nao Tomori Mir
BeatmapID:1253664
BeatmapSetID:591987

[Difficulty]
HPDrainRate:5.5
CircleSize:4.3
OverallDifficulty:8
ApproachRate:8.2
SliderMultiplier:1
SliderTickRate:1

[Events]
//Background and Video events
0,0,"kantoku lolis.jpg",0,0
//Break Periods
//Storyboard Layer 0 (Background)
//Storyboard Layer 1 (Fail)
//Storyboard Layer 2 (Pass)
//Storyboard Layer 3 (Foreground)
//Storyboard Sound Samples

[TimingPoints]
-349,422.535211267606,4,2,1,50,1,0
1341,-56.8181818181818,4,2,1,100,0,0
23418,-56.8181818181818,4,2,1,5,0,0
23524,-56.8181818181818,4,2,1,100,0,0
25108,-56.8181818181818,4,2,1,5,0,0
25214,-56.8181818181818,4,2,1,100,0,0
26798,-56.8181818181818,4,2,1,5,0,0
26904,-56.8181818181818,4,2,1,100,0,0
28489,-56.8181818181818,4,2,1,65,0,0
29334,-56.8181818181818,4,2,1,45,0,0
30284,-56.8181818181818,4,2,1,5,0,0

[Colours]
Combo1 : 152,4,251
Combo2 : 244,120,117
Combo3 : 85,162,255
Combo4 : 63,233,160

[HitObjects]
256,78,284,5,0,0:2:0:0:
256,254,496,5,0,0:2:0:0:
224,190,707,1,0,0:2:0:0:
288,146,918,1,0,0:2:0:0:
256,78,1129,1,0,0:2:0:0:
300,317,1341,6,0,L|404:307,1,88.0000026855469,4|0,1:0|0:2,0:0:0:0:
478,164,1763,2,0,P|441:141|397:140,1,88.0000026855469,8|0,3:2|0:2,0:0:0:0:
195,192,2186,1,0,3:0:0:0:
413,230,2397,1,0,0:0:0:0:
333,68,2608,1,8,3:2:0:0:
263,244,2820,1,0,0:0:0:0:
257,249,2925,1,0,0:0:0:0:
250,254,3031,6,0,P|212:274|158:267,1,88.0000026855469,0|0,3:2|0:2,0:0:0:0:
65,166,3453,1,8,3:2:0:0:
1,343,3665,2,0,L|88:332,1,88.0000026855469,0|0,0:2|3:2,0:0:0:0:
264,285,4087,1,0,0:2:0:0:
203,77,4298,1,8,3:2:0:0:
341,108,4510,1,0,0:2:0:0:
128,174,4721,6,0,L|28:163,1,88.0000026855469,0|0,3:2|0:0,0:0:0:0:
264,285,5143,2,0,L|364:273,1,88.0000026855469,8|0,3:2|0:2,0:0:0:0:
166,384,5566,1,0,3:2:0:0:
119,248,5777,1,0,0:2:0:0:
147,381,5989,1,8,3:2:0:0:
230,203,6200,1,0,0:2:0:0:
409,342,6411,6,0,P|434:308|439:264,1,88.0000026855469,0|0,3:2|0:2,0:0:0:0:
321,141,6834,1,8,3:2:0:0:
443,5,7045,1,0,0:2:0:0:
461,3,7151,1,0,0:0:0:0:
479,2,7256,1,0,3:2:0:0:
443,129,7467,1,0,0:2:0:0:
341,0,7679,1,8,3:2:0:0:
209,147,7890,1,0,3:2:0:0:
209,147,7996,1,0,3:0:0:0:
209,147,8101,6,0,L|302:134,1,88.0000026855469,4|0,3:1|0:2,0:0:0:0:
457,297,8524,2,0,P|417:284|360:287,1,88.0000026855469,8|0,3:2|0:2,0:0:0:0:
183,376,8946,1,0,3:2:0:0:
316,360,9158,1,0,0:2:0:0:
126,231,9369,1,8,3:2:0:0:
281,134,9580,1,0,3:2:0:0:
283,151,9686,1,0,0:0:0:0:
285,168,9791,5,4,0:1:0:0:
377,97,10003,1,0,0:2:0:0:
192,239,10214,2,0,P|173:197|177:151,1,88.0000026855469,8|0,3:2|0:2,0:0:0:0:
181,139,10531,1,0,0:2:0:0:
189,123,10636,1,0,3:2:0:0:
303,41,10848,1,0,0:2:0:0:
377,188,11059,1,8,3:2:0:0:
508,12,11270,1,0,0:2:0:0:
508,12,11376,1,0,0:0:0:0:
508,12,11481,6,0,L|417:0,1,88.0000026855469,4|0,3:1|0:2,0:0:0:0:
143,88,11904,2,0,P|182:71|239:69,1,88.0000026855469,8|0,3:2|0:2,0:0:0:0:
289,126,12221,1,0,0:0:0:0:
289,126,12327,2,0,L|278:213,1,88.0000026855469,0|0,3:2|0:0,0:0:0:0:
199,342,12749,1,8,3:2:0:0:
358,317,12960,1,0,3:2:0:0:
154,113,13172,5,4,3:1:0:0:
128,272,13383,1,0,3:2:0:0:
256,11,13594,5,8,3:2:0:0:
282,187,13805,1,0,3:2:0:0:
448,13,14017,5,0,3:2:0:0:
359,207,14228,1,0,3:0:0:0:
340,194,14333,1,0,3:0:0:0:
313,188,14439,1,8,3:2:0:0:
282,187,14544,1,0,3:0:0:0:
248,198,14650,1,0,3:0:0:0:
219,225,14756,1,0,3:0:0:0:
202,261,14862,6,0,L|210:355,1,88.0000026855469,4|0,3:1|0:2,0:0:0:0:
366,294,15284,2,0,L|358:200,1,88.0000026855469,8|0,3:2|0:2,0:0:0:0:
487,97,15707,1,0,3:2:0:0:
468,219,15918,1,0,0:2:0:0:
456,62,16129,1,8,3:2:0:0:
497,253,16341,1,0,0:0:0:0:
281,146,16552,5,0,3:2:0:0:
403,165,16763,1,0,0:2:0:0:
246,175,16974,1,8,3:2:0:0:
438,134,17186,1,0,0:2:0:0:
438,134,17291,1,0,0:0:0:0:
438,134,17397,2,0,L|350:124,1,88.0000026855469,0|0,3:2|0:2,0:0:0:0:
121,79,17820,2,0,P|154:51|199:43,1,88.0000026855469,8|0,3:2|0:2,0:0:0:0:
188,118,18136,1,0,0:0:0:0:
188,118,18242,6,0,L|171:205,1,88.0000026855469,4|0,3:1|0:2,0:0:0:0:
73,363,18665,2,0,L|56:276,1,88.0000026855469,8|0,3:2|0:0,0:0:0:0:
223,275,19087,1,0,3:2:0:0:
85,182,19298,1,0,0:2:0:0:
217,304,19510,1,8,3:2:0:0:
265,173,19721,1,0,0:2:0:0:
265,173,19827,1,0,0:0:0:0:
265,173,19932,5,4,3:1:0:0:
290,354,20143,1,0,0:2:0:0:
247,158,20355,1,8,3:2:0:0:
414,231,20566,1,0,0:2:0:0:
414,231,20672,1,8,0:0:0:0:
414,231,20777,2,0,P|423:276|419:328,1,88.0000026855469,0|0,3:2|0:2,0:0:0:0:
263,137,21200,2,0,P|254:92|258:40,1,88.0000026855469,8|0,3:2|0:2,0:0:0:0:
356,157,21517,1,0,0:0:0:0:
356,157,21622,6,0,P|335:194|292:219,1,88.0000026855469,4|0,3:1|0:2,0:0:0:0:
335,75,22045,2,0,P|377:74|420:99,1,88.0000026855469,8|0,3:2|3:2,0:0:0:0:
416,95,22362,1,8,0:0:0:0:
416,95,22467,1,8,3:2:0:0:
197,180,22679,1,8,0:2:0:0:
256,50,22890,1,8,3:2:0:0:
297,217,23101,2,0,P|254:267|188:284,1,132.00000402832,4|0,3:1|0:0,0:0:0:0:
192,284,23524,5,0,0:0:0:0:
118,147,23735,2,0,P|161:154|197:180,1,88.0000026855469,8|0,0:0|0:0,0:0:0:0:
197,180,24052,1,0,0:0:0:0:
197,180,24158,1,0,0:0:0:0:
155,364,24369,1,0,0:2:0:0:
155,364,24580,1,8,3:2:0:0:
357,240,24791,2,0,P|417:215|488:240,1,132.00000402832,4|0,3:1|0:0,0:0:0:0:
478,232,25214,5,0,3:0:0:0:
422,307,25425,1,8,0:0:0:0:
317,158,25636,1,0,0:0:0:0:
303,164,25742,1,0,0:0:0:0:
293,171,25848,2,0,P|272:210|267:253,1,88.0000026855469,8|0,3:2|0:2,0:0:0:0:
357,240,26270,1,8,3:2:0:0:
209,122,26481,6,0,P|145:114|88:152,1,132.00000402832,4|0,3:1|0:0,0:0:0:0:
165,199,26904,1,0,3:2:0:0:
320,104,27115,2,0,P|333:59|329:11,1,88.0000026855469,8|0,3:2|0:2,0:0:0:0:
326,10,27432,1,8,0:0:0:0:
319,2,27538,1,0,3:2:0:0:
222,46,27749,1,0,0:2:0:0:
287,189,27960,5,8,3:2:0:0:
331,193,28065,1,8,0:0:0:0:
371,176,28171,1,4,3:1:0:0:
400,143,28276,1,0,0:0:0:0:
409,101,28382,5,8,0:2:0:0:
256,192,28489,12,0,30284,0:2:0:0:
