osu file format v14

[General]
AudioFilename: audio.mp3
AudioLeadIn: 0
PreviewTime: 1418
Countdown: 0
SampleSet: Normal
StackLeniency: 0.4
Mode: 1
LetterboxInBreaks: 0
WidescreenStoryboard: 1

[Editor]
DistanceSpacing: 1.9
BeatDivisor: 4
GridSize: 16
TimelineZoom: 1

[Metadata]
Title:Harumachi Clover
TitleUnicode:春待ちクローバー
Artist:Hanasaka Yui(CV: M.A.O)
ArtistUnicode:花坂結衣(CV:M・A・O)
Creator:Naotoshi
Version:Futsuu
Source:OneRoom
Tags:uber my angel kanan nextplay kalibe doj ktgster lolis mao ichimichi 市道 真央 kin 2nd chorus
BeatmapID:1415001
BeatmapSetID:649373

[Difficulty]
HPDrainRate:7
CircleSize:4
OverallDifficulty:4
ApproachRate:5
SliderMultiplier:1.4
SliderTickRate:1

[Events]
//Background and Video events
0,0,"7.jpg",0,69
//Break Periods
//Storyboard Layer 0 (Background)
//Storyboard Layer 1 (Fail)
//Storyboard Layer 2 (Pass)
//Storyboard Layer 3 (Foreground)
//Storyboard Sound Samples

[TimingPoints]
996,422.535211267606,4,1,0,87,1,0

[Colours]
Combo1 : 237,133,18
Combo2 : 170,36,227
Combo3 : 227,124,121
Combo4 : 131,224,95

[HitObjects]
247,207,996,5,4,0:0:0:0:
245,184,1841,1,4,0:0:0:0:
250,187,2686,1,12,0:0:0:0:
247,195,3108,1,0,0:0:0:0:
254,184,3531,1,0,0:0:0:0:
266,185,3953,1,0,0:0:0:0:
261,191,4165,1,0,0:0:0:0:
268,191,4376,1,8,0:0:0:0:
255,195,4798,1,0,0:0:0:0:
260,195,5010,1,8,0:0:0:0:
264,185,5643,1,0,0:0:0:0:
275,190,6066,1,4,0:0:0:0:
259,199,6488,1,0,0:0:0:0:
243,194,6911,1,8,0:0:0:0:
252,186,7122,1,0,0:0:0:0:
263,189,7334,1,8,0:0:0:0:
245,182,7756,1,12,0:0:0:0:
256,181,8179,1,0,0:0:0:0:
265,186,8390,1,0,0:0:0:0:
252,195,9024,1,2,0:0:0:0:
244,184,9446,1,4,0:0:0:0:
239,193,9869,1,8,0:0:0:0:
249,191,10291,1,0,0:0:0:0:
255,195,10503,1,0,0:0:0:0:
252,201,10714,1,0,0:0:0:0:
265,201,10925,1,8,0:0:0:0:
262,190,11348,1,0,0:0:0:0:
269,189,11559,1,8,0:0:0:0:
278,198,11981,1,0,0:0:0:0:
258,195,12404,1,8,0:0:0:0:
263,201,12615,1,8,0:0:0:0:
249,198,12826,1,4,0:0:0:0:
249,200,13672,1,0,0:0:0:0:
248,197,14094,1,8,0:0:0:0:
260,196,14305,1,8,0:0:0:0:
264,197,14517,1,4,0:0:0:0:
268,192,14939,1,12,0:0:0:0:
271,197,15362,1,4,0:0:0:0:
265,189,15784,1,0,0:0:0:0:
278,191,16207,1,12,0:0:0:0:
247,195,16629,1,0,0:0:0:0:
254,184,17052,1,8,0:0:0:0:
266,185,17474,1,0,0:0:0:0:
261,191,17686,1,0,0:0:0:0:
268,191,17897,1,8,0:0:0:0:
255,195,18319,1,8,0:0:0:0:
260,195,18531,1,0,0:0:0:0:
266,186,19165,1,0,0:0:0:0:
266,197,19587,1,12,0:0:0:0:
243,187,20010,1,0,0:0:0:0:
242,198,20432,1,0,0:0:0:0:
252,192,20855,1,8,0:0:0:0:
264,189,21277,1,4,0:0:0:0:
254,189,21700,1,0,0:0:0:0:
259,195,21911,1,8,0:0:0:0:
276,194,22545,1,0,0:0:0:0:
279,185,22967,1,12,0:0:0:0:
266,182,23390,1,0,0:0:0:0:
271,196,23812,1,0,0:0:0:0:
257,213,24024,1,0,0:0:0:0:
255,200,24235,1,0,0:0:0:0:
248,200,24446,1,8,0:0:0:0:
252,186,25080,1,0,0:0:0:0:
264,185,25503,1,0,0:0:0:0:
276,187,25714,1,0,0:0:0:0:
275,196,25925,1,8,0:0:0:0:
276,207,26136,1,0,0:0:0:0:
255,195,26770,1,8,0:0:0:0:
249,187,27193,1,0,0:0:0:0:
242,199,27615,1,8,0:0:0:0:
241,207,27826,1,0,0:0:0:0:
251,206,28249,1,8,0:0:0:0:
271,204,28460,1,0,0:0:0:0:
271,206,28672,1,0,0:0:0:0:
264,193,28883,1,8,0:0:0:0:
250,190,29305,1,4,0:0:0:0:
249,196,29728,1,8,0:0:0:0:
245,204,29939,1,8,0:0:0:0:
239,196,30362,1,0,0:0:0:0:
251,191,30784,1,0,0:0:0:0:
241,186,31207,1,0,0:0:0:0:
