osu file format v14

[General]
AudioFilename: audio.mp3
AudioLeadIn: 0
PreviewTime: 73
Countdown: 0
SampleSet: None
StackLeniency: 0.2
Mode: 0
LetterboxInBreaks: 0
WidescreenStoryboard: 1

[Editor]
Bookmarks: 2820,4510,7045,7890,9580,11270,14017,14228,14439,14651,17820,20566,21200,21411,22256,23946,25636,27327,27960,30284
DistanceSpacing: 1
BeatDivisor: 4
GridSize: 32
TimelineZoom: 1

[Metadata]
Title:Harumachi Clover
TitleUnicode:春待ちクローバー
Artist:Hanasaka Yui(CV: M.A.O)
ArtistUnicode:花坂結衣(CV:M・A・O)
Creator:My Angel Lexion
Version:Lorkpp
Source:OneRoom
Tags:opening Kantoku カントク TYPHOON GRAPHICS ワンルーム One Room
BeatmapID:1408982
BeatmapSetID:665767

[Difficulty]
HPDrainRate:6
CircleSize:4.4
OverallDifficulty:8.1
ApproachRate:9.1
SliderMultiplier:2
SliderTickRate:1

[Events]
//Background and Video events
0,0,"lohere_a_lotto_logoja_is_a_negylevelu_lohere.jpg",0,0
//Break Periods
//Storyboard Layer 0 (Background)
//Storyboard Layer 1 (Fail)
//Storyboard Layer 2 (Pass)
//Storyboard Layer 3 (Foreground)
//Storyboard Sound Samples

[TimingPoints]
-349,422.535211267606,4,1,1,100,1,0
30284,-100,4,1,1,5,0,0

[HitObjects]
114,97,284,5,0,0:0:0:0:
121,102,496,1,0,0:0:0:0:
107,92,707,1,0,0:0:0:0:
124,83,918,1,0,0:0:0:0:
104,111,1129,1,0,0:0:0:0:
270,89,1341,5,0,0:0:0:0:
206,224,1552,1,0,0:0:0:0:
226,9,1763,1,8,0:0:0:0:
238,157,1974,1,0,0:0:0:0:
364,6,2186,1,0,0:0:0:0:
307,155,2397,1,0,0:0:0:0:
502,3,2608,1,8,0:0:0:0:
376,153,2820,1,0,0:0:0:0:
439,78,2925,1,0,0:0:0:0:
502,3,3031,5,0,0:0:0:0:
466,228,3242,1,0,0:0:0:0:
286,78,3453,1,8,0:0:0:0:
390,228,3665,1,0,0:0:0:0:
362,78,3876,1,0,0:0:0:0:
313,228,4087,1,0,0:0:0:0:
439,78,4298,1,8,0:0:0:0:
286,78,4510,1,0,0:0:0:0:
375,147,4615,1,0,0:0:0:0:
439,78,4721,5,0,0:0:0:0:
263,160,4932,1,0,0:0:0:0:
103,48,5143,1,8,0:0:0:0:
260,170,5355,1,0,0:0:0:0:
75,244,5566,1,0,0:0:0:0:
182,109,5777,1,0,0:0:0:0:
245,269,5989,1,8,0:0:0:0:
89,146,6200,1,0,0:0:0:0:
168,207,6305,1,0,0:0:0:0:
260,170,6411,5,0,0:0:0:0:
152,306,6622,1,0,0:0:0:0:
182,109,6834,1,8,0:0:0:0:
245,269,7045,1,0,0:0:0:0:
260,170,7151,1,0,0:0:0:0:
182,109,7256,1,0,0:0:0:0:
338,231,7467,1,0,0:0:0:0:
275,71,7679,1,8,0:0:0:0:
245,269,7890,1,0,0:0:0:0:
338,231,7996,1,0,0:0:0:0:
353,132,8101,5,4,0:0:0:0:
323,330,8312,1,0,0:0:0:0:
431,193,8524,1,8,0:0:0:0:
245,269,8735,1,0,0:0:0:0:
416,292,8946,1,0,0:0:0:0:
260,170,9158,1,0,0:0:0:0:
323,330,9369,1,8,0:0:0:0:
353,132,9580,1,0,0:0:0:0:
338,231,9686,1,0,0:0:0:0:
260,170,9791,5,0,0:0:0:0:
368,33,10003,1,0,0:0:0:0:
338,231,10214,1,8,0:0:0:0:
275,71,10425,1,0,0:0:0:0:
431,193,10636,1,0,0:0:0:0:
368,33,10848,1,0,0:0:0:0:
338,231,11059,1,8,0:0:0:0:
446,94,11270,1,0,0:0:0:0:
368,33,11376,1,0,0:0:0:0:
275,71,11481,5,4,0:0:0:0:
431,193,11693,1,0,0:0:0:0:
153,227,11904,1,8,0:0:0:0:
309,349,12115,1,0,0:0:0:0:
214,149,12327,1,0,0:0:0:0:
92,305,12538,1,0,0:0:0:0:
370,271,12749,1,8,0:0:0:0:
153,227,12960,1,0,0:0:0:0:
379,340,13172,5,8,0:0:0:0:
92,305,13383,1,0,0:0:0:0:
389,343,13594,1,8,0:0:0:0:
153,227,13805,1,0,0:0:0:0:
361,202,14017,2,0,L|410:206,1,50,8|0,0:0|0:0,0:0:0:0:
161,148,14228,2,0,L|111:152,1,50
407,131,14439,2,0,L|456:135,1,50,8|0,0:0|0:0,0:0:0:0:
115,77,14651,2,0,L|65:81,1,50
262,249,14862,5,4,0:0:0:0:
199,72,15073,1,0,0:0:0:0:
224,325,15284,1,8,0:0:0:0:
246,143,15496,1,0,0:0:0:0:
139,330,15707,1,0,0:0:0:0:
347,244,15918,1,0,0:0:0:0:
115,77,16129,1,8,0:0:0:0:
262,249,16341,1,0,0:0:0:0:
224,325,16446,1,0,0:0:0:0:
139,330,16552,5,0,0:0:0:0:
246,143,16763,1,0,0:0:0:0:
309,320,16974,1,8,0:0:0:0:
92,258,17186,1,0,0:0:0:0:
347,244,17397,1,0,0:0:0:0:
139,330,17608,1,0,0:0:0:0:
394,315,17820,2,0,L|443:319,1,50,8|0,0:0|0:0,0:0:0:0:
385,168,18031,1,0,0:0:0:0:
347,244,18136,1,0,0:0:0:0:
309,320,18242,5,4,0:0:0:0:
338,97,18453,1,0,0:0:0:0:
394,315,18665,1,8,0:0:0:0:
253,102,18876,1,0,0:0:0:0:
262,249,19087,1,0,0:0:0:0:
423,92,19298,1,0,0:0:0:0:
168,107,19510,1,8,0:0:0:0:
470,163,19721,1,0,0:0:0:0:
206,31,19932,5,0,0:0:0:0:
262,249,20143,1,0,0:0:0:0:
376,21,20355,1,8,0:0:0:0:
215,178,20566,1,0,0:0:0:0:
168,107,20672,1,0,0:0:0:0:
206,31,20777,1,0,0:0:0:0:
347,242,20989,1,0,0:0:0:0:
253,102,21200,2,0,L|302:106,1,50,8|0,0:0|0:0,0:0:0:0:
262,249,21411,1,0,0:0:0:0:
215,178,21517,1,0,0:0:0:0:
253,102,21622,5,4,0:0:0:0:
270,334,21834,1,0,0:0:0:0:
21,119,22045,1,8,0:0:0:0:
38,351,22256,1,0,0:0:0:0:
145,226,22362,1,0,0:0:0:0:
21,119,22467,1,0,0:0:0:0:
154,342,22679,1,0,0:0:0:0:
137,110,22890,1,0,0:0:0:0:
38,351,23101,1,0,0:0:0:0:
38,351,23524,5,0,0:0:0:0:
270,334,23735,1,8,0:0:0:0:
145,226,23946,1,0,0:0:0:0:
154,342,24052,1,0,0:0:0:0:
270,334,24158,1,0,0:0:0:0:
253,102,24369,1,0,0:0:0:0:
29,235,24580,1,8,0:0:0:0:
261,218,24791,1,0,0:0:0:0:
261,218,25214,5,0,0:0:0:0:
253,102,25320,1,0,0:0:0:0:
137,110,25425,1,8,0:0:0:0:
270,334,25636,1,0,0:0:0:0:
386,326,25742,1,0,0:0:0:0:
502,318,25848,1,0,0:0:0:0:
369,94,26059,1,0,0:0:0:0:
270,334,26270,1,8,0:0:0:0:
485,86,26481,1,0,0:0:0:0:
485,86,26904,5,0,0:0:0:0:
386,326,27115,1,8,0:0:0:0:
369,94,27327,1,0,0:0:0:0:
485,86,27432,1,0,0:0:0:0:
494,202,27538,1,0,0:0:0:0:
145,226,27749,1,0,0:0:0:0:
386,326,27960,1,8,0:0:0:0:
369,94,28066,1,0,0:0:0:0:
137,111,28172,1,0,0:0:0:0:
154,343,28277,1,0,0:0:0:0:
262,219,28383,5,4,0:0:0:0:
256,192,28489,12,0,30284,0:0:0:0:
