osu file format v14

[General]
AudioFilename: audio.mp3
AudioLeadIn: 0
PreviewTime: 0
Countdown: 1
SampleSet: Soft
StackLeniency: 0.7
Mode: 0
LetterboxInBreaks: 0
WidescreenStoryboard: 0

[Editor]
DistanceSpacing: 1.5
BeatDivisor: 4
GridSize: 16
TimelineZoom: 1

[Metadata]
Title:Harumachi Clover
TitleUnicode:Harumachi Clover
Artist:Hanasaka Yui(CV: M.A.O)
ArtistUnicode:Hanasaka Yui(CV: M.A.O)
Creator:MinisGimis
Version:Hard
Source:OneRoom
Tags:Harumachi Clover, OneRoom, tv size
BeatmapID:1788157
BeatmapSetID:855870

[Difficulty]
HPDrainRate:6.5
CircleSize:3.5
OverallDifficulty:6
ApproachRate:8
SliderMultiplier:1.4
SliderTickRate:1

[Events]
//Background and Video events
0,0,"bg.jpg",0,0
//Break Periods
//Storyboard Layer 0 (Background)
//Storyboard Layer 1 (Fail)
//Storyboard Layer 2 (Pass)
//Storyboard Layer 3 (Foreground)
//Storyboard Sound Samples

[TimingPoints]
-349,422.535211267606,4,2,1,55,1,0
1341,-133.333333333333,4,2,1,70,0,0
14862,-100,4,2,1,80,0,1
24791,-133.333333333333,4,2,1,70,0,0
27327,-166.666666666667,4,2,1,55,0,0

[Colours]
Combo1 : 233,215,154
Combo2 : 250,163,206
Combo3 : 232,232,232
Combo4 : 196,96,146

[HitObjects]
381,111,284,5,0,0:0:0:0:
279,83,496,2,0,L|301:162,1,70,0|0,0:0|0:0,0:0:0:0:
201,150,918,2,0,L|183:83,1,70,0|0,0:0|0:0,0:0:0:0:
100,147,1341,5,0,0:0:0:0:
100,252,1552,1,0,0:0:0:0:
190,199,1763,5,0,0:0:0:0:
190,304,1974,1,0,0:0:0:0:
280,251,2185,5,0,0:0:0:0:
190,199,2397,1,0,0:0:0:0:
280,146,2608,5,0,0:0:0:0:
190,94,2819,1,0,0:0:0:0:
281,42,3031,6,0,P|348:67|366:111,1,105.000004005432,0|0,0:0|0:0,0:0:0:0:
289,163,3665,2,0,P|343:221|430:205,1,157.500006008148
473,125,4510,1,0,0:0:0:0:
406,45,4721,5,0,0:0:0:0:
371,143,4932,1,0,0:0:0:0:
306,60,5143,5,0,0:0:0:0:
268,161,5355,1,0,0:0:0:0:
318,253,5566,5,0,0:0:0:0:
213,253,5777,1,0,0:0:0:0:
264,343,5988,5,0,0:0:0:0:
159,343,6200,1,0,0:0:0:0:
103,252,6411,6,0,P|81:200|80:145,1,105.000004005432,0|0,0:0|0:0,0:0:0:0:
103,50,7045,2,0,P|161:98|175:179,1,157.500006008148,0|0,0:0|0:0,0:0:0:0:
113,256,7890,1,0,0:0:0:0:
76,158,8101,5,0,0:0:0:0:
179,177,8312,1,0,0:0:0:0:
143,79,8523,5,0,0:0:0:0:
246,97,8734,1,0,0:0:0:0:
179,177,8946,5,0,0:0:0:0:
76,158,9158,1,0,0:0:0:0:
113,256,9369,5,0,0:0:0:0:
195,321,9580,2,0,P|227:328|266:320,1,52.5000020027161
349,304,10003,1,0,0:0:0:0:
383,205,10214,2,0,P|352:197|326:202,1,52.5000020027161
239,250,10636,5,0,0:0:0:0:
243,145,10847,1,0,0:0:0:0:
330,203,11058,5,0,0:0:0:0:
343,98,11270,2,0,P|418:152|340:331,1,315.000012016297
242,317,12749,5,0,0:0:0:0:
178,225,12960,2,0,P|217:210|244:211,1,52.5000020027161,0|0,0:0|0:0,0:0:0:0:
348,213,13383,1,0,0:0:0:0:
285,97,13594,5,0,0:0:0:0:
209,217,13805,1,0,0:0:0:0:
127,88,14016,5,0,0:0:0:0:
51,218,14228,2,0,P|76:264|131:285,1,105.000004005432,0|0,0:0|0:0,0:0:0:0:
297,295,14862,5,0,0:0:0:0:
215,208,15073,1,0,0:0:0:0:
377,143,15284,5,0,0:0:0:0:
299,213,15496,1,0,0:0:0:0:
230,52,15707,5,0,0:0:0:0:
296,130,15918,1,0,0:0:0:0:
133,193,16129,5,0,0:0:0:0:
213,130,16341,1,0,0:0:0:0:
303,279,16552,6,0,P|324:244|327:205,1,70
328,80,16974,1,0,0:0:0:0:
201,75,17186,2,0,P|131:113|118:243,1,210
143,334,18031,1,0,0:0:0:0:
305,269,18242,5,0,0:0:0:0:
227,339,18454,1,0,0:0:0:0:
158,178,18665,5,0,0:0:0:0:
224,256,18876,1,0,0:0:0:0:
329,116,19087,5,0,0:0:0:0:
242,177,19299,1,0,0:0:0:0:
389,271,19510,5,0,0:0:0:0:
321,197,19721,1,0,0:0:0:0:
193,77,19932,6,0,P|158:87|137:129,1,70
112,237,20355,1,0,0:0:0:0:
195,305,20566,2,0,P|289:290|378:214,1,210
425,125,21411,1,0,0:0:0:0:
250,130,21622,5,0,0:0:0:0:
347,91,21834,1,0,0:0:0:0:
357,266,22045,5,0,0:0:0:0:
322,170,22256,1,0,0:0:0:0:
175,266,22467,5,0,0:0:0:0:
278,238,22679,1,0,0:0:0:0:
172,100,22890,5,0,0:0:0:0:
114,187,23101,2,0,P|111:229|127:255,1,70
204,321,23524,1,0,0:0:0:0:
356,234,23735,5,0,0:0:0:0:
289,314,23947,1,0,0:0:0:0:
198,164,24158,5,0,0:0:0:0:
274,232,24369,1,0,0:0:0:0:
359,79,24580,5,0,0:0:0:0:
434,155,24791,2,0,P|383:284|170:270,1,367.500014019013
98,198,26481,6,0,P|135:177|167:183,1,52.5000020027161,0|0,0:0|0:0,0:0:0:0:
273,200,26904,1,0,0:0:0:0:
194,95,27115,5,0,0:0:0:0:
289,47,27327,2,0,P|315:57|337:80,1,41.9999987182618
392,144,27749,6,0,L|402:188,2,41.9999987182618
256,192,28383,12,0,30496,0:0:0:0:
