osu file format v14

[General]
AudioFilename: audio.mp3
AudioLeadIn: 0
PreviewTime: 14849
Countdown: 1
SampleSet: Soft
StackLeniency: 0.7
Mode: 0
LetterboxInBreaks: 0
WidescreenStoryboard: 1

[Editor]
DistanceSpacing: 0.9
BeatDivisor: 4
GridSize: 8
TimelineZoom: 2

[Metadata]
Title:Harumachi Clover
TitleUnicode:Harumachi Clover
Artist:Hanasaka Yui(CV: M.A.O)
ArtistUnicode:Hanasaka Yui(CV: M.A.O)
Creator:Loli_Silica
Version:Speed Ex
Source:
Tags:
BeatmapID:1344082
BeatmapSetID:604186

[Difficulty]
HPDrainRate:3
CircleSize:4
OverallDifficulty:7
ApproachRate:9.3
SliderMultiplier:1.9
SliderTickRate:1

[Events]
//Background and Video events
0,0,"thumb-1920-802983.png",0,0
//Break Periods
//Storyboard Layer 0 (Background)
//Storyboard Layer 1 (Fail)
//Storyboard Layer 2 (Pass)
//Storyboard Layer 3 (Foreground)
//Storyboard Sound Samples

[TimingPoints]
60.5951813150064,422.535211267606,4,1,0,100,1,0
160.595181315006,-66.6666666666667,4,1,0,45,0,0
1328,-50,4,2,0,80,0,1
13159,-58.8235294117647,4,2,0,80,0,1
14849,-50,4,2,0,80,0,1
16539,-400,4,2,1,50,0,1
18229,-50,4,2,1,50,0,1
19919,-33.3,4,2,1,75,0,1
28476,-100,4,1,0,5,0,0

[HitObjects]
152,64,271,6,0,L|272:136,1,95
233,112,483,2,0,L|120:192,1,71.2500027179719
175,153,694,2,0,L|256:208,1,71.2500027179719
234,193,905,2,0,L|168:256,1,71.2500027179719
168,256,1116,2,0,L|240:312,1,71.2500027179719
344,312,1328,6,0,B|400:240|344:120,1,190
72,72,1750,2,0,P|56:248|120:296,1,190
344,312,2173,2,0,B|400:240|344:120,1,190
72,72,2595,2,0,P|56:248|120:296,1,190
392,96,3018,6,0,L|80:96,1,285
107,96,3440,2,0,L|400:96,1,285
392,96,3863,2,0,L|80:96,1,285
107,96,4285,2,0,L|408:96,1,285
32,296,4708,6,0,L|104:224,1,95
192,224,4919,2,0,L|272:304,1,95
368,224,5131,2,0,L|248:336,1,95
168,288,5342,2,0,L|96:208,1,95
40,136,5553,6,0,L|112:64,1,95
200,64,5764,2,0,L|280:144,1,95
376,64,5976,2,0,L|256:176,1,95
176,128,6187,2,0,L|104:48,1,95
256,40,6398,6,0,L|256:344,1,285
256,325,6821,2,0,L|256:32,1,285
256,40,7243,2,0,L|256:368,1,285
256,325,7666,2,0,L|256:32,1,285
168,48,8088,6,0,L|48:48,1,95
336,144,8300,2,0,L|456:144,1,95
152,248,8511,2,0,L|48:248,1,95
336,320,8722,2,0,L|448:320,1,95
152,328,8933,6,0,L|48:328,1,95
336,240,9145,2,0,L|440:240,1,95
152,144,9356,2,0,L|48:144,1,95
336,72,9567,2,0,L|432:72,1,95
152,56,9778,2,0,L|48:56,1,95
48,272,9990,2,0,L|160:272,1,95
320,144,10201,2,0,L|432:144,1,95
432,344,10412,2,0,L|320:344,1,95
112,128,10623,6,0,L|40:200,1,95
208,184,10835,2,0,L|280:112,1,95
280,256,11046,2,0,L|208:328,1,95
400,288,11257,2,0,L|464:216,1,95
384,64,11469,6,0,L|168:256,1,285
168,256,11891,2,0,L|392:48,1,285
376,56,12314,2,0,L|144:280,1,285
176,256,12736,2,0,L|384:48,1,285
80,96,13159,6,0,L|32:32,1,80.750001540184
416,296,13370,2,0,L|472:368,1,80.750001540184
80,96,13581,2,0,L|32:32,1,80.750001540184
416,296,13792,2,0,L|472:368,1,80.750001540184
400,80,14004,6,0,L|464:32,1,80.750001540184
144,312,14215,2,0,L|72:368,1,80.750001540184
400,80,14426,2,0,L|464:32,1,80.750001540184
144,312,14637,2,0,L|72:368,1,80.750001540184
312,272,14849,6,0,P|344:160|200:104,1,285
214,100,15271,2,0,P|168:192|304:280,1,285
312,272,15694,2,0,P|344:160|200:104,1,285
214,100,16116,2,0,P|168:192|304:280,1,285
448,336,16539,6,0,L|472:352,1,23.75
448,48,16962,2,0,L|472:32,1,23.75
64,344,17384,2,0,L|40:360,1,23.75
56,48,17807,2,0,L|32:32,1,23.75
159,175,18229,6,0,P|216:276|357:214,1,285
350,227,18652,2,0,P|272:120|160:184,1,285
159,175,19074,2,0,P|216:276|357:214,1,285
360,224,19497,2,0,P|280:120|160:176,1,285
32,288,19919,6,0,L|472:360,1,427.927937732225
464,296,20342,2,0,L|32:224,1,427.927937732225
40,168,20764,2,0,L|472:240,1,427.927937732225
472,176,21187,2,0,L|32:104,1,427.927937732225
32,352,21609,6,0,L|32:168,1,142.642645910742
480,352,21821,2,0,L|480:208,1,142.642645910742
32,32,22032,2,0,L|32:184,1,142.642645910742
496,32,22243,2,0,L|496:176,1,142.642645910742
168,352,22454,2,0,L|16:352,1,142.642645910742
337,352,22666,2,0,L|481:352,1,142.642645910742
32,32,22877,2,0,L|192:32,1,142.642645910742
488,32,23088,2,0,L|312:32,1,142.642645910742
72,248,23511,6,0,L|72:96,1,142.642645910742
432,96,23722,2,0,L|432:248,1,142.642645910742
72,248,23933,2,0,L|72:96,1,142.642645910742
432,96,24144,2,0,L|432:248,1,142.642645910742
72,248,24356,2,0,L|72:96,1,142.642645910742
432,96,24567,2,0,L|432:248,1,142.642645910742
72,248,24778,2,0,L|72:96,1,142.642645910742
120,32,25201,6,0,L|232:168,1,142.642645910742
424,352,25412,2,0,L|272:200,1,142.642645910742
24,184,25623,2,0,L|176:232,1,142.642645910742
480,200,25835,2,0,L|336:160,1,142.642645910742
56,360,26046,2,0,L|208:288,1,142.642645910742
400,32,26257,2,0,L|208:144,1,142.642645910742
296,360,26469,2,0,L|248:184,1,142.642645910742
160,32,26680,2,0,L|208:192,1,142.642645910742
488,344,26891,6,0,L|344:248,1,142.642645910742
24,80,27102,2,0,L|192:168,1,142.642645910742
16,288,27314,2,0,L|184:232,1,142.642645910742
496,96,27525,2,0,L|344:144,1,142.642645910742
168,368,27736,2,0,L|240:240,1,142.642645910742
304,24,27947,2,0,L|216:168,1,142.642645910742
328,368,28159,2,0,L|216:176,1,142.642645910742
144,24,28370,2,0,L|224:176,1,142.642645910742
