osu file format v14

[General]
AudioFilename: audio.mp3
AudioLeadIn: 0
PreviewTime: 14849
Countdown: 1
SampleSet: None
StackLeniency: 0.7
Mode: 0
LetterboxInBreaks: 0
WidescreenStoryboard: 1

[Editor]
DistanceSpacing: 1.8
BeatDivisor: 4
GridSize: 8
TimelineZoom: 1

[Metadata]
Title:Harumachi Clover
TitleUnicode:Harumachi Clover
Artist:Hanasaka Yui(CV: M.A.O)
ArtistUnicode:Hanasaka Yui(CV: M.A.O)
Creator:Loli_Silica
Version:Hard
Source:
Tags:
BeatmapID:1343377
BeatmapSetID:604186

[Difficulty]
HPDrainRate:3
CircleSize:3
OverallDifficulty:6
ApproachRate:7.5
SliderMultiplier:1.6
SliderTickRate:1

[Events]
//Background and Video events
0,0,"thumb-1920-802983.png",0,0
//Break Periods
//Storyboard Layer 0 (Background)
//Storyboard Layer 1 (Fail)
//Storyboard Layer 2 (Pass)
//Storyboard Layer 3 (Foreground)
//Storyboard Sound Samples

[TimingPoints]
60.5951813150064,422.535211267606,4,1,0,100,1,0
1328,-100,4,2,0,80,0,0
6398,-100,4,2,0,100,0,0
8300,-100,4,2,0,80,0,0
14004,-100,4,2,0,100,0,0
14849,-100,4,1,0,80,0,0
22877,-142.857142857143,4,3,0,70,0,0

[HitObjects]
152,96,271,5,0,0:0:0:0:
248,96,483,1,0,0:0:0:0:
152,192,694,1,0,0:0:0:0:
248,192,905,1,0,0:0:0:0:
248,96,1116,1,0,0:0:0:0:
360,80,1328,6,0,L|360:160,1,80
360,280,1750,1,0,0:0:0:0:
256,280,1962,1,0,0:0:0:0:
152,280,2173,2,0,L|152:184,1,80
256,192,2595,1,0,0:0:0:0:
360,192,2807,1,0,0:0:0:0:
144,128,3018,5,0,0:0:0:0:
144,224,3229,1,0,0:0:0:0:
48,288,3440,1,0,0:0:0:0:
48,168,3652,1,0,0:0:0:0:
144,336,3863,1,0,0:0:0:0:
264,336,4074,2,0,L|352:336,1,80
352,216,4497,1,0,0:0:0:0:
352,216,4602,1,0,0:0:0:0:
352,216,4708,5,0,0:0:0:0:
160,216,4919,1,0,0:0:0:0:
224,304,5131,1,0,0:0:0:0:
224,128,5342,1,0,0:0:0:0:
152,184,5553,5,0,0:0:0:0:
304,280,5764,1,0,0:0:0:0:
352,192,5976,1,0,0:0:0:0:
208,312,6187,1,0,0:0:0:0:
362,200,6398,1,0,0:0:0:0:
362,200,6504,1,0,0:0:0:0:
362,200,6609,1,0,0:0:0:0:
168,200,6821,2,0,L|80:200,1,80
72,344,7243,2,0,L|168:344,1,80
208,168,7666,5,0,0:0:0:0:
296,315,7877,1,0,0:0:0:0:
296,315,7983,1,0,0:0:0:0:
295,313,8088,5,0,0:0:0:0:
296,144,8300,1,0,0:0:0:0:
176,240,8511,1,0,0:0:0:0:
176,240,8722,1,0,0:0:0:0:
176,72,8933,6,0,L|264:72,1,80
256,192,9356,1,0,0:0:0:0:
112,192,9567,1,0,0:0:0:0:
112,192,9673,1,0,0:0:0:0:
112,192,9778,1,0,0:0:0:0:
288,272,9990,1,0,0:0:0:0:
208,152,10201,6,0,L|312:152,1,80
432,152,10623,2,0,L|432:256,1,80
328,312,11046,1,0,0:0:0:0:
168,320,11257,1,0,0:0:0:0:
168,320,11363,1,0,0:0:0:0:
168,320,11469,1,0,0:0:0:0:
148,219,11680,5,0,0:0:0:0:
148,219,11785,1,0,0:0:0:0:
148,219,11891,1,0,0:0:0:0:
168,112,12102,5,0,0:0:0:0:
168,112,12208,1,0,0:0:0:0:
168,112,12314,1,0,0:0:0:0:
328,112,12525,1,0,0:0:0:0:
256,224,12736,5,0,0:0:0:0:
256,320,12947,1,0,0:0:0:0:
368,272,13159,1,0,0:0:0:0:
368,168,13370,1,0,0:0:0:0:
232,128,13581,5,0,0:0:0:0:
120,112,13792,1,0,0:0:0:0:
208,232,14004,1,0,0:0:0:0:
304,264,14215,1,0,0:0:0:0:
428,264,14426,1,0,0:0:0:0:
434,248,14532,1,0,0:0:0:0:
439,227,14638,1,0,0:0:0:0:
439,200,14743,1,0,0:0:0:0:
432,176,14849,6,0,L|392:96,1,80
224,96,15271,2,0,L|176:176,1,80
296,320,15694,2,0,L|344:240,1,80
96,216,16116,2,0,L|48:280,1,80
96,112,16539,5,0,0:0:0:0:
96,112,16750,1,0,0:0:0:0:
280,208,16962,1,0,0:0:0:0:
280,208,17173,1,0,0:0:0:0:
128,208,17384,1,0,0:0:0:0:
288,104,17595,1,0,0:0:0:0:
288,104,17701,1,0,0:0:0:0:
288,104,17807,1,0,0:0:0:0:
392,224,18018,1,0,0:0:0:0:
264,224,18229,5,0,0:0:0:0:
160,96,18440,1,0,0:0:0:0:
48,184,18652,1,0,0:0:0:0:
128,296,18863,1,0,0:0:0:0:
216,152,19074,1,0,0:0:0:0:
352,72,19285,1,0,0:0:0:0:
328,200,19497,1,0,0:0:0:0:
192,288,19708,1,0,0:0:0:0:
48,208,19919,6,0,L|96:112,1,80
232,40,20342,2,0,L|192:120,1,80
152,224,20764,1,0,0:0:0:0:
312,224,20976,1,0,0:0:0:0:
312,224,21081,1,0,0:0:0:0:
312,224,21187,1,0,0:0:0:0:
312,80,21398,1,0,0:0:0:0:
312,80,21504,5,0,0:0:0:0:
312,80,21609,1,0,0:0:0:0:
448,80,21821,1,0,0:0:0:0:
336,184,22032,5,0,0:0:0:0:
184,144,22243,1,0,0:0:0:0:
184,144,22349,1,0,0:0:0:0:
184,144,22454,1,0,0:0:0:0:
114,285,22666,1,0,0:0:0:0:
280,216,22877,2,0,L|336:256,2,55.9999982910157
184,144,23511,1,0,0:0:0:0:
313,86,23722,5,0,0:0:0:0:
240,240,23933,1,0,0:0:0:0:
392,160,24145,1,0,0:0:0:0:
216,72,24356,1,0,0:0:0:0:
48,136,24567,1,0,0:0:0:0:
112,264,24778,2,0,B|168:312|168:312|216:272|256:312,1,167.999994873047
360,344,25623,1,0,0:0:0:0:
368,152,25835,5,0,0:0:0:0:
152,152,26046,1,0,0:0:0:0:
368,152,26257,1,0,0:0:0:0:
264,56,26469,5,0,0:0:0:0:
264,56,26574,1,0,0:0:0:0:
264,56,26680,1,0,0:0:0:0:
152,216,26891,1,0,0:0:0:0:
368,152,27102,5,0,0:0:0:0:
152,56,27314,1,0,0:0:0:0:
256,176,27525,1,0,0:0:0:0:
256,176,27631,1,0,0:0:0:0:
256,176,27736,1,0,0:0:0:0:
384,48,27947,1,0,0:0:0:0:
112,152,28159,1,0,0:0:0:0:
400,176,28370,5,0,0:0:0:0:
256,192,28581,12,0,29638,0:0:0:0:
