osu file format v14

[General]
AudioFilename: audio.mp3
AudioLeadIn: 0
PreviewTime: 0
Countdown: 0
SampleSet: Normal
StackLeniency: 0.7
Mode: 0
LetterboxInBreaks: 0
WidescreenStoryboard: 1

[Editor]
DistanceSpacing: 1.5
BeatDivisor: 4
GridSize: 4
TimelineZoom: 1.4

[Metadata]
Title:Harumachi Clover
TitleUnicode:Harumachi Clover
Artist:Hanasaka Yui(CV: M.A.O)
ArtistUnicode:Hanasaka Yui(CV: M.A.O)
Creator:LolcarioWOB
Version:Hard
Source:OneRoom
Tags:tv size one_room カントク kantoku
BeatmapID:1619976
BeatmapSetID:682800

[Difficulty]
HPDrainRate:5
CircleSize:4.5
OverallDifficulty:7
ApproachRate:8
SliderMultiplier:1.4
SliderTickRate:2

[Events]
//Background and Video events
0,0,"1485956589959.jpg",0,0
//Break Periods
//Storyboard Layer 0 (Background)
//Storyboard Layer 1 (Fail)
//Storyboard Layer 2 (Pass)
//Storyboard Layer 3 (Foreground)
//Storyboard Sound Samples

[TimingPoints]
52,422.54054054054,4,1,0,100,1,0
14841,-100,4,1,0,100,0,1

[HitObjects]
77,57,263,5,0,0:0:0:0:
176,108,474,1,0,0:0:0:0:
76,159,686,1,0,0:0:0:0:
177,206,897,1,0,0:0:0:0:
75,252,1108,1,0,0:0:0:0:
178,295,1319,5,0,0:0:0:0:
178,295,1530,2,0,L|261:296,2,70
83,297,2164,1,0,0:0:0:0:
36,195,2375,1,0,0:0:0:0:
87,95,2587,1,0,0:0:0:0:
129,198,2798,1,0,0:0:0:0:
240,198,3009,1,0,0:0:0:0:
377,171,3221,1,0,0:0:0:0:
173,120,3432,1,0,0:0:0:0:
173,120,3643,2,0,P|165:223|251:295,1,210
343,328,4488,5,0,0:0:0:0:
343,328,4699,2,0,L|431:328,2,70
230,330,5333,1,0,0:0:0:0:
285,232,5545,5,0,0:0:0:0:
343,328,5756,1,0,0:0:0:0:
230,330,5967,1,0,0:0:0:0:
285,232,6179,1,0,0:0:0:0:
352,142,6390,1,0,0:0:0:0:
398,243,6601,1,0,0:0:0:0:
285,232,6813,1,0,0:0:0:0:
174,216,7023,2,0,P|158:121|258:97,1,210
348,146,7868,5,0,0:0:0:0:
445,202,8080,2,0,L|495:136,2,70
368,284,8714,1,0,0:0:0:0:
344,174,8925,1,0,0:0:0:0:
234,196,9136,1,0,0:0:0:0:
255,305,9347,1,0,0:0:0:0:
151,262,9559,2,0,L|119:173,1,70
93,88,9982,5,0,0:0:0:0:
201,115,10193,1,0,0:0:0:0:
307,149,10404,1,0,0:0:0:0:
222,222,10615,1,0,0:0:0:0:
201,115,10827,1,0,0:0:0:0:
307,149,11038,1,0,0:0:0:0:
412,184,11249,2,0,L|412:328,2,140
75,186,12728,5,0,0:0:0:0:
75,186,12939,2,0,L|75:260,1,70
75,368,13362,1,0,0:0:0:0:
186,368,13573,1,0,0:0:0:0:
187,256,13784,1,0,0:0:0:0:
187,143,13996,1,0,0:0:0:0:
316,195,14207,2,0,L|315:232,2,35
376,188,14841,5,0,0:0:0:0:
301,105,15052,2,0,L|376:104,2,70
268,212,15686,1,0,0:0:0:0:
376,188,15897,1,0,0:0:0:0:
301,105,16108,1,0,0:0:0:0:
267,211,16319,1,0,0:0:0:0:
242,320,16531,1,0,0:0:0:0:
159,244,16742,1,0,0:0:0:0:
73,172,16953,1,0,0:0:0:0:
181,145,17164,2,0,P|272:98|365:150,1,210
414,242,18009,5,0,0:0:0:0:
301,236,18221,2,0,L|308:311,2,70
283,124,18855,1,0,0:0:0:0:
200,199,19066,1,0,0:0:0:0:
117,274,19277,1,0,0:0:0:0:
32,200,19488,1,0,0:0:0:0:
120,130,19700,1,0,0:0:0:0:
210,63,19911,2,0,L|292:73,1,70
390,82,20333,1,0,0:0:0:0:
390,82,20545,2,0,P|419:170|322:197,1,210
224,155,21390,5,0,0:0:0:0:
124,104,21601,2,0,L|150:34,2,70
83,208,22235,1,0,0:0:0:0:
145,301,22447,5,0,0:0:0:0:
281,269,22658,1,0,0:0:0:0:
83,208,22869,1,0,0:0:0:0:
83,208,23080,2,0,L|131:283,1,70
180,353,23503,5,0,0:0:0:0:
284,353,23714,1,0,0:0:0:0:
388,355,23925,1,0,0:0:0:0:
336,263,24137,1,0,0:0:0:0:
231,263,24348,1,0,0:0:0:0:
126,260,24559,1,0,0:0:0:0:
126,260,24770,2,0,L|23:147,2,140
256,192,26461,6,0,L|352:192,1,70
430,190,26883,1,0,0:0:0:0:
285,105,27094,1,0,0:0:0:0:
285,105,27305,2,0,L|193:123,1,70
112,137,27728,1,0,0:0:0:0:
222,224,27940,1,0,0:0:0:0:
216,118,28151,1,0,0:0:0:0:
256,192,28362,12,0,29629,0:0:0:0:
