osu file format v14

[General]
AudioFilename: audio.mp3
AudioLeadIn: 0
PreviewTime: 1235
Countdown: 0
SampleSet: Soft
StackLeniency: 0.7
Mode: 0
LetterboxInBreaks: 0
WidescreenStoryboard: 0

[Editor]
DistanceSpacing: 1.4
BeatDivisor: 4
GridSize: 4
TimelineZoom: 1.6

[Metadata]
Title:Harumachi Clover
TitleUnicode:春待ちクローバー
Artist:Hanasaka Yui(CV: M.A.O)
ArtistUnicode:花坂結衣(CV:M・A・O)
Creator:KuranteMelodii
Version:Misure's Hard
Source:OneRoom
Tags:tvsize Kantoku カントク Misure Momochikun LowComboFC ワンルーム One Room
BeatmapID:1181031
BeatmapSetID:557832

[Difficulty]
HPDrainRate:5
CircleSize:3.5
OverallDifficulty:5.5
ApproachRate:7
SliderMultiplier:1.55
SliderTickRate:1

[Events]
//Background and Video events
0,0,"clover.jpg",0,0
//Break Periods
//Storyboard Layer 0 (Background)
//Storyboard Layer 1 (Fail)
//Storyboard Layer 2 (Pass)
//Storyboard Layer 3 (Foreground)
//Storyboard Sound Samples

[TimingPoints]
-349,422.535211267606,4,2,0,50,1,0
1341,-100,4,2,0,75,0,1
1446,-100,4,2,0,75,0,0
14862,-100,4,2,0,75,0,1
14967,-100,4,2,0,75,0,0
26481,-100,4,2,0,70,0,0
27960,-100,4,2,0,60,0,0
28383,-100,4,2,0,50,0,0
28489,-100,4,2,0,40,0,0
28805,-100,4,2,0,30,0,0
29228,-100,4,2,0,20,0,0
29651,-100,4,2,0,10,0,0
30073,-100,4,2,0,5,0,0

[Colours]
Combo1 : 93,93,93
Combo2 : 255,96,255
Combo3 : 168,84,0

[HitObjects]
224,124,284,6,0,P|185:128|149:116,2,77.5,0|2|0,0:0|0:0|0:0,0:0:0:0:
276,36,918,2,0,P|312:25|350:29,1,77.5,2|0,0:0|0:0,0:0:0:0:
428,108,1341,6,0,L|431:185,1,77.5,4|0,1:0|0:0,0:0:0:0:
328,236,1763,2,0,L|331:158,1,77.5,8|0,0:0|0:0,0:0:0:0:
431,185,2186,2,0,L|507:198,2,77.5,0|0|8,1:0|0:0|0:0,0:0:0:0:
412,297,2820,1,0,0:0:0:0:
412,297,3031,6,0,P|450:295|487:283,1,77.5,0|0,1:0|0:0,0:0:0:0:
328,236,3453,2,0,P|289:235|253:247,1,77.5,8|0,0:0|0:0,0:0:0:0:
205,340,3876,1,2,1:2:0:0:
112,292,4087,1,2,0:0:0:0:
160,199,4298,1,10,0:0:0:0:
253,247,4510,1,0,0:0:0:0:
253,247,4721,6,0,P|265:210|265:171,1,77.5,0|0,1:0|0:0,0:0:0:0:
216,76,5143,2,0,P|177:77|140:90,1,77.5,8|0,0:0|0:0,0:0:0:0:
160,199,5566,2,0,P|121:198|85:185,1,77.5,0|0,1:0|0:0,0:0:0:0:
8,256,5989,1,8,0:0:0:0:
64,344,6200,1,0,0:0:0:0:
148,275,6411,6,0,L|160:199,1,77.5,0|0,1:0|0:0,0:0:0:0:
256,264,6834,2,0,L|245:340,1,77.5,8|0,0:0|0:0,0:0:0:0:
352,284,7256,2,0,L|363:208,1,77.5,2|2,1:2|0:0,0:0:0:0:
292,130,7678,1,10,0:0:0:0:
332,32,7890,1,0,0:0:0:0:
332,32,8101,6,0,P|368:20|407:21,1,77.5,4|0,1:0|0:0,0:0:0:0:
490,132,8524,2,0,P|451:134|414:122,1,77.5,8|0,0:0|0:0,0:0:0:0:
352,208,8946,2,0,P|351:246|362:283,1,77.5,0|0,1:0|0:3,0:0:0:0:
460,232,9369,1,8,0:0:0:0:
415,123,9580,1,2,0:0:0:0:
415,123,9686,1,2,0:0:0:0:
415,123,9791,6,0,L|337:117,1,77.5,6|0,1:2|0:0,0:0:0:0:
182,198,10214,2,0,L|260:192,1,77.5,8|0,0:0|0:0,0:0:0:0:
244,84,10636,2,0,L|233:7,2,77.5,0|0|8,1:0|0:0|0:0,0:0:0:0:
259,192,11270,1,2,0:0:0:0:
259,192,11376,1,2,0:0:0:0:
259,192,11481,6,0,P|184:207|116:173,1,155,6|8,1:2|0:0,0:0:0:0:
34,242,12115,1,0,0:0:0:0:
84,336,12327,2,0,P|120:324|159:325,1,77.5,0|0,1:0|0:0,0:0:0:0:
247,384,12749,1,8,0:0:0:0:
344,336,12960,1,0,0:0:0:0:
344,336,13066,1,0,0:0:0:0:
344,336,13172,6,0,L|350:258,1,77.5,4|0,1:2|0:0,0:0:0:0:
246,138,13594,2,0,L|252:216,1,77.5,12|0,0:0|0:0,0:0:0:0:
348,160,14017,2,0,L|385:149,2,38.75,2|2|2,1:2|0:0|0:0,0:0:0:0:
440,232,14439,2,0,L|477:242,2,38.75,10|2|2,0:0|0:0|0:0,0:0:0:0:
496,144,14862,6,0,P|501:105|495:67,1,77.5,4|0,1:0|0:0,0:0:0:0:
408,4,15284,2,0,P|371:16|332:18,1,77.5,8|0,0:0|0:0,0:0:0:0:
240,76,15707,2,0,P|203:63|164:61,2,77.5,0|0|8,1:0|0:0|0:0,0:0:0:0:
260,184,16341,1,0,0:0:0:0:
260,184,16552,6,0,L|183:195,1,77.5,0|0,1:0|0:0,0:0:0:0:
140,296,16974,2,0,L|216:307,1,77.5,8|0,0:0|0:0,0:0:0:0:
183,194,17397,1,2,1:2:0:0:
153,94,17608,1,2,0:0:0:0:
52,123,17819,1,10,0:0:0:0:
82,224,18031,1,0,0:0:0:0:
82,224,18242,6,0,P|43:230|5:224,1,77.5,4|0,1:2|0:0,0:0:0:0:
8,332,18665,2,0,P|46:338|84:331,1,77.5,8|0,0:0|0:0,0:0:0:0:
185,293,19087,2,0,P|191:331|184:369,1,77.5,0|0,1:0|0:0,0:0:0:0:
290,384,19510,1,8,0:0:0:0:
371,312,19721,1,0,0:0:0:0:
284,248,19932,6,0,P|280:209|289:172,1,77.5,4|0,1:2|0:0,0:0:0:0:
360,92,20355,1,8,0:0:0:0:
288,15,20566,2,0,L|249:19,2,38.75,0|0|2,0:0|0:0|1:2,0:0:0:0:
360,92,20989,1,2,0:0:0:0:
445,28,21200,1,10,0:0:0:0:
512,112,21411,1,0,0:0:0:0:
512,112,21622,6,0,P|514:150|501:186,1,77.5,4|0,1:0|0:0,0:0:0:0:
404,232,22045,1,8,0:0:0:0:
436,334,22256,1,2,0:0:0:0:
436,334,22362,1,2,0:0:0:0:
436,334,22467,2,0,P|474:331|510:344,2,77.5,2|0|8,1:2|1:0|0:0,0:0:0:0:
332,385,23101,6,0,L|320:230,1,155,6|0,1:2|1:0,0:0:0:0:
288,124,23735,1,8,0:0:0:0:
214,204,23946,1,2,0:0:0:0:
214,204,24052,1,2,0:0:0:0:
214,204,24158,2,0,P|211:243|223:280,1,77.5,2|0,1:2|1:0,0:0:0:0:
320,230,24580,1,8,0:0:0:0:
288,124,24791,6,0,P|213:143|136:134,1,155,6|0,1:2|1:0,0:0:0:0:
62,54,25425,1,8,0:0:0:0:
8,148,25636,1,2,0:0:0:0:
8,148,25742,1,2,0:0:0:0:
8,148,25848,2,0,L|17:224,2,77.5,2|0|8,1:2|1:0|0:0,0:0:0:0:
136,134,26481,6,0,L|116:287,1,155,4|0,1:0|1:0,0:0:0:0:
192,368,27115,1,10,0:0:0:0:
284,308,27327,1,0,0:0:0:0:
284,308,27432,1,0,0:0:0:0:
284,308,27538,2,0,P|286:269|273:233,1,77.5,0|0,1:0|0:0,0:0:0:0:
192,160,27960,2,0,L|153:153,2,38.75,10|2|2,0:0|0:0|0:0,0:0:0:0:
288,108,28383,5,4,0:0:0:0:
256,192,28489,12,0,30284,0:0:0:0:
