osu file format v14

[General]
AudioFilename: audio.mp3
AudioLeadIn: 0
PreviewTime: 1235
Countdown: 0
SampleSet: Soft
StackLeniency: 0.7
Mode: 0
LetterboxInBreaks: 0
WidescreenStoryboard: 0

[Editor]
DistanceSpacing: 0.7
BeatDivisor: 4
GridSize: 4
TimelineZoom: 1.6

[Metadata]
Title:Harumachi Clover
TitleUnicode:春待ちクローバー
Artist:Hanasaka Yui(CV: M.A.O)
ArtistUnicode:花坂結衣(CV:M・A・O)
Creator:KuranteMelodii
Version:Halation
Source:OneRoom
Tags:tvsize Kantoku カントク Misure Momochikun LowComboFC ワンルーム One Room
BeatmapID:1180209
BeatmapSetID:557832

[Difficulty]
HPDrainRate:7
CircleSize:4
OverallDifficulty:7
ApproachRate:8.5
SliderMultiplier:1.8
SliderTickRate:1

[Events]
//Background and Video events
0,0,"clover.jpg",0,0
//Break Periods
//Storyboard Layer 0 (Background)
//Storyboard Layer 1 (Fail)
//Storyboard Layer 2 (Pass)
//Storyboard Layer 3 (Foreground)
//Storyboard Sound Samples

[TimingPoints]
-349,422.535211267606,4,2,0,50,1,0
1341,-100,4,2,0,80,0,1
1446,-100,4,2,0,70,0,0
14862,-100,4,2,0,80,0,1
14967,-100,4,2,0,70,0,0
28383,-100,4,2,0,80,0,0
28489,-100,4,2,0,70,0,0
30284,-100,4,2,0,5,0,0

[Colours]
Combo1 : 93,93,93
Combo2 : 255,96,255
Combo3 : 168,84,0

[HitObjects]
193,231,284,5,0,0:0:0:0:
272,331,496,2,0,L|182:320,1,90
25,268,918,2,0,L|114:257,1,90
264,115,1341,5,4,1:0:0:0:
193,231,1552,1,0,0:0:0:0:
73,139,1763,2,0,P|85:92|116:51,1,90,8|0,0:0|0:0,0:0:0:0:
285,212,2186,5,0,1:0:0:0:
167,135,2397,1,0,0:0:0:0:
238,20,2608,2,0,P|284:20|330:44,1,90,8|0,0:0|0:0,0:0:0:0:
347,58,2925,1,0,0:0:0:0:
361,86,3031,5,0,1:1:0:0:
366,213,3242,1,0,0:0:0:0:
264,115,3453,1,8,0:0:0:0:
443,150,3665,6,0,L|454:242,1,90,0|0,0:0|1:0,0:0:0:0:
366,367,4087,1,0,0:0:0:0:
503,302,4298,1,8,0:0:0:0:
366,213,4510,1,0,0:0:0:0:
236,361,4721,5,0,1:0:0:0:
96,269,4932,1,0,0:0:0:0:
227,186,5143,2,0,P|248:246|243:280,1,90,8|0,0:0|0:0,0:0:0:0:
94,359,5566,5,0,1:0:0:0:
170,245,5777,1,0,0:0:0:0:
47,143,5988,2,0,P|26:203|31:237,1,90,8|0,0:0|0:0,0:0:0:0:
162,95,6411,5,0,1:0:0:0:
104,203,6622,1,0,0:0:0:0:
16,67,6834,1,8,0:0:0:0:
169,17,7045,6,0,L|272:25,1,90,0|0,0:0|1:0,0:0:0:0:
363,170,7467,1,0,0:0:0:0:
253,105,7679,1,8,0:0:0:0:
375,41,7890,2,0,L|369:109,1,45,0|0,1:0|0:0,1:0:0:0:
289,209,8101,6,0,L|296:305,1,90,4|0,1:2|0:0,0:0:0:0:
450,283,8524,1,8,0:0:0:0:
363,170,8735,1,0,0:0:0:0:
296,299,8946,5,0,1:0:0:0:
382,384,9157,1,0,0:0:0:0:
369,250,9369,1,8,0:0:0:0:
249,366,9580,2,0,L|206:356,1,45,0|0,1:0|0:0,1:0:0:0:
93,268,9791,6,0,L|100:172,1,90,4|0,1:2|0:0,0:0:0:0:
253,105,10214,1,8,0:0:0:0:
170,219,10425,1,0,0:0:0:0:
99,89,10636,5,0,1:0:0:0:
190,4,10847,1,0,0:0:0:0:
172,141,11059,1,8,0:0:0:0:
15,89,11270,2,0,L|11:137,1,45,0|0,1:0|0:0,1:0:0:0:
4,280,11481,6,0,L|105:267,1,90,4|0,1:2|0:0,0:0:0:0:
261,152,11904,2,0,L|160:139,1,90,8|0,0:0|0:0,0:0:0:0:
9,198,12327,5,0,1:0:0:0:
166,218,12538,1,0,0:0:0:0:
99,89,12749,1,8,0:0:0:0:
93,268,12960,1,0,0:0:0:0:
261,152,13172,5,4,1:2:0:0:
139,343,13383,1,0,0:0:0:0:
90,188,13594,5,8,1:2:0:0:
290,306,13805,1,0,0:0:0:0:
411,118,14017,5,0,1:0:0:0:
363,327,14228,2,0,L|414:334,1,45
499,269,14440,5,0,1:0:0:0:
497,224,14545,1,0,1:0:0:0:
496,179,14651,1,0,1:0:0:0:
495,134,14756,1,0,1:0:0:0:
494,89,14862,5,4,1:0:0:0:
354,13,15073,1,0,0:0:0:0:
347,177,15284,2,0,P|369:167|413:109,1,90,8|0,0:0|0:0,0:0:0:0:
281,118,15707,5,0,1:0:0:0:
285,277,15918,1,0,0:0:0:0:
430,201,16129,2,0,P|410:186|338:177,1,90,8|0,0:0|0:0,0:0:0:0:
316,185,16446,1,0,0:0:0:0:
289,201,16552,5,0,1:0:0:0:
200,380,16763,1,0,0:0:0:0:
180,235,16974,1,8,0:0:0:0:
57,340,17186,6,0,L|65:237,1,90,0|0,0:0|1:0,0:0:0:0:
108,106,17608,1,0,0:0:0:0:
180,235,17820,1,8,0:0:0:0:
17,178,18031,1,0,0:0:0:0:
13,146,18136,1,0,0:0:0:0:
8,114,18242,5,4,1:2:0:0:
137,25,18453,1,0,0:0:0:0:
188,167,18665,2,0,L|94:182,1,90,8|0,0:0|0:0,0:0:0:0:
206,68,19087,5,0,1:0:0:0:
351,129,19298,1,0,0:0:0:0:
252,241,19510,2,0,L|267:147,1,90,8|0,0:0|0:0,0:0:0:0:
439,22,19932,5,4,1:2:0:0:
409,179,20143,1,0,0:0:0:0:
284,65,20355,1,8,0:0:0:0:
432,99,20566,1,0,0:0:0:0:
462,105,20672,1,0,0:0:0:0:
492,111,20777,5,0,1:0:0:0:
385,255,20989,1,0,0:0:0:0:
353,118,21200,2,0,L|366:12,1,90,8|0,0:0|0:0,0:0:0:0:
471,225,21622,6,0,L|460:314,1,90,4|0,0:0|0:0,0:0:0:0:
346,380,22045,1,8,0:0:0:0:
253,191,22256,1,0,0:0:0:0:
253,191,22362,1,0,0:0:0:0:
253,191,22467,5,0,1:0:0:0:
385,255,22679,1,0,1:0:0:0:
270,347,22890,1,8,1:2:0:0:
138,145,23101,6,0,P|55:172|33:255,1,180,4|0,1:2|0:0,0:0:0:0:
209,292,23735,2,0,L|200:178,1,90,8|0,0:0|0:0,0:0:0:0:
68,99,24158,5,0,1:0:0:0:
124,234,24369,1,0,1:0:0:0:
219,120,24580,1,8,1:2:0:0:
64,288,24791,6,0,B|123:287|123:287|193:298|193:298|268:294,1,180,4|0,1:2|0:0,0:0:0:0:
403,262,25425,1,8,0:0:0:0:
296,148,25636,1,0,0:0:0:0:
302,178,25742,1,0,0:0:0:0:
307,209,25848,5,0,1:0:0:0:
415,344,26059,1,0,1:0:0:0:
464,187,26270,1,8,1:2:0:0:
279,365,26481,6,0,B|228:367|228:367|158:356|158:356|99:357,1,180,4|0,0:0|0:0,0:0:0:0:
42,199,27115,1,8,0:0:0:0:
203,220,27326,1,0,0:0:0:0:
197,250,27432,1,0,0:0:0:0:
192,281,27538,5,0,0:0:0:0:
99,356,27749,1,0,0:0:0:0:
132,159,27960,1,8,1:2:0:0:
169,134,28065,1,0,1:0:0:0:
213,128,28171,1,0,1:0:0:0:
255,142,28276,1,0,1:0:0:0:
287,174,28382,5,4,1:0:0:0:
256,192,28489,12,0,30284,0:0:0:0:
