osu file format v14

[General]
AudioFilename: Harumachi Your Mother.mp3
AudioLeadIn: 0
PreviewTime: 179
Countdown: 0
SampleSet: None
StackLeniency: 0.4
Mode: 0
LetterboxInBreaks: 0
WidescreenStoryboard: 1

[Editor]
Bookmarks: 30496,37033,47139,57244,67507,74928,77454,97665,102718,107770,118033,125454,140297,158454
DistanceSpacing: 0.1
BeatDivisor: 4
GridSize: 16
TimelineZoom: 1

[Metadata]
Title:Harumachi Clover
TitleUnicode:春待ちクローバー
Artist:Hanasaka Yui(CV: M.A.O)
ArtistUnicode:花坂結衣(CV:M・A・O)
Creator:KinqJao
Version:Extra
Source:OneRoom
Tags:tvsize tv size kantoku カントク one room ワンルーム
BeatmapID:1818906
BeatmapSetID:870383

[Difficulty]
HPDrainRate:5
CircleSize:3.8
OverallDifficulty:9
ApproachRate:8.7
SliderMultiplier:2.5
SliderTickRate:1

[Events]
//Background and Video events
0,0,"maxresdefault.jpg",0,0
//Break Periods
//Storyboard Layer 0 (Background)
//Storyboard Layer 1 (Fail)
//Storyboard Layer 2 (Pass)
//Storyboard Layer 3 (Foreground)
//Storyboard Sound Samples

[TimingPoints]
-349,422.535211267606,4,2,1,60,1,0
1341,-100,4,2,1,100,0,0
26481,-133.333333333333,4,2,1,100,0,0
28489,-100,4,2,1,10,0,0

[Colours]
Combo1 : 234,77,179
Combo2 : 255,203,96
Combo3 : 71,143,209
Combo4 : 100,193,72

[HitObjects]
225,338,284,5,2,0:0:0:0:
257,114,496,1,2,0:0:0:0:
129,194,707,1,2,0:0:0:0:
353,226,918,1,2,0:0:0:0:
161,306,1129,1,2,0:0:0:0:
419,84,1341,6,0,P|354:56|280:60,1,125,6|0,0:0|0:0,0:0:0:0:
380,206,1763,1,10,0:0:0:0:
300,335,1974,1,0,0:0:0:0:
192,198,2186,1,2,0:0:0:0:
67,228,2397,6,0,L|59:361,2,125,2|10|2,0:0|0:0|0:0,0:0:0:0:
292,111,3031,2,0,P|234:76|165:75,1,125,2|0,0:0|0:0,0:0:0:0:
215,242,3453,1,10,0:0:0:0:
75,80,3665,1,2,0:0:0:0:
339,134,3876,1,2,0:0:0:0:
144,335,4087,1,0,0:0:0:0:
332,348,4298,2,2,P|352:275|334:231,1,125,10|2,0:0|0:0,0:0:0:0:
250,77,4721,5,2,0:0:0:0:
220,237,4932,1,0,0:0:0:0:
85,99,5143,5,10,0:0:0:0:
222,237,5355,1,0,0:0:0:0:
50,245,5566,5,2,0:0:0:0:
222,237,5777,1,2,0:0:0:0:
176,373,5989,5,10,0:0:0:0:
222,237,6200,1,2,0:0:0:0:
151,123,6411,6,0,P|249:88|298:86,1,125,2|2,0:0|0:0,0:0:0:0:
385,182,6834,1,10,0:0:0:0:
307,357,7045,2,2,P|268:275|263:235,1,125,2|2,0:0|0:0,0:0:0:0:
239,49,7467,1,0,0:0:0:0:
398,162,7679,1,10,0:0:0:0:
121,286,7890,1,2,0:0:0:0:
102,109,8101,6,0,P|174:136|214:187,1,125,6|0,0:0|0:0,0:0:0:0:
219,331,8524,1,10,0:0:0:0:
355,152,8735,1,2,0:0:0:0:
413,343,8946,1,2,0:0:0:0:
434,38,9158,6,0,P|448:126|429:191,1,125,2|10,0:0|0:0,0:0:0:0:
454,283,9580,2,0,B|398:341|347:351|347:351|283:330|241:276,1,250,2|2,0:0|0:0,0:0:0:0:
352,240,10214,1,10,0:0:0:0:
441,130,10425,2,2,P|361:100|300:95,1,125
218,342,10848,2,0,P|192:257|190:202,1,125,2|8,0:0|0:0,0:0:0:0:
192,105,11270,1,2,0:0:0:0:
59,280,11481,5,2,0:0:0:0:
348,221,11693,1,0,0:0:0:0:
57,174,11904,5,10,0:0:0:0:
386,126,12115,1,0,0:0:0:0:
336,346,12327,5,2,0:0:0:0:
284,126,12538,1,0,0:0:0:0:
206,349,12749,5,10,0:0:0:0:
175,40,12960,1,2,0:0:0:0:
432,48,13172,5,8,0:0:0:0:
80,344,13383,1,2,0:0:0:0:
464,192,13594,5,10,0:0:0:0:
48,192,13805,1,2,0:0:0:0:
432,336,14017,5,10,0:0:0:0:
80,48,14228,1,2,0:0:0:0:
302,46,14439,5,8,0:0:0:0:
303,107,14544,1,8,0:0:0:0:
277,163,14650,1,8,0:0:0:0:
228,202,14755,1,8,0:0:0:0:
228,202,14862,2,0,P|165:235|98:248,1,125,6|0,0:0|0:0,0:0:0:0:
275,356,15284,6,0,P|327:307|336:243,1,125,10|0,0:0|0:0,0:0:0:0:
442,150,15707,1,2,0:0:0:0:
334,51,15918,1,2,0:0:0:0:
252,198,16129,1,10,0:0:0:0:
135,100,16341,1,2,0:0:0:0:
224,291,16552,6,0,P|181:262|75:249,1,125,2|0,0:0|0:0,0:0:0:0:
334,347,16974,1,10,0:0:0:0:
336,189,17186,2,0,P|265:144|212:131,1,125,2|2,0:0|0:0,0:0:0:0:
98,145,17608,2,0,P|82:78|109:9,2,125,0|10|0,0:0|0:0|0:0,0:0:0:0:
64,224,18242,5,2,0:0:0:0:
336,336,18453,1,0,0:0:0:0:
80,352,18665,5,10,0:0:0:0:
336,224,18876,1,0,0:0:0:0:
176,240,19087,5,2,0:0:0:0:
448,352,19298,1,2,0:0:0:0:
256,352,19510,5,10,0:0:0:0:
432,160,19721,1,2,0:0:0:0:
296,213,19932,6,0,P|270:153|259:76,1,125,2|0,0:0|0:0,0:0:0:0:
117,346,20355,2,0,P|154:275|150:217,1,125,10|2,0:0|0:0,0:0:0:0:
148,75,20777,5,2,0:0:0:0:
425,172,20989,1,0,0:0:0:0:
297,349,21200,1,10,0:0:0:0:
124,258,21411,1,0,0:0:0:0:
54,152,21622,6,0,P|137:135|194:134,1,125,6|0,0:0|0:0,0:0:0:0:
436,57,22045,2,0,P|369:53|280:65,1,125,10|2,0:0|0:0,0:0:0:0:
274,66,22362,1,2,0:0:0:0:
274,66,22467,1,10,0:0:0:0:
112,64,22679,5,10,0:0:0:0:
112,160,22890,1,10,0:0:0:0:
112,288,23101,2,0,B|248:293|175:185|386:191,1,250,14|0,0:0|0:0,0:0:0:0:
320,272,23735,5,10,0:0:0:0:
128,144,23946,1,2,0:0:0:0:
175,351,24158,1,10,0:0:0:0:
32,256,24369,1,10,0:0:0:0:
224,160,24580,1,10,0:0:0:0:
448,64,24791,6,0,B|312:59|385:167|174:161,1,250,6|0,0:0|0:0,0:0:0:0:
181,39,25425,2,0,P|141:78|131:157,1,125,10|10,0:0|0:0,0:0:0:0:
128,182,25742,1,10,0:0:0:0:
128,182,25848,1,10,0:0:0:0:
405,341,26059,1,10,0:0:0:0:
236,260,26270,1,8,0:0:0:0:
80,352,26481,6,0,P|144:336|240:256,1,187.500007152558,6|2,0:0|0:0,0:0:0:0:
384,320,27115,1,10,0:0:0:0:
102,124,27327,1,2,0:0:0:0:
102,124,27432,1,2,0:0:0:0:
102,124,27538,1,10,0:0:0:0:
293,49,27749,1,2,0:0:0:0:
288,181,27960,5,10,0:0:0:0:
334,181,28065,1,8,0:0:0:0:
376,201,28171,1,8,0:0:0:0:
407,236,28276,1,8,0:0:0:0:
420,280,28382,1,12,0:0:0:0:
256,192,28489,12,0,30496,0:0:0:0:
