osu file format v14

[General]
AudioFilename: audio.mp3
AudioLeadIn: 0
PreviewTime: 179
Countdown: 1
SampleSet: Soft
StackLeniency: 0.2
Mode: 0
LetterboxInBreaks: 0
WidescreenStoryboard: 0

[Editor]
DistanceSpacing: 2.5
BeatDivisor: 4
GridSize: 16
TimelineZoom: 1

[Metadata]
Title:Harumachi Clover
TitleUnicode:春待ちクローバー
Artist:Hanasaka Yui(CV: M.A.O)
ArtistUnicode:花坂結衣(CV:M・A・O)
Creator:Karen
Version:MoeMoe
Source:OneRoom
Tags:tv size one_room カントク kantoku little cloudsplash16 rizia kawaiwkyik
BeatmapID:1180037
BeatmapSetID:557733

[Difficulty]
HPDrainRate:7
CircleSize:4
OverallDifficulty:7
ApproachRate:8
SliderMultiplier:1.4
SliderTickRate:1

[Events]
//Background and Video events
0,0,"bg1.JPG",0,0
//Break Periods
//Storyboard Layer 0 (Background)
//Storyboard Layer 1 (Fail)
//Storyboard Layer 2 (Pass)
//Storyboard Layer 3 (Foreground)
//Storyboard Sound Samples

[TimingPoints]
-349,422.535211267606,4,2,1,30,1,0
1341,-100,4,2,1,60,0,0
4721,-100,4,2,2,60,0,0
4932,-100,4,2,1,60,0,0
6411,-100,4,2,2,60,0,0
6622,-100,4,2,1,60,0,0
8101,-100,4,2,2,60,0,0
8312,-100,4,2,1,60,0,0
9791,-100,4,2,2,60,0,0
10002,-100,4,2,1,60,0,0
11481,-100,4,2,2,60,0,0
11693,-100,4,2,1,60,0,0
13172,-100,4,2,2,60,0,0
13383,-100,4,2,1,60,0,0
21622,-100,4,2,2,60,0,0
21834,-100,4,2,1,60,0,0
23101,-100,4,2,2,60,0,0
23312,-100,4,2,1,60,0,0
24791,-100,4,2,2,60,0,0
25003,-100,4,2,1,60,0,0
26481,-100,4,2,2,60,0,0
26693,-100,4,2,1,60,0,0
30495,-100,4,2,1,5,0,0

[Colours]
Combo1 : 255,206,157
Combo2 : 255,255,136

[HitObjects]
330,89,284,5,0,0:0:0:0:
351,170,496,1,2,0:0:0:0:
434,174,707,1,0,0:0:0:0:
462,95,918,1,2,0:0:0:0:
401,36,1129,1,0,0:0:0:0:
351,170,1341,5,4,0:0:0:0:
381,269,1552,1,0,0:0:0:0:
280,299,1763,1,8,0:0:0:0:
250,200,1974,1,0,0:0:0:0:
393,189,2187,5,2,0:0:0:0:
364,310,2398,1,0,0:0:0:0:
241,280,2609,1,8,0:0:0:0:
269,159,2820,1,0,1:0:0:0:
269,159,2925,1,0,1:0:0:0:
269,159,3031,5,2,3:0:0:0:
291,353,3242,1,0,0:0:0:0:
485,335,3453,1,8,3:2:0:0:
465,138,3665,1,0,0:0:0:0:
336,206,3876,5,0,3:0:0:0:
344,287,4087,1,0,0:0:0:0:
427,279,4298,1,8,3:2:0:0:
418,197,4510,1,0,1:0:0:0:
418,197,4615,1,0,1:0:0:0:
418,197,4721,5,2,0:0:0:0:
344,287,4932,1,0,0:0:0:0:
225,300,5143,1,8,0:0:0:0:
136,219,5355,1,0,0:0:0:0:
121,250,5566,5,0,0:0:0:0:
222,336,5778,1,0,0:0:0:0:
354,324,5989,1,8,0:0:0:0:
440,223,6200,1,0,0:0:0:0:
131,279,6412,5,2,0:0:0:0:
217,178,6622,1,0,0:0:0:0:
349,166,6834,1,8,3:2:0:0:
450,252,7045,1,0,0:0:0:0:
302,251,7256,5,0,3:0:0:0:
349,166,7467,1,0,0:0:0:0:
319,72,7679,1,8,3:2:0:0:
230,29,7890,1,0,1:0:0:0:
230,29,7996,1,0,1:0:0:0:
230,29,8101,5,6,0:0:0:0:
409,35,8312,1,0,0:0:0:0:
252,143,8524,1,8,0:0:0:0:
431,149,8735,1,0,0:0:0:0:
305,330,8946,5,0,0:0:0:0:
279,237,9158,1,0,0:0:0:0:
305,330,9369,1,8,0:0:0:0:
490,237,9580,1,0,1:0:0:0:
490,237,9686,1,0,1:0:0:0:
490,237,9791,5,6,0:0:0:0:
431,149,10003,1,0,0:0:0:0:
386,244,10214,1,8,0:0:0:0:
490,237,10425,1,0,0:0:0:0:
330,155,10636,5,0,0:0:0:0:
343,333,10848,1,0,0:0:0:0:
490,237,11059,1,8,0:0:0:0:
386,244,11270,1,0,1:0:0:0:
386,244,11376,1,0,1:0:0:0:
386,244,11481,5,6,0:0:0:0:
416,71,11693,1,0,0:0:0:0:
254,4,11904,1,8,0:0:0:0:
124,121,12115,1,0,3:0:0:0:
214,271,12327,1,0,0:0:0:0:
386,244,12538,1,0,3:0:0:0:
318,79,12749,1,8,0:0:0:0:
211,167,12960,1,0,0:0:0:0:
303,318,13172,5,6,0:0:0:0:
318,79,13383,1,0,0:0:0:0:
304,320,13594,1,12,0:0:0:0:
318,79,13805,1,0,0:0:0:0:
375,270,14017,5,8,0:0:0:0:
287,202,14228,1,0,0:0:0:0:
259,198,14334,1,0,0:0:0:0:
231,194,14439,1,8,0:0:0:0:
203,189,14545,1,0,0:0:0:0:
175,184,14651,1,0,0:0:0:0:
147,180,14756,1,0,0:0:0:0:
120,174,14862,5,4,0:0:0:0:
118,278,15073,1,0,0:0:0:0:
225,276,15284,1,8,0:0:0:0:
224,173,15495,1,0,0:0:0:0:
84,203,15708,5,2,0:0:0:0:
147,311,15919,1,0,0:0:0:0:
256,246,16130,1,8,0:0:0:0:
194,140,16341,1,8,0:0:0:0:
194,140,16446,1,8,0:0:0:0:
194,140,16552,5,2,3:0:0:0:
230,330,16763,1,0,0:0:0:0:
38,370,16974,1,8,3:2:0:0:
0,178,17186,1,0,0:0:0:0:
143,204,17397,5,0,3:0:0:0:
159,284,17608,1,0,0:0:0:0:
77,300,17819,1,8,3:2:0:0:
62,219,18031,1,8,0:0:0:0:
62,219,18136,1,8,0:0:0:0:
62,219,18242,5,4,0:0:0:0:
159,284,18453,1,0,0:0:0:0:
274,255,18665,1,8,0:0:0:0:
333,152,18876,1,0,0:0:0:0:
349,185,19087,5,2,0:0:0:0:
274,294,19298,1,0,0:0:0:0:
142,316,19510,1,8,0:0:0:0:
33,239,19721,1,0,0:0:0:0:
347,219,19932,5,4,3:0:0:0:
238,142,20143,1,0,0:0:0:0:
106,164,20355,1,8,3:0:0:0:
31,273,20566,1,8,0:0:0:0:
31,273,20672,1,8,0:0:0:0:
31,273,20777,5,0,3:0:0:0:
42,98,20989,1,8,0:0:0:0:
95,339,21200,1,8,3:0:0:0:
106,164,21412,1,0,0:0:0:0:
234,316,21622,5,6,0:0:0:0:
240,203,21834,1,0,0:0:0:0:
161,259,22045,1,8,0:0:0:0:
310,262,22256,1,0,1:0:0:0:
310,262,22362,1,0,1:0:0:0:
310,262,22467,5,8,0:0:0:0:
192,124,22679,1,8,0:0:0:0:
234,316,22890,1,8,0:0:0:0:
353,96,23101,1,6,0:0:0:0:
353,96,23524,5,8,0:0:0:0:
284,166,23735,1,8,0:0:0:0:
378,191,23946,1,0,0:0:0:0:
260,70,24158,5,8,0:0:0:0:
310,262,24369,1,8,0:0:0:0:
445,114,24580,1,8,0:0:0:0:
193,197,24791,1,6,0:0:0:0:
193,197,25214,5,0,0:0:0:0:
169,101,25425,1,8,0:0:0:0:
219,289,25636,1,0,1:0:0:0:
219,289,25742,1,0,1:0:0:0:
219,289,25848,1,8,0:0:0:0:
193,197,26059,1,0,0:0:0:0:
241,379,26270,1,8,0:0:0:0:
169,101,26481,1,6,0:0:0:0:
169,101,26904,5,8,0:0:0:0:
262,129,27115,1,8,3:2:0:0:
74,73,27327,1,0,1:0:0:0:
74,73,27432,1,0,1:0:0:0:
74,73,27538,1,8,0:0:0:0:
262,129,27749,1,8,0:0:0:0:
169,101,27960,1,8,0:0:0:0:
167,87,28066,1,8,0:0:0:0:
165,73,28172,1,8,0:0:0:0:
163,59,28277,1,8,0:0:0:0:
161,45,28383,5,4,0:0:0:0:
256,192,28489,12,0,30496,0:0:0:0:
