osu file format v14

[General]
AudioFilename: audio.mp3
AudioLeadIn: 0
PreviewTime: 74
Countdown: 0
SampleSet: Soft
StackLeniency: 0.7
Mode: 0
LetterboxInBreaks: 0
WidescreenStoryboard: 0

[Editor]
DistanceSpacing: 0.9
BeatDivisor: 4
GridSize: 4
TimelineZoom: 2.2

[Metadata]
Title:Harumachi Clover
TitleUnicode:春待ちクローバー
Artist:Hanasaka Yui(CV: M.A.O)
ArtistUnicode:花坂結衣(CV:M・A・O)
Creator:Djulus
Version:Tarrasky's True Love
Source:OneRoom
Tags:Shmiklak marvollo DefendeRDjulus M_a_r_v_o_l_l_o Tarrasky MashaSG tvsize one_room kantoku カントク 市道 真央 いちみち まお
BeatmapID:1278814
BeatmapSetID:600702

[Difficulty]
HPDrainRate:7
CircleSize:4
OverallDifficulty:8.4
ApproachRate:9
SliderMultiplier:1.8
SliderTickRate:1

[Events]
//Background and Video events
0,0,"FVZMjbt.jpg",0,0
//Break Periods
//Storyboard Layer 0 (Background)
//Storyboard Layer 1 (Fail)
//Storyboard Layer 2 (Pass)
//Storyboard Layer 3 (Foreground)
//Storyboard Sound Samples

[TimingPoints]
-348,422.535211267606,4,2,1,100,1,0
285,-100,4,2,1,35,0,0
1342,-100,4,2,1,80,0,1
1447,-100,4,2,1,80,0,0
14863,-100,4,2,1,80,0,1
14968,-100,4,2,1,80,0,0
26482,-133.333333333333,4,2,1,80,0,0
28384,-200,4,2,1,80,0,0
28490,-200,4,2,1,5,0,0

[Colours]
Combo1 : 255,255,0
Combo2 : 255,128,192

[HitObjects]
94,222,285,5,2,0:0:0:0:
262,107,497,1,2,0:0:0:0:
136,104,708,1,0,0:0:0:0:
192,299,919,1,2,0:0:0:0:
296,228,1130,1,0,0:0:0:0:
94,222,1342,6,0,L|97:311,1,90,4|0,0:0|0:0,0:0:0:0:
392,324,1764,2,0,L|395:234,1,90,8|0,0:0|0:0,0:0:0:0:
188,56,2187,1,2,0:0:0:0:
205,262,2398,1,0,0:0:0:0:
376,144,2609,1,10,0:0:0:0:
120,176,2821,1,2,0:0:0:0:
120,176,2926,1,0,0:0:0:0:
120,176,3032,6,0,L|115:82,1,90,2|0,0:0|0:0,0:0:0:0:
28,224,3454,1,8,0:0:0:0:
28,224,3666,2,0,P|102:275|200:248,1,180,2|0,0:0|0:0,0:0:0:0:
332,184,4299,1,8,0:0:0:0:
280,360,4511,1,0,0:0:0:0:
124,180,4722,5,6,0:0:0:0:
295,53,4933,1,0,0:0:0:0:
320,264,5144,1,10,0:0:0:0:
80,244,5356,1,0,0:0:0:0:
328,364,5567,1,2,0:0:0:0:
308,90,5778,1,2,0:0:0:0:
200,372,5990,1,8,0:0:0:0:
144,132,6201,1,2,0:0:0:0:
400,308,6412,6,0,P|408:260|404:207,1,90,2|0,0:0|0:0,0:0:0:0:
144,132,6835,1,8,0:0:0:0:
144,132,7046,2,0,P|236:172|316:140,1,180,2|0,0:0|0:0,0:0:0:0:
436,16,7680,1,8,0:0:0:0:
408,212,7891,1,2,0:0:0:0:
364,228,7997,1,0,0:0:0:0:
320,244,8102,5,4,0:0:0:0:
144,60,8313,1,0,0:0:0:0:
242,273,8525,1,10,0:0:0:0:
352,64,8736,1,0,0:0:0:0:
178,221,8947,1,2,0:0:0:0:
403,208,9158,1,2,0:0:0:0:
279,20,9370,1,8,0:0:0:0:
178,221,9581,1,2,0:0:0:0:
188,264,9687,1,0,0:0:0:0:
199,307,9792,6,0,P|243:319|288:319,1,90,4|0,0:0|0:0,0:0:0:0:
368,136,10215,1,10,0:0:0:0:
412,320,10426,1,0,0:0:0:0:
280,72,10637,1,2,0:0:0:0:
199,307,10849,1,2,0:0:0:0:
480,160,11060,1,10,0:0:0:0:
296,236,11271,1,0,0:0:0:0:
252,232,11377,1,0,0:0:0:0:
208,228,11482,6,0,P|148:172|168:64,1,180,4|8,0:0|0:0,0:0:0:0:
328,136,12116,1,0,0:0:0:0:
328,136,12328,2,0,L|196:128,1,90
352,40,12750,1,8,0:0:0:0:
391,251,12961,1,0,0:0:0:0:
397,291,13067,1,0,0:0:0:0:
403,331,13173,5,4,0:0:0:0:
196,220,13384,1,0,0:0:0:0:
395,96,13595,1,4,0:0:0:0:
304,348,13806,1,0,0:0:0:0:
131,143,14018,1,4,0:0:0:0:
395,96,14229,1,0,0:0:0:0:
412,120,14334,1,0,0:0:0:0:
423,148,14440,1,2,0:0:0:0:
428,177,14545,1,0,0:0:0:0:
427,207,14651,1,0,0:0:0:0:
418,236,14757,1,0,0:0:0:0:
404,262,14863,6,0,L|308:266,1,90,4|0,0:0|0:0,0:0:0:0:
156,116,15285,2,0,L|246:117,1,90,8|0,0:0|0:0,0:0:0:0:
364,53,15708,1,2,0:0:0:0:
314,265,15919,1,0,0:0:0:0:
156,116,16130,1,10,0:0:0:0:
392,144,16342,1,2,0:0:0:0:
404,184,16447,1,0,0:0:0:0:
416,224,16553,6,0,L|407:332,1,90,2|0,0:0|0:0,0:0:0:0:
200,204,16975,1,8,0:0:0:0:
328,56,17187,2,0,L|312:256,1,180
160,308,17821,1,8,0:0:0:0:
352,304,18032,1,0,0:0:0:0:
396,312,18137,1,0,0:0:0:0:
440,320,18243,5,4,0:0:0:0:
356,132,18454,1,0,0:0:0:0:
276,340,18666,1,10,0:0:0:0:
135,166,18877,1,0,0:0:0:0:
376,220,19088,1,2,0:0:0:0:
120,276,19299,1,2,0:0:0:0:
199,26,19511,1,8,0:0:0:0:
263,321,19722,1,2,0:0:0:0:
428,46,19933,6,0,P|368:58|338:73,1,90,4|0,0:0|0:0,0:0:0:0:
432,304,20356,1,8,0:0:0:0:
248,216,20567,1,2,0:0:0:0:
256,172,20672,1,0,0:0:0:0:
264,128,20778,2,0,L|260:16,1,90,2|0,0:0|0:0,0:0:0:0:
420,168,21201,1,8,0:0:0:0:
276,332,21412,1,0,0:0:0:0:
232,324,21518,1,0,0:0:0:0:
188,316,21623,5,4,0:0:0:0:
132,124,21835,1,0,0:0:0:0:
324,68,22046,1,8,0:0:0:0:
380,260,22258,1,2,0:0:0:0:
380,260,22363,1,0,0:0:0:0:
380,260,22468,1,2,0:0:0:0:
124,212,22680,1,2,0:0:0:0:
312,44,22891,1,8,0:0:0:0:
440,344,23102,6,0,L|304:348,1,135,4|0,0:0|0:0,0:0:0:0:
264,348,23525,1,0,0:0:0:0:
308,144,23736,1,8,0:0:0:0:
160,296,23947,1,0,0:0:0:0:
116,300,24053,1,0,0:0:0:0:
72,288,24159,1,2,0:0:0:0:
216,56,24370,1,2,0:0:0:0:
310,308,24581,1,8,0:0:0:0:
44,264,24792,6,0,P|25:168|48:84,1,180,4|0,0:0|3:0,0:0:0:0:
220,28,25426,1,0,3:0:0:0:
436,252,25637,1,0,0:0:0:0:
436,252,25743,1,0,0:0:0:0:
436,252,25849,1,0,3:0:0:0:
140,320,26060,1,0,3:0:0:0:
220,28,26271,1,0,3:0:0:0:
436,252,26482,6,0,L|280:260,1,135.000005149842,4|0,0:0|0:0,0:0:0:0:
88,272,27116,1,2,3:0:0:0:
302,125,27328,1,0,0:0:0:0:
302,125,27433,1,0,0:0:0:0:
302,125,27539,1,2,3:0:0:0:
288,376,27750,1,0,0:0:0:0:
88,272,27961,1,8,0:3:0:0:
60,231,28066,1,8,0:3:0:0:
51,182,28172,1,8,0:3:0:0:
62,133,28277,1,8,0:3:0:0:
91,92,28384,1,4,0:0:0:0:
256,192,28490,12,0,30285,0:0:0:0:
