osu file format v14

[General]
AudioFilename: audio.mp3
AudioLeadIn: 0
PreviewTime: 74
Countdown: 0
SampleSet: Soft
StackLeniency: 0.7
Mode: 0
LetterboxInBreaks: 0
WidescreenStoryboard: 1

[Editor]
DistanceSpacing: 1.4
BeatDivisor: 4
GridSize: 4
TimelineZoom: 2.2

[Metadata]
Title:Harumachi Clover
TitleUnicode:春待ちクローバー
Artist:Hanasaka Yui(CV: M.A.O)
ArtistUnicode:花坂結衣(CV:M・A・O)
Creator:Djulus
Version:M a r v o l l o's Advanced
Source:OneRoom
Tags:Shmiklak marvollo DefendeRDjulus M_a_r_v_o_l_l_o Tarrasky MashaSG tvsize one_room kantoku カントク 市道 真央 いちみち まお
BeatmapID:1269354
BeatmapSetID:600702

[Difficulty]
HPDrainRate:3
CircleSize:2.5
OverallDifficulty:4
ApproachRate:5.5
SliderMultiplier:1.4
SliderTickRate:1

[Events]
//Background and Video events
0,0,"blet zhmuklek.jpg",0,0
//Break Periods
//Storyboard Layer 0 (Background)
//Storyboard Layer 1 (Fail)
//Storyboard Layer 2 (Pass)
//Storyboard Layer 3 (Foreground)
//Storyboard Sound Samples

[TimingPoints]
-348,422.535211267606,4,2,1,35,1,0
1342,-100,4,2,1,80,0,0
30285,-100,4,2,1,5,0,0

[Colours]
Combo1 : 255,255,0
Combo2 : 255,128,192

[HitObjects]
256,216,285,5,0,0:0:0:0:
332,156,497,2,0,L|420:160,1,70
432,252,919,2,0,L|344:256,1,70,0|0,0:0|0:0,0:0:0:0:
292,324,1342,6,0,P|232:344|140:304,1,140,6|8,0:0|0:0,0:0:0:0:
84,264,1975,1,0,0:0:0:0:
24,188,2187,2,0,L|32:116,1,70,2|0,0:0|0:0,0:0:0:0:
120,72,2609,2,0,L|208:68,1,70,8|0,0:0|0:0,0:0:0:0:
259,138,3032,6,0,P|312:156|392:124,1,140,6|8,0:0|0:0,0:0:0:0:
452,52,3666,1,0,0:0:0:0:
480,144,3877,2,0,P|485:176|488:216,1,70,2|0,0:0|0:0,0:0:0:0:
396,252,4299,2,0,P|396:289|388:324,1,70,8|0,0:0|0:0,0:0:0:0:
296,352,4722,6,0,B|216:368|244:336|156:352,1,140,6|8,0:0|0:0,0:0:0:0:
60,364,5356,1,0,0:0:0:0:
28,272,5567,2,0,L|24:192,1,70,2|0,0:0|0:0,0:0:0:0:
120,180,5990,2,0,L|116:260,1,70,8|0,0:0|0:0,0:0:0:0:
185,319,6412,6,0,B|271:334|243:302|323:318,1,140,6|8,0:0|0:0,0:0:0:0:
420,344,7046,1,0,0:0:0:0:
380,256,7257,2,0,P|374:214|380:172,1,70,2|0,0:0|0:0,0:0:0:0:
448,116,7680,2,0,P|453:74|448:32,1,70,8|0,0:0|0:0,0:0:0:0:
360,12,8102,6,0,L|200:32,1,140,6|8,0:0|0:0,0:0:0:0:
136,79,8736,1,0,0:0:0:0:
104,172,8947,2,0,L|112:256,1,70,2|0,0:0|0:0,0:0:0:0:
176,316,9370,2,0,L|252:300,1,70,8|0,0:0|0:0,0:0:0:0:
313,232,9792,6,0,L|468:236,1,140,6|8,0:0|0:0,0:0:0:0:
504,320,10426,1,0,0:0:0:0:
408,344,10637,2,0,P|356:344|328:332,1,70,2|0,0:0|0:0,0:0:0:0:
244,301,11060,2,0,P|192:301|164:313,1,70,8|0,0:0|0:0,0:0:0:0:
80,288,11482,6,0,P|40:224|64:144,2,140,6|8|2,0:0|0:0|0:0,0:0:0:0:
256,200,12750,1,8,0:0:0:0:
325,269,12961,1,0,0:0:0:0:
394,199,13173,6,0,L|392:104,1,70,6|0,0:0|0:0,0:0:0:0:
332,52,13595,2,0,P|294:44|237:50,1,70,8|0,0:0|0:0,0:0:0:0:
184,104,14018,2,0,P|180:140|185:173,1,70,2|0,0:0|0:0,0:0:0:0:
160,268,14440,2,0,P|108:268|68:276,1,70,8|0,0:0|0:0,0:0:0:0:
32,352,14863,6,0,L|180:364,1,140,6|8,0:0|0:0,0:0:0:0:
256,316,15497,1,0,0:0:0:0:
344,356,15708,2,0,P|392:356|424:344,1,70,2|0,0:0|0:0,0:0:0:0:
468,268,16130,2,0,P|475:235|460:192,1,70,8|0,0:0|0:0,0:0:0:0:
380,152,16553,6,0,P|348:112|356:24,1,140,6|8,0:0|0:0,0:0:0:0:
452,8,17187,1,0,0:0:0:0:
484,100,17398,2,0,P|486:135|484:176,1,70,2|0,0:0|0:0,0:0:0:0:
416,240,17821,2,0,P|381:242|346:240,1,70,8|0,0:0|0:0,0:0:0:0:
260,196,18243,6,0,P|200:180|120:196,1,140,6|8,0:0|0:0,0:0:0:0:
40,244,18877,1,0,0:0:0:0:
88,328,19088,2,0,L|160:320,1,70,2|0,0:0|0:0,0:0:0:0:
252,288,19511,2,0,P|286:284|324:296,1,70,8|0,0:0|0:0,0:0:0:0:
404,344,19933,6,0,L|414:185,1,140,6|8,0:0|0:0,0:0:0:0:
468,124,20567,1,0,0:0:0:0:
388,64,20778,2,0,P|354:52|308:48,1,70,2|0,0:0|0:0,0:0:0:0:
224,76,21201,2,0,L|152:80,1,70,8|0,0:0|0:0,0:0:0:0:
84,149,21623,6,0,P|72:200|100:296,1,140,6|8,0:0|0:0,0:0:0:0:
144,364,22257,1,0,0:0:0:0:
216,296,22468,2,0,P|257:293|296:296,1,70,2|0,0:0|0:0,0:0:0:0:
368,352,22891,1,8,0:0:0:0:
452,304,23102,6,0,P|489:230|469:158,1,140,6|0,0:0|0:0,0:0:0:0:
404,112,23736,2,0,P|367:112|332:104,1,70,8|0,0:0|0:0,0:0:0:0:
248,56,24159,2,0,P|211:56|176:64,1,70,2|0,0:0|0:0,0:0:0:0:
104,128,24581,1,8,0:0:0:0:
80,224,24792,6,0,P|92:280|188:332,1,140,6|0,0:0|0:0,0:0:0:0:
248,358,25426,2,0,P|290:353|324:350,1,70,8|0,0:0|0:0,0:0:0:0:
387,281,25849,2,0,P|375:199|367:133,1,140,2|8,0:0|0:0,0:0:0:0:
298,73,26482,6,0,P|271:113|163:129,1,140,6|0,0:0|0:0,0:0:0:0:
91,111,27116,2,0,L|79:191,1,70,8|0,0:0|0:0,0:0:0:0:
115,272,27539,2,0,L|195:284,1,70,2|0,0:0|0:0,0:0:0:0:
269,234,27961,2,0,L|349:222,1,70,8|0,0:0|0:0,0:0:0:0:
428,260,28384,5,6,0:0:0:0:
256,192,28490,12,0,30285,0:0:0:0:
