osu file format v14

[General]
AudioFilename: audio.mp3
AudioLeadIn: 0
PreviewTime: 74
Countdown: 0
SampleSet: Soft
StackLeniency: 0.7
Mode: 0
LetterboxInBreaks: 0
WidescreenStoryboard: 0

[Editor]
DistanceSpacing: 1.4
BeatDivisor: 4
GridSize: 8
TimelineZoom: 3.599999

[Metadata]
Title:Harumachi Clover
TitleUnicode:春待ちクローバー
Artist:Hanasaka Yui(CV: M.A.O)
ArtistUnicode:花坂結衣(CV:M・A・O)
Creator:Djulus
Version:Masha's Insane
Source:OneRoom
Tags:Shmiklak marvollo DefendeRDjulus M_a_r_v_o_l_l_o Tarrasky MashaSG tvsize one_room kantoku カントク 市道 真央 いちみち まお
BeatmapID:1269345
BeatmapSetID:600702

[Difficulty]
HPDrainRate:6
CircleSize:4
OverallDifficulty:7
ApproachRate:8.3
SliderMultiplier:1.8
SliderTickRate:1

[Events]
//Background and Video events
0,0,"FVZMjbt.jpg",0,0
//Break Periods
//Storyboard Layer 0 (Background)
//Storyboard Layer 1 (Fail)
//Storyboard Layer 2 (Pass)
//Storyboard Layer 3 (Foreground)
//Storyboard Sound Samples

[TimingPoints]
-348,422.535211267606,4,2,1,35,1,0
1342,-100,4,2,1,80,0,1
1447,-100,4,2,1,80,0,0
14863,-100,4,2,1,80,0,1
14968,-100,4,2,1,80,0,0
23419,-100,4,2,1,80,0,0
23525,-100,4,2,1,80,0,0
30285,-100,4,2,1,5,0,0

[Colours]
Combo1 : 255,255,0
Combo2 : 255,128,192

[HitObjects]
297,222,285,6,0,L|291:312,2,90
378,312,919,1,0,0:0:0:0:
215,355,1131,1,0,0:0:0:0:
205,141,1342,6,0,P|249:132|304:147,1,90,6|0,0:0|0:0,0:0:0:0:
378,312,1764,2,0,P|334:321|279:306,1,90,8|0,0:0|0:0,0:0:0:0:
209,145,2187,1,2,0:0:0:0:
119,312,2399,1,0,0:0:0:0:
297,222,2609,1,8,0:0:0:0:
82,191,2821,1,0,0:0:0:0:
82,191,2926,1,0,0:0:0:0:
82,191,3032,6,0,P|74:143|85:89,1,90,6|0,0:0|0:0,0:0:0:0:
250,246,3454,1,8,0:0:0:0:
250,246,3666,2,0,B|316:210|359:283|441:243,1,180
294,52,4299,2,0,P|286:100|297:154,1,90,10|0,0:0|0:0,0:0:0:0:
425,249,4722,5,6,0:0:0:0:
250,246,4933,1,0,0:0:0:0:
463,161,5144,1,8,0:0:0:0:
337,282,5355,1,0,0:0:0:0:
428,74,5567,1,2,0:0:0:0:
428,74,5778,1,0,0:0:0:0:
425,249,5989,1,8,0:0:0:0:
428,74,6200,1,0,0:0:0:0:
202,148,6412,6,0,L|331:137,1,90,6|0,0:0|0:0,0:0:0:0:
144,237,6835,1,8,0:0:0:0:
144,237,7046,2,0,P|101:177|132:68,1,180
261,67,7680,1,8,0:0:0:0:
413,195,7891,1,0,0:0:0:0:
413,195,7997,1,0,0:0:0:0:
413,195,8102,5,6,0:0:0:0:
339,283,8313,1,0,0:0:0:0:
261,67,8525,1,8,0:0:0:0:
300,175,8736,1,0,0:0:0:0:
74,135,8948,1,2,0:0:0:0:
187,155,9159,1,0,0:0:0:0:
41,331,9370,1,8,0:0:0:0:
114,243,9581,1,0,0:0:0:0:
114,243,9687,1,0,0:0:0:0:
114,243,9792,6,0,P|154:266|227:260,1,90,6|0,0:0|0:0,0:0:0:0:
344,93,10215,2,0,P|304:70|231:76,1,90,8|0,0:0|0:0,0:0:0:0:
74,135,10637,1,2,0:0:0:0:
278,163,10849,1,0,0:0:0:0:
181,17,11060,1,8,0:0:0:0:
114,243,11271,1,0,0:0:0:0:
114,243,11377,1,0,0:0:0:0:
114,243,11482,6,0,L|212:257,1,90,6|0,0:0|0:0,0:0:0:0:
368,151,11905,1,8,0:0:0:0:
278,163,12116,1,0,0:0:0:0:
115,56,12328,1,2,0:0:0:0:
205,68,12539,1,0,0:0:0:0:
291,242,12750,1,8,0:0:0:0:
118,198,12961,1,0,0:0:0:0:
368,151,13173,6,0,L|362:261,1,90,6|0,0:0|0:0,0:0:0:0:
198,165,13595,2,0,L|204:275,1,90,6|0,0:0|0:0,0:0:0:0:
281,109,14018,1,2,0:0:0:0:
101,241,14229,1,0,0:0:0:0:
104,285,14334,1,0,0:0:0:0:
127,324,14440,1,8,0:0:0:0:
163,349,14545,1,0,0:0:0:0:
207,357,14651,1,0,0:0:0:0:
250,345,14757,1,0,0:0:0:0:
284,316,14863,6,0,P|275:271|287:214,1,90,6|0,0:0|0:0,0:0:0:0:
479,103,15285,2,0,P|488:148|476:205,1,90,10|0,0:0|0:0,0:0:0:0:
284,316,15708,1,2,0:0:0:0:
281,109,15919,1,0,0:0:0:0:
406,275,16130,1,10,0:0:0:0:
208,215,16342,1,0,0:0:0:0:
479,103,16553,6,0,P|434:96|390:105,1,90,6|0,0:0|0:0,0:0:0:0:
410,279,16975,1,8,0:0:0:0:
410,279,17187,2,0,P|427:213|324:122,1,180
201,203,17821,2,0,P|157:212|100:196,1,90,8|0,0:0|0:0,0:0:0:0:
202,51,18243,5,6,0:0:0:0:
278,127,18454,1,0,0:0:0:0:
201,203,18666,1,8,0:0:0:0:
125,127,18877,1,0,0:0:0:0:
278,51,19088,1,2,0:0:0:0:
278,203,19299,1,0,0:0:0:0:
126,203,19511,1,8,0:0:0:0:
126,50,19722,1,0,0:0:0:0:
348,129,19933,6,0,P|392:138|449:122,1,90,6|0,0:0|0:0,0:0:0:0:
278,51,20356,1,8,0:0:0:0:
251,239,20567,1,0,0:0:0:0:
251,239,20673,1,0,0:0:0:0:
251,239,20778,2,0,P|203:247|154:236,1,90,2|0,0:0|0:0,0:0:0:0:
37,50,21201,2,0,P|85:42|134:53,1,90,8|0,0:0|0:0,0:0:0:0:
162,239,21623,5,6,0:0:0:0:
58,157,21835,1,0,0:0:0:0:
181,107,22046,1,8,0:0:0:0:
62,261,22257,1,0,0:0:0:0:
62,261,22363,1,0,0:0:0:0:
62,261,22469,1,2,0:0:0:0:
90,64,22680,1,0,0:0:0:0:
247,187,22891,1,8,0:0:0:0:
59,370,23102,6,0,P|107:346|186:368,1,135,6|0,0:0|0:0,0:0:0:0:
196,384,23525,1,0,0:0:0:0:
247,187,23736,2,0,P|199:183|157:201,1,90,8|0,0:0|0:0,0:0:0:0:
214,274,24159,1,2,0:0:0:0:
211,84,24370,1,0,0:0:0:0:
53,205,24581,1,8,0:0:0:0:
311,263,24792,6,0,L|459:264,1,135,6|0,0:0|0:0,0:0:0:0:
481,287,25215,1,0,0:0:0:0:
272,366,25426,2,0,L|170:365,1,90,8|0,0:0|0:0,0:0:0:0:
147,366,25743,1,0,0:0:0:0:
115,364,25849,1,2,0:0:0:0:
311,263,26060,1,0,0:0:0:0:
370,354,26271,1,8,0:0:0:0:
214,274,26482,6,0,L|222:131,1,135,6|0,0:0|0:0,0:0:0:0:
211,84,26905,1,0,0:0:0:0:
311,263,27116,1,8,0:0:0:0:
122,160,27328,1,0,0:0:0:0:
122,160,27433,1,0,0:0:0:0:
122,160,27539,1,2,0:0:0:0:
387,172,27750,1,0,0:0:0:0:
229,289,27961,5,8,0:0:0:0:
229,289,28067,1,0,0:0:0:0:
229,289,28173,1,0,0:0:0:0:
229,289,28278,1,0,0:0:0:0:
229,289,28384,1,6,0:0:0:0:
256,192,28490,12,0,30285,0:0:0:0:
