osu file format v14

[General]
AudioFilename: audio.mp3
AudioLeadIn: 0
PreviewTime: 74
Countdown: 0
SampleSet: Soft
StackLeniency: 0.7
Mode: 0
LetterboxInBreaks: 0
WidescreenStoryboard: 0

[Editor]
DistanceSpacing: 1.3
BeatDivisor: 4
GridSize: 4
TimelineZoom: 2.5

[Metadata]
Title:Harumachi Clover
TitleUnicode:春待ちクローバー
Artist:Hanasaka Yui(CV: M.A.O)
ArtistUnicode:花坂結衣(CV:M・A・O)
Creator:Djulus
Version:Hard
Source:OneRoom
Tags:Shmiklak marvollo DefendeRDjulus M_a_r_v_o_l_l_o Tarrasky MashaSG tvsize one_room kantoku カントク 市道 真央 いちみち まお
BeatmapID:1269264
BeatmapSetID:600702

[Difficulty]
HPDrainRate:6
CircleSize:4
OverallDifficulty:5.5
ApproachRate:7
SliderMultiplier:1.6
SliderTickRate:1

[Events]
//Background and Video events
0,0,"FVZMjbt.jpg",0,0
//Break Periods
//Storyboard Layer 0 (Background)
//Storyboard Layer 1 (Fail)
//Storyboard Layer 2 (Pass)
//Storyboard Layer 3 (Foreground)
//Storyboard Sound Samples

[TimingPoints]
-348,422.535211267606,4,2,1,35,1,0
1342,-100,4,2,1,80,0,1
1447,-100,4,2,1,80,0,0
3877,-100,4,2,1,80,0,0
4511,-100,4,2,1,80,0,0
13806,-80,4,2,1,80,0,0
14018,-100,4,2,1,80,0,0
14863,-100,4,2,1,80,0,1
14968,-100,4,2,1,80,0,0
27328,-100,4,2,1,80,0,0
30285,-100,4,2,1,5,0,0

[Colours]
Combo1 : 255,255,0
Combo2 : 255,128,192

[HitObjects]
196,296,285,6,0,L|304:292,2,80
92,304,919,1,0,0:0:0:0:
92,304,1130,1,0,0:0:0:0:
32,220,1342,6,0,P|44:164|140:132,1,160,6|8,0:0|0:0,0:0:0:0:
200,216,1975,1,0,0:0:0:0:
280,148,2187,2,0,P|300:184|300:244,1,80,2|0,0:0|0:0,0:0:0:0:
200,216,2609,1,8,0:0:0:0:
244,308,2821,1,0,0:0:0:0:
244,308,2926,1,0,0:0:0:0:
244,308,3032,6,0,P|296:328|344:320,1,80,6|0,0:0|0:0,0:0:0:0:
392,252,3454,1,8,0:0:0:0:
488,280,3666,2,0,P|488:184|432:132,1,160,0|0,0:0|0:0,0:0:0:0:
344,144,4299,2,0,P|352:92|396:52,1,80,8|0,0:0|0:0,0:0:0:0:
447,139,4722,6,0,L|451:235,1,80,6|0,0:0|0:0,0:0:0:0:
344,224,5144,2,0,L|344:140,1,80,8|0,0:0|0:0,0:0:0:0:
284,60,5567,1,2,0:0:0:0:
284,60,5778,1,0,0:0:0:0:
228,148,5990,2,0,L|228:244,1,80,8|0,0:0|0:0,0:0:0:0:
188,324,6412,6,0,P|224:332|276:320,1,80,6|0,0:0|0:0,0:0:0:0:
352,284,6835,1,8,0:0:0:0:
436,332,7046,2,0,P|444:252|384:192,1,160
308,152,7680,2,0,P|296:189|302:229,1,80,8|0,0:0|0:0,0:0:0:0:
316,275,7997,1,0,0:0:0:0:
316,275,8102,6,0,P|320:315|308:367,1,80,6|0,0:0|0:0,0:0:0:0:
216,368,8525,1,8,0:0:0:0:
120,348,8736,1,0,0:0:0:0:
120,348,8947,2,0,P|108:284|124:240,1,80,2|0,0:0|0:0,0:0:0:0:
156,184,9370,1,8,0:0:0:0:
88,116,9581,1,0,0:0:0:0:
88,116,9687,1,0,0:0:0:0:
88,116,9792,6,0,P|156:68|248:80,1,160,6|8,0:0|0:0,0:0:0:0:
328,104,10426,1,0,0:0:0:0:
328,104,10637,2,0,P|359:77|409:60,1,80,2|0,0:0|0:0,0:0:0:0:
468,136,11060,2,0,P|437:163|387:180,1,80,8|0,0:0|0:0,0:0:0:0:
297,200,11482,6,0,P|240:156|232:64,1,160,6|8,0:0|0:0,0:0:0:0:
328,104,12116,1,0,0:0:0:0:
297,200,12328,2,0,L|201:232,1,80,2|0,0:0|0:0,0:0:0:0:
116,236,12750,1,8,0:0:0:0:
36,168,12961,1,0,0:0:0:0:
120,104,13173,6,0,L|220:134,1,80,6|0,0:0|0:0,0:0:0:0:
221,225,13595,2,0,L|305:245,1,80,8|0,0:0|0:0,0:0:0:0:
392,196,14018,2,0,P|403:234|401:274,1,80,2|0,0:0|0:0,0:0:0:0:
324,344,14440,1,8,0:0:0:0:
324,344,14546,1,0,0:0:0:0:
324,344,14652,1,0,0:0:0:0:
298,243,14863,6,0,L|297:141,1,80,6|0,0:0|0:0,0:0:0:0:
204,120,15285,2,0,L|204:216,1,80,8|0,0:0|0:0,0:0:0:0:
204,304,15708,1,2,0:0:0:0:
116,252,15919,1,0,0:0:0:0:
116,252,16130,2,0,L|116:152,1,80,8|0,0:0|0:0,0:0:0:0:
60,84,16553,6,0,B|100:56|140:72|140:72|192:92|228:48,1,160,6|8,0:0|0:0,0:0:0:0:
292,0,17187,2,0,P|312:64|260:156,1,160
176,176,17821,2,0,P|196:212|260:244,1,80,8|0,0:0|0:0,0:0:0:0:
332,240,18243,6,0,L|368:140,1,80,6|0,0:0|0:0,0:0:0:0:
460,136,18666,2,0,L|428:236,1,80,8|0,0:0|0:0,0:0:0:0:
424,316,19088,1,2,0:0:0:0:
424,316,19299,1,0,0:0:0:0:
320,316,19511,2,0,L|220:348,1,80,8|0,0:0|0:0,0:0:0:0:
148,380,19933,6,0,B|136:340|148:304|148:304|164:260|136:212,1,160,6|8,0:0|0:0,0:0:0:0:
40,196,20567,2,0,P|108:124|172:124,1,160
256,172,21201,2,0,L|268:84,1,80,8|0,0:0|0:0,0:0:0:0:
164,121,21623,6,0,L|148:217,1,80,6|0,0:0|0:0,0:0:0:0:
184,300,22046,1,8,0:0:0:0:
284,328,22257,1,0,0:0:0:0:
284,328,22363,1,0,0:0:0:0:
284,328,22468,2,0,P|328:320|368:276,1,80,2|0,0:0|0:0,0:0:0:0:
316,204,22891,1,8,0:0:0:0:
420,188,23102,6,0,P|396:132|284:104,1,160,6|0,0:0|0:0,0:0:0:0:
228,164,23736,1,8,0:0:0:0:
176,76,23947,1,0,0:0:0:0:
92,136,24159,2,0,P|80:92|88:44,2,80,2|0|8,0:0|0:0|0:0,0:0:0:0:
110,236,24792,6,0,P|198:221|223:129,1,160,6|0,0:0|0:0,0:0:0:0:
312,104,25426,2,0,L|316:184,1,80,8|0,0:0|0:0,0:0:0:0:
280,280,25849,2,0,P|320:288|380:268,1,80,2|0,0:0|0:0,0:0:0:0:
460,292,26271,1,8,0:0:0:0:
449,192,26482,6,0,P|397:152|313:188,1,160,6|0,0:0|0:0,0:0:0:0:
280,280,27116,1,8,0:0:0:0:
200,216,27328,1,0,0:0:0:0:
200,216,27433,1,0,0:0:0:0:
200,216,27539,1,2,0:0:0:0:
96,196,27750,1,0,0:0:0:0:
128,296,27961,2,0,L|116:344,3,40,8|0|0|0,0:0|0:0|0:0|0:0,0:0:0:0:
80,372,28384,1,6,0:0:0:0:
256,192,28490,12,0,30285,0:0:0:0:
