osu file format v14

[General]
AudioFilename: audio.mp3
AudioLeadIn: 0
PreviewTime: 188148
Countdown: 0
SampleSet: Soft
StackLeniency: 0.7
Mode: 0
LetterboxInBreaks: 0
EpilepsyWarning: 1
WidescreenStoryboard: 1

[Editor]
DistanceSpacing: 1.4
BeatDivisor: 4
GridSize: 4
TimelineZoom: 1

[Metadata]
Title:Harumachi Clover
TitleUnicode:春待ちクローバー
Artist:Hanasaka Yui(CV: M.A.O)
ArtistUnicode:花坂結衣(CV:M・A・O)
Creator:Deppyforce
Version:Normal
Source:OneRoom
Tags:市道 真央 ichimichi mao 1 one room ending full size version カントク kantoku -_frontier_- kawashiro mkguh shockolatte shmiklak
BeatmapID:1445743
BeatmapSetID:662120

[Difficulty]
HPDrainRate:4
CircleSize:3.5
OverallDifficulty:4
ApproachRate:5
SliderMultiplier:1.2
SliderTickRate:1

[Events]
//Background and Video events
0,0,"clover.png",0,0
//Break Periods
2,86940,99061
//Storyboard Layer 0 (Background)
//Storyboard Layer 1 (Fail)
//Storyboard Layer 2 (Pass)
//Storyboard Layer 3 (Foreground)
//Storyboard Layer 4 (Overlay)
//Storyboard Sound Samples

[TimingPoints]
543,422.535211267606,4,2,1,55,1,0
14064,-100,4,2,1,50,0,0
41106,-100,4,2,1,45,0,0
51247,-100,4,2,1,50,0,0
56317,-90.9090909090909,4,2,1,60,0,1
69733,-100,4,2,1,60,0,0
69838,-90.9090909090909,4,2,1,60,0,1
83359,-100,4,2,1,60,0,0
86740,-100,4,2,1,50,0,0
100261,-100,4,2,1,45,0,0
110402,-100,4,2,1,50,0,0
115472,-90.9090909090909,4,2,1,60,0,1
128888,-100,4,2,1,60,0,0
128993,-90.9090909090909,4,2,1,60,0,1
142514,-100,4,2,1,45,0,0
159416,-100,4,2,1,55,0,0
172937,-100,4,2,1,45,0,0
188148,-100,4,2,1,40,0,0
194909,-90.9090909090909,4,2,1,60,0,1
201564,-100,4,2,1,60,0,0
201669,-90.9090909090909,4,2,1,60,0,1
216669,-100,4,2,1,60,0,0
218571,-90.9090909090909,4,2,1,60,0,1
221951,-100,4,2,1,55,0,0

[Colours]
Combo1 : 117,158,179
Combo2 : 155,197,139
Combo3 : 210,192,138
Combo4 : 198,147,176

[HitObjects]
41,305,331,5,0,0:0:0:0:
41,305,543,2,0,L|163:297,1,120,4|8,0:0|0:0,0:0:0:0:
227,347,1176,2,0,P|244:291|219:238,1,120,0|0,0:0|0:0,0:0:0:0:
139,217,1810,1,10,0:0:0:0:
291,145,2233,2,0,B|438:165|438:165|459:188,1,180,2|0,0:0|0:0,0:0:0:0:
498,262,3078,2,0,P|441:271|391:239,1,120,0|10,0:0|0:0,0:0:0:0:
366,72,3923,6,0,B|247:55,1,120,4|8,0:0|0:0,0:0:0:0:
186,114,4557,2,0,B|67:130,1,120,0|0,0:0|0:0,0:0:0:0:
10,192,5190,1,10,0:0:0:0:
104,331,5613,2,0,P|177:281|203:197,1,180,2|0,0:0|0:0,0:0:0:0:
267,141,6459,2,0,P|326:136|383:155,1,120,8|8,0:3|0:3,0:0:0:0:
440,216,7092,1,10,0:3:0:0:
506,164,7303,6,0,B|516:133|516:133|503:46,2,120,4|8|0,0:0|0:0|0:0,0:0:0:0:
375,269,8571,1,10,0:0:0:0:
267,141,8993,2,0,B|221:122|181:142|181:142|142:162|92:144,1,180,2|0,0:0|0:0,0:0:0:0:
133,70,9838,2,0,P|168:116|169:175,1,120,0|10,0:0|0:0,0:0:0:0:
94,326,10683,5,4,0:0:0:0:
94,326,10895,2,0,L|28:332,2,60,0|8|2,0:0|0:0|0:0,0:0:0:0:
155,268,11528,2,0,L|274:278,1,120,2|10,0:0|0:0,0:0:0:0:
327,342,12162,2,0,P|357:262|300:198,1,180,2|12,0:3|0:3,0:0:0:0:
345,40,13219,1,4,0:3:0:0:
441,179,13641,1,12,0:1:0:0:
272,192,14064,6,0,P|253:137|264:78,1,120,4|8,0:0|0:0,0:0:0:0:
432,64,14909,2,0,P|451:120|441:179,1,120,0|8,0:0|0:0,0:0:0:0:
327,303,15754,2,0,L|208:297,1,120,0|8,0:0|0:0,0:0:0:0:
186,215,16388,2,0,L|67:209,1,120,0|8,0:0|0:0,0:0:0:0:
45,127,17021,1,8,0:0:0:0:
196,53,17444,6,0,P|241:91|299:100,1,120,2|8,0:0|0:0,0:0:0:0:
368,50,18078,1,0,0:0:0:0:
368,50,18289,2,0,P|413:12|471:3,1,120,0|8,0:0|0:0,0:0:0:0:
509,166,19134,2,0,B|479:200|479:200|405:192,1,120,0|8,0:0|0:0,0:0:0:0:
307,329,19979,2,0,B|337:363|337:363|411:355,1,120,0|12,0:0|0:0,0:0:0:0:
373,278,20613,1,4,0:3:0:0:
373,278,20824,6,0,P|324:246|266:255,1,120,2|8,0:0|0:0,0:0:0:0:
134,359,21669,2,0,P|75:367|26:335,1,120,0|8,0:0|0:0,0:0:0:0:
44,168,22514,2,0,B|84:163|84:163|136:223,1,120,0|8,0:0|0:0,0:0:0:0:
188,290,23148,2,0,B|225:274|225:274|240:196,1,120,0|0,0:0|0:0,0:0:0:0:
306,143,23782,1,8,0:0:0:0:
196,15,24204,6,0,P|132:8|79:26,1,120,2|8,0:0|0:0,0:0:0:0:
30,93,24838,1,0,0:0:0:0:
30,93,25050,2,0,P|23:157|41:210,1,120,2|8,0:0|0:0,0:0:0:0:
151,338,25895,2,0,P|215:345|268:327,1,120,2|10,0:0|0:0,0:0:0:0:
317,260,26529,1,2,0:0:0:0:
317,260,26741,2,0,P|324:196|306:143,1,120,0|0,0:0|0:0,0:0:0:0:
450,57,27585,6,0,L|443:183,1,120,4|8,0:0|0:0,0:0:0:0:
492,337,28430,2,0,L|366:331,1,120,0|8,0:0|0:0,0:0:0:0:
227,242,29275,2,0,P|168:242|111:262,1,120,0|8,0:0|0:0,0:0:0:0:
63,331,29909,2,0,P|63:271|43:214,1,120,0|0,0:0|0:0,0:0:0:0:
0,142,30543,1,8,0:0:0:0:
111,16,30965,6,0,L|265:31,1,120,2|8,0:0|0:0,0:0:0:0:
284,91,31599,1,0,0:0:0:0:
284,91,31810,2,0,L|438:76,1,120,0|8,0:0|0:0,0:0:0:0:
504,213,32655,2,0,P|510:272|495:329,1,120,0|8,0:0|0:0,0:0:0:0:
329,305,33500,2,0,P|313:247|320:188,1,120,0|12,0:0|0:3,0:0:0:0:
384,133,34134,1,4,0:3:0:0:
384,133,34345,6,0,B|412:164|412:164|399:241,1,120,2|8,0:0|0:0,0:0:0:0:
236,281,35190,2,0,B|208:250|208:250|220:172,1,120,0|8,0:0|0:0,0:0:0:0:
106,49,36035,2,0,L|114:168,1,120,0|8,0:0|0:0,0:0:0:0:
41,211,36669,2,0,L|49:330,1,120,0|0,0:0|0:0,0:0:0:0:
130,353,37303,1,8,0:0:0:0:
291,306,37726,6,0,P|314:251|291:137,1,180,2|0,0:0|0:0,0:0:0:0:
221,87,38571,2,0,P|206:143|231:197,1,120,2|8,0:0|0:0,0:0:0:0:
398,177,39416,2,0,L|405:57,1,120,2|8,0:0|0:0,0:0:0:0:
488,64,40050,1,2,0:0:0:0:
488,64,40261,2,0,L|481:184,1,120,2|10,0:0|0:0,0:0:0:0:
361,300,41106,6,0,P|448:303|505:370,2,180,4|8|8,0:0|0:3|0:3,0:0:0:0:
199,252,42796,2,0,P|111:254|54:321,2,180,8|8|8,0:3|0:3|0:3,0:0:0:0:
361,203,44486,2,0,P|448:205|505:272,2,180,2|0|8,0:0|0:0|0:3,0:0:0:0:
199,154,46176,2,0,P|111:156|54:223,2,180,8|8|8,0:3|0:3|0:3,0:0:0:0:
353,82,47866,6,0,L|360:202,1,120,2|8,0:0|0:0,0:0:0:0:
400,275,48500,2,0,L|388:82,1,180,2|8,0:0|0:0,0:0:0:0:
229,39,49557,2,0,P|176:66|116:67,1,120,2|8,0:0|0:0,0:0:0:0:
101,149,50190,2,0,P|190:151|270:111,1,180,2|8,0:0|0:0,0:0:0:0:
404,10,51247,6,0,B|426:33|426:33|435:122,1,120,2|8,0:0|0:0,0:0:0:0:
442,204,51881,1,0,0:0:0:0:
442,204,52092,2,0,L|503:199,2,60,2|0|8,0:0|0:0|0:0,0:0:0:0:
305,302,52937,2,0,P|246:288|188:299,1,120,2|8,0:0|0:0,0:0:0:0:
136,365,53571,1,0,0:0:0:0:
136,365,53782,2,0,L|125:242,1,120,2|8,0:0|0:0,0:0:0:0:
52,94,54627,6,0,P|111:108|169:97,1,120,2|10,0:0|0:0,0:0:0:0:
221,31,55261,1,0,0:0:0:0:
298,64,55472,2,0,L|304:123,2,60,2|2|8,0:3|0:3|0:3,0:0:0:0:
365,12,56106,1,8,0:3:0:0:
444,59,56317,6,0,L|436:193,1,132.00000402832,4|8,0:0|0:0,0:0:0:0:
489,368,57162,2,0,P|460:309|402:278,1,132.00000402832,4|8,0:1|0:0,0:0:0:0:
319,320,57796,1,0,0:0:0:0:
319,320,58007,2,0,B|259:347|259:347|127:337,1,198.000006042481,4|0,0:1|0:0,0:0:0:0:
57,276,58852,2,0,P|40:212|56:149,1,132.00000402832,0|8,0:0|0:0,0:0:0:0:
208,44,59697,6,0,L|339:52,1,132.00000402832,2|8,0:0|0:0,0:0:0:0:
461,192,60543,2,0,L|329:200,1,132.00000402832,4|8,0:1|0:0,0:0:0:0:
256,257,61176,1,0,0:0:0:0:
256,257,61388,2,0,B|299:211|286:162|286:162|236:144|194:163,1,198.000006042481,4|0,0:1|0:0,0:0:0:0:
163,249,62233,2,0,P|114:208|104:144,1,132.00000402832,0|8,0:0|0:0,0:0:0:0:
228,7,63078,6,0,L|233:138,2,132.00000402832,2|8|4,0:0|0:0|0:1,0:0:0:0:
384,104,64345,1,8,0:0:0:0:
281,257,64768,2,0,P|226:223|161:223,1,132.00000402832,2|8,0:0|0:0,0:0:0:0:
130,311,65402,1,0,0:0:0:0:
130,311,65613,2,0,P|185:345|250:345,1,132.00000402832,4|8,0:1|0:0,0:0:0:0:
381,213,66458,6,0,B|411:154|411:154|393:89,1,132.00000402832,2|8,0:0|0:0,0:0:0:0:
228,7,67303,2,0,B|198:66|198:66|216:131,1,132.00000402832,4|8,0:1|0:0,0:0:0:0:
307,121,67937,1,0,0:0:0:0:
267,204,68148,2,0,P|208:177|143:178,2,132.00000402832,6|14|6,0:0|0:0|0:0,0:0:0:0:
144,342,69416,1,12,0:3:0:0:
97,262,69627,1,8,0:3:0:0:
48,183,69838,6,0,P|38:129|65:49,1,132.00000402832,4|8,0:0|0:0,0:0:0:0:
243,82,70683,2,0,P|252:146|231:208,1,132.00000402832,4|8,0:1|0:0,0:0:0:0:
145,245,71317,1,0,0:0:0:0:
145,245,71528,2,0,B|187:231|229:240|229:240|251:263|251:263|288:248|330:258,1,198.000006042481,0|0,0:0|0:0,0:0:0:0:
380,336,72373,2,0,L|515:332,1,132.00000402832,0|8,0:0|0:0,0:0:0:0:
512,146,73219,6,0,P|449:128|384:138,1,132.00000402832,2|8,0:0|0:0,0:0:0:0:
220,224,74064,2,0,P|202:286|212:351,1,132.00000402832,4|8,0:1|0:0,0:0:0:0:
299,382,74697,1,0,0:0:0:0:
299,382,74909,2,0,B|343:376|343:376|391:230,1,198.000006042481,0|0,0:0|0:0,0:0:0:0:
385,138,75754,2,0,P|322:120|257:130,1,132.00000402832,4|8,0:1|0:0,0:0:0:0:
83,192,76599,6,0,L|79:326,2,132.00000402832,2|8|12,0:0|0:0|0:1,0:0:0:0:
28,14,77866,1,8,0:0:0:0:
28,14,78078,2,0,P|83:51|148:54,1,132.00000402832,2|0,0:0|0:0,0:0:0:0:
210,123,78712,2,0,P|264:86|329:83,1,132.00000402832,8|4,0:0|0:1,0:0:0:0:
475,196,79557,1,8,0:0:0:0:
392,238,79768,6,0,L|388:369,1,132.00000402832,2|0,0:0|0:0,0:0:0:0:
295,360,80402,2,0,L|291:228,1,132.00000402832,8|4,0:0|0:1,0:0:0:0:
256,44,81247,1,8,0:0:0:0:
210,123,81458,2,0,B|114:107|114:107|80:125,1,132.00000402832,2|0,0:0|0:0,0:0:0:0:
71,215,82092,2,0,B|167:199|167:199|201:217,1,132.00000402832,8|0,0:0|0:0,0:0:0:0:
329,83,82937,1,10,0:3:0:0:
471,172,83359,6,0,P|415:150|358:163,1,120,6|8,0:0|0:0,0:0:0:0:
313,235,83993,2,0,L|316:296,2,60,2|0|8,0:0|0:0|0:0,0:0:0:0:
273,160,84627,1,2,0:0:0:0:
117,223,85050,1,8,0:0:0:0:
117,223,85261,2,0,P|134:151|126:99,1,120,2|8,0:0|0:0,0:0:0:0:
74,40,85895,1,2,0:0:0:0:
241,33,86317,1,2,0:0:0:0:
408,26,86740,5,4,0:0:0:0:
442,338,100261,6,0,B|492:307|492:307|512:185,2,180,4|8|8,0:0|0:3|0:3,0:0:0:0:
341,202,101951,2,0,B|391:171|391:171|411:49,2,180,8|8|8,0:3|0:3|0:3,0:0:0:0:
171,202,103641,2,0,B|121:171|121:171|101:51,2,180,2|0|8,0:0|0:0|0:3,0:0:0:0:
70,338,105331,2,0,B|20:307|20:307|0:187,2,180,8|8|8,0:3|0:3|0:3,0:0:0:0:
234,375,107021,6,0,P|260:322|256:263,1,120,2|8,0:0|0:0,0:0:0:0:
207,191,107655,2,0,P|265:257|353:265,1,180,2|8,0:0|0:0,0:0:0:0:
507,196,108712,2,0,B|520:164|520:164|512:78,1,120,2|8,0:0|0:0,0:0:0:0:
476,3,109345,2,0,B|439:19|439:19|299:15,1,180,2|8,0:0|0:0,0:0:0:0:
131,32,110402,6,0,P|119:90|135:147,1,120,2|8,0:0|0:0,0:0:0:0:
208,192,111035,1,0,0:0:0:0:
208,192,111247,2,0,L|267:189,2,60,2|0|8,0:0|0:0|0:0,0:0:0:0:
152,350,112092,2,0,L|271:356,1,120,2|8,0:0|0:0,0:0:0:0:
335,301,112726,1,0,0:0:0:0:
335,301,112937,2,0,L|454:294,1,120,2|8,0:0|0:0,0:0:0:0:
436,125,113782,6,0,P|377:111|319:122,1,120,2|10,0:0|0:0,0:0:0:0:
267,188,114416,1,0,0:0:0:0:
190,155,114627,2,0,L|184:96,2,60,2|2|8,0:3|0:3|0:3,0:0:0:0:
123,207,115261,1,8,0:3:0:0:
44,158,115472,6,0,B|31:92|31:92|50:30,1,132.00000402832,4|8,0:0|0:0,0:0:0:0:
234,49,116317,2,0,B|247:115|247:115|227:176,1,132.00000402832,4|8,0:1|0:0,0:0:0:0:
256,264,116951,1,0,0:0:0:0:
256,264,117162,2,0,P|341:219|432:250,1,198.000006042481,0|0,0:0|0:0,0:0:0:0:
416,341,118007,2,0,P|355:364|291:349,1,132.00000402832,0|8,0:0|0:0,0:0:0:0:
153,226,118852,6,0,L|21:241,1,132.00000402832,0|8,0:0|0:0,0:0:0:0:
13,56,119697,2,0,L|144:71,1,132.00000402832,4|8,0:1|0:0,0:0:0:0:
234,49,120331,1,0,0:0:0:0:
234,49,120543,2,0,B|286:100|356:73|356:73|385:49|391:18,1,198.000006042481,0|0,0:0|0:0,0:0:0:0:
475,58,121388,2,0,P|498:118|482:181,1,132.00000402832,0|8,0:0|0:0,0:0:0:0:
333,290,122233,6,0,B|300:276|300:276|204:290,2,132.00000402832,2|8|4,0:0|0:0|0:1,0:0:0:0:
501,366,123500,1,8,0:0:0:0:
481,181,123923,2,0,P|417:190|358:163,1,132.00000402832,2|8,0:0|0:0,0:0:0:0:
337,73,124557,1,0,0:0:0:0:
337,73,124768,2,0,P|277:45|213:55,1,132.00000402832,4|8,0:1|0:0,0:0:0:0:
74,176,125613,6,0,B|44:235|44:235|62:300,1,132.00000402832,2|8,0:0|0:0,0:0:0:0:
240,355,126458,2,0,B|270:296|270:296|252:231,1,132.00000402832,4|8,0:1|0:0,0:0:0:0:
220,145,127092,1,0,0:0:0:0:
312,161,127303,2,0,L|445:153,2,132.00000402832,6|6|6,0:0|0:0|0:0,0:0:0:0:
229,326,128571,1,4,0:3:0:0:
136,320,128782,1,8,0:3:0:0:
42,313,128993,6,0,P|29:250|51:188,1,132.00000402832,4|8,0:0|0:0,0:0:0:0:
237,200,129838,2,0,P|250:264|229:326,1,132.00000402832,4|8,0:1|0:0,0:0:0:0:
304,379,130472,1,0,0:0:0:0:
304,379,130683,2,0,B|452:368|452:368|414:335,1,198.000006042481,0|0,0:0|0:0,0:0:0:0:
333,290,131528,2,0,B|323:225|323:225|347:163,1,132.00000402832,0|8,0:0|0:0,0:0:0:0:
496,55,132373,6,0,L|364:50,1,132.00000402832,2|8,0:0|0:0,0:0:0:0:
215,167,133219,2,0,L|346:162,1,132.00000402832,4|8,0:1|0:0,0:0:0:0:
411,228,133852,1,0,0:0:0:0:
411,228,134064,2,0,B|390:254|389:292|389:292|331:260|264:279,1,198.000006042481,0|0,0:0|0:0,0:0:0:0:
188,333,134909,2,0,B|122:346|122:346|61:323,1,132.00000402832,4|8,0:1|0:0,0:0:0:0:
5,146,135754,6,0,P|-5:82|25:25,2,132.00000402832,2|8|12,0:0|0:0|0:1,0:0:0:0:
183,191,137021,1,8,0:0:0:0:
183,191,137233,2,0,L|315:183,1,132.00000402832,0|0,0:0|0:0,0:0:0:0:
304,92,137866,2,0,L|172:100,1,132.00000402832,8|4,0:0|0:1,0:0:0:0:
115,276,138712,1,8,0:0:0:0:
188,332,138923,6,0,P|238:291|302:278,1,132.00000402832,2|0,0:0|0:0,0:0:0:0:
390,307,139557,2,0,P|431:256|444:192,1,132.00000402832,8|4,0:0|0:1,0:0:0:0:
392,14,140402,1,8,0:0:0:0:
329,81,140613,2,0,B|265:99|265:99|198:85,1,132.00000402832,2|0,0:0|0:0,0:0:0:0:
139,16,141247,2,0,B|75:-2|75:-2|10:11,1,132.00000402832,8|4,0:0|0:1,0:0:0:0:
82,181,142092,1,10,0:3:0:0:
82,181,142303,1,8,0:3:0:0:
82,181,142514,6,0,L|141:178,1,60,4|2,0:0|0:0,0:0:0:0:
299,236,143148,1,4,0:3:0:0:
271,70,143571,1,8,0:3:0:0:
141,177,143993,2,0,B|213:146|286:183|286:183|354:214|432:187,1,300,4|0,0:1|0:0,0:0:0:0:
485,122,145260,1,0,0:0:0:0:
485,122,145472,1,2,0:0:0:0:
441,284,145895,6,0,L|382:281,1,60,2|2,0:0|0:0,0:0:0:0:
232,362,146529,1,4,0:3:0:0:
235,188,146952,1,8,0:3:0:0:
381,280,147374,2,0,B|306:302|306:302|188:257|188:257,1,180,4|0,0:1|0:0,0:0:0:0:
142,315,148219,2,0,L|146:380,2,60,0|0|0,0:0|0:0|0:0,0:0:0:0:
59,331,148853,1,4,0:1:0:0:
27,167,149275,6,0,L|86:164,1,60,2|2,0:0|0:0,0:0:0:0:
236,245,149909,1,4,0:3:0:0:
233,71,150332,1,8,0:3:0:0:
385,154,150754,2,0,P|499:118|392:64,1,300,4|4,1:0|1:0,0:0:0:0:
321,101,152021,1,0,0:0:0:0:
321,101,152233,1,0,0:0:0:0:
339,268,152655,6,0,P|421:301|509:288,2,180,2|2|10,0:0|0:0|0:0,0:0:0:0:
194,354,154345,2,0,L|74:350,1,120,2|10,0:0|0:0,0:0:0:0:
76,181,155190,2,0,L|195:177,1,120,2|10,0:0|0:0,0:0:0:0:
256,118,155824,1,0,0:0:0:0:
255,118,156035,6,0,P|244:176|260:233,1,120,6|8,0:0|0:0,0:0:0:0:
414,300,156881,2,0,L|475:298,2,60,2|8|8,0:3|0:3|0:3,0:0:0:0:
343,344,157514,2,0,P|383:265|372:177,1,180,6|0,0:0|0:0,0:0:0:0:
280,36,158571,2,0,L|217:39,2,60,0|0|0,0:0|0:0|0:0,0:0:0:0:
429,113,159416,6,0,P|446:56|429:0,2,120,4|8|0,0:0|0:0|0:0,0:0:0:0:
372,177,160472,2,0,L|379:241,2,60,0|8|0,0:0|0:0|0:0,0:0:0:0:
289,160,161106,1,0,0:0:0:0:
131,219,161528,2,0,P|74:203|15:212,1,120,8|0,0:0|0:0,0:0:0:0:
66,372,162373,1,8,0:0:0:0:
66,372,162585,1,0,0:0:0:0:
66,372,162796,6,0,L|185:364,1,120,0|8,0:0|0:0,0:0:0:0:
323,266,163642,2,0,L|204:258,1,120,0|8,0:0|0:0,0:0:0:0:
131,219,164275,1,0,0:0:0:0:
131,219,164486,2,0,P|189:211|234:173,1,120,0|8,0:0|0:0,0:0:0:0:
251,89,165120,2,0,P|190:24|103:10,1,180,0|8,0:0|0:0,0:0:0:0:
48,169,166176,6,0,B|39:229|39:229|54:286,2,120,6|8|8,0:0|0:0|0:0,0:0:0:0:
199,95,167444,1,8,0:0:0:0:
234,172,167655,2,0,B|279:139|279:139|402:152,1,180,2|8,0:0|0:0,0:0:0:0:
445,315,168712,2,0,B|389:332|389:332|328:319,1,120,0|8,0:0|0:0,0:0:0:0:
262,268,169345,6,0,P|174:258|100:306,1,180,6|8,0:0|0:0,0:0:0:0:
11,163,170402,2,0,P|-7:106|0:48,1,120,0|8,0:0|0:0,0:0:0:0:
70,0,171035,2,0,L|249:11,1,180,2|8,0:0|0:0,0:0:0:0:
261,180,172092,2,0,L|406:177,1,120,0|10,0:0|0:0,0:0:0:0:
461,151,172726,1,2,0:0:0:0:
443,233,172937,6,0,B|444:265|459:291|459:291|394:313|385:376,2,180,6|8|8,0:0|0:3|0:3,0:0:0:0:
291,306,174627,2,0,B|259:307|233:322|233:322|211:257|147:248,2,180,8|8|8,0:3|0:3|0:3,0:0:0:0:
218,154,176317,2,0,B|217:122|202:96|202:96|267:74|275:10,2,180,2|0|8,0:0|0:0|0:3,0:0:0:0:
370,81,178007,2,0,B|402:80|428:65|428:65|450:130|513:138,2,180,8|8|8,0:3|0:3|0:3,0:0:0:0:
218,154,179697,6,0,P|236:210|229:269,1,120,2|8,0:0|0:0,0:0:0:0:
152,305,180331,2,0,P|111:226|134:141,1,180,2|8,0:0|0:0,0:0:0:0:
270,39,181388,2,0,L|390:43,1,120,2|8,0:0|0:0,0:0:0:0:
411,124,182021,2,0,L|231:129,1,180,2|8,0:0|0:0,0:0:0:0:
102,238,183078,6,0,B|82:296|82:296|101:356,1,120,2|8,0:0|0:0,0:0:0:0:
183,377,183712,1,0,0:0:0:0:
183,377,183923,2,0,L|254:376,2,60,2|0|8,0:0|0:0|0:0,0:0:0:0:
275,236,184768,2,0,P|332:222|391:230,1,120,2|8,0:0|0:0,0:0:0:0:
472,266,185402,1,0,0:0:0:0:
472,266,185613,2,0,P|485:208|476:150,1,120,2|8,0:0|0:0,0:0:0:0:
347,36,186458,6,0,B|291:60|291:60|233:55,1,120,2|10,0:0|0:0,0:0:0:0:
153,29,187092,1,0,0:0:0:0:
77,66,187303,2,0,L|19:42,2,60,2|2|8,0:3|0:3|0:3,0:0:0:0:
68,149,187937,1,8,0:3:0:0:
139,192,188148,5,4,0:0:0:0:
139,192,189416,2,0,L|265:184,1,120,4|2,0:1|0:0,0:0:0:0:
258,184,191528,5,2,0:0:0:0:
258,184,192796,2,0,L|384:176,1,120,4|2,0:1|0:0,0:0:0:0:
483,307,193641,2,0,L|486:246,2,60,4|8|10,0:1|0:0|0:3,0:0:0:0:
413,355,194276,1,2,0:3:0:0:
361,289,194486,2,0,P|331:288|302:297,1,60,8|8,0:3|0:3,0:0:0:0:
210,287,194909,6,0,P|148:307|85:290,2,132.00000402832,4|8|0,0:0|0:0|0:0,0:0:0:0:
282,117,196176,1,8,0:0:0:0:
452,189,196599,2,0,L|447:320,1,132.00000402832,0|8,0:0|0:0,0:0:0:0:
355,308,197233,1,0,0:0:0:0:
355,308,197444,2,0,L|360:177,1,132.00000402832,4|8,0:1|0:0,0:0:0:0:
230,42,198289,6,0,P|166:30|105:51,1,132.00000402832,0|8,0:0|0:0,0:0:0:0:
93,236,199134,2,0,P|157:248|218:227,1,132.00000402832,4|8,0:1|0:0,0:0:0:0:
271,151,199768,1,0,0:0:0:0:
360,176,199979,2,0,B|375:216|375:216|356:306,2,132.00000402832,6|14|6,0:0|0:0|0:0,0:0:0:0:
442,9,201247,1,12,0:3:0:0:
350,21,201458,1,8,0:3:0:0:
258,34,201669,6,0,P|247:98|266:161,1,132.00000402832,4|8,0:0|0:0,0:0:0:0:
450,139,202514,2,0,P|468:201|458:266,1,132.00000402832,4|8,0:1|0:0,0:0:0:0:
391,330,203149,1,0,0:0:0:0:
391,330,203359,2,0,B|322:295|263:322|263:322|246:352|214:364,1,198.000006042481,0|0,0:0|0:0,0:0:0:0:
126,335,204204,2,0,B|101:299|101:299|105:210,1,132.00000402832,0|8,0:0|0:0,0:0:0:0:
117,25,205050,6,0,L|249:21,1,132.00000402832,0|8,0:0|0:0,0:0:0:0:
304,197,205895,2,0,L|436:193,1,132.00000402832,4|8,0:1|0:0,0:0:0:0:
445,101,206528,1,0,0:0:0:0:
445,101,206740,2,0,P|383:80|318:92,1,132.00000402832,0|8,0:0|0:0,0:0:0:0:
236,134,207373,1,0,0:0:0:0:
215,224,207585,2,0,P|215:256|222:289,2,66.0000020141602,0|0|8,0:0|0:0|0:0,0:0:0:0:
51,139,208430,6,0,L|46:270,2,132.00000402832,2|8|12,0:0|0:0|0:1,0:0:0:0:
215,224,209697,1,8,0:0:0:0:
215,224,209909,2,0,P|279:232|342:214,1,132.00000402832,2|0,0:0|0:0,0:0:0:0:
336,121,210543,2,0,P|271:112|208:130,1,132.00000402832,8|4,0:0|0:1,0:0:0:0:
150,306,211388,1,8,0:0:0:0:
222,363,211599,6,0,L|353:357,1,132.00000402832,2|0,0:0|0:0,0:0:0:0:
446,367,212233,2,0,L|440:235,1,132.00000402832,8|4,0:0|0:1,0:0:0:0:
503,61,213078,1,8,0:0:0:0:
414,33,213289,2,0,B|374:54|374:54|288:44,1,132.00000402832,2|0,0:0|0:0,0:0:0:0:
200,76,213923,2,0,B|221:116|221:116|211:202,1,132.00000402832,8|0,0:0|0:0,0:0:0:0:
42,280,214768,1,8,0:0:0:0:
42,280,214979,1,0,0:0:0:0:
42,280,215190,6,0,P|25:217|37:153,1,132.00000402832,4|8,0:0|0:0,0:0:0:0:
200,76,216035,2,0,P|235:71|266:74,1,66.0000020141602
351,108,216457,1,8,0:0:0:0:
434,68,216669,1,6,0:0:0:0:
115,315,218570,6,0,P|171:293|228:306,1,120,6|8,0:0|0:0,0:0:0:0:
319,290,219204,2,0,L|326:365,2,66.0000020141602,2|0|8,0:0|0:0|0:0,0:0:0:0:
260,218,219838,1,2,0:0:0:0:
130,349,220261,1,8,0:0:0:0:
130,349,220472,2,0,P|64:350|2:329,1,132.00000402832,2|8,0:0|0:0,0:0:0:0:
0,237,221106,1,2,0:0:0:0:
175,178,221528,1,2,0:0:0:0:
41,79,221951,6,0,L|163:87,1,120,4|8,0:0|0:0,0:0:0:0:
227,37,222584,2,0,P|244:93|219:146,1,120,0|0,0:0|0:0,0:0:0:0:
139,167,223218,1,10,0:0:0:0:
291,239,223641,2,0,B|438:219|438:219|459:196,1,180,2|0,0:0|0:0,0:0:0:0:
498,122,224486,2,0,P|441:113|391:145,1,120,0|10,0:0|0:0,0:0:0:0:
366,312,225331,6,0,B|247:329,1,120,4|8,0:0|0:0,0:0:0:0:
186,270,225965,2,0,B|67:254,1,120,0|0,0:0|0:0,0:0:0:0:
10,192,226598,1,10,0:0:0:0:
104,53,227021,2,0,P|177:103|203:187,1,180,2|0,0:0|0:0,0:0:0:0:
267,243,227867,2,0,P|326:248|383:229,1,120,8|8,0:3|0:3,0:0:0:0:
440,168,228500,1,10,0:3:0:0:
506,220,228711,6,0,B|516:251|516:251|503:338,2,120,4|8|0,0:0|0:0|0:0,0:0:0:0:
375,115,229979,1,10,0:0:0:0:
267,243,230401,2,0,B|221:262|181:242|181:242|142:222|92:240,1,180,2|0,0:0|0:0,0:0:0:0:
133,314,231246,2,0,P|168:268|169:209,1,120,0|10,0:0|0:0,0:0:0:0:
94,58,232091,5,4,0:0:0:0:
94,58,232303,2,0,L|28:52,2,60,0|8|2,0:0|0:0|0:0,0:0:0:0:
155,116,232936,2,0,L|274:106,1,120,0|10,0:0|0:0,0:0:0:0:
327,42,233570,2,0,P|357:122|300:186,1,180,2|4,0:3|0:3,0:0:0:0:
345,344,234627,1,4,0:3:0:0:
441,205,235049,1,4,0:1:0:0:
512,359,235472,5,4,0:0:0:0:
256,192,235683,12,0,238852,0:0:0:0:
