osu file format v14

[General]
AudioFilename: audio.mp3
AudioLeadIn: 0
PreviewTime: 188148
Countdown: 0
SampleSet: Soft
StackLeniency: 0.3
Mode: 0
LetterboxInBreaks: 0
EpilepsyWarning: 1
WidescreenStoryboard: 1

[Editor]
DistanceSpacing: 1.5
BeatDivisor: 16
GridSize: 32
TimelineZoom: 2.1

[Metadata]
Title:Harumachi Clover
TitleUnicode:春待ちクローバー
Artist:Hanasaka Yui(CV: M.A.O)
ArtistUnicode:花坂結衣(CV:M・A・O)
Creator:Deppyforce
Version:Frontier's Hard
Source:OneRoom
Tags:市道 真央 ichimichi mao 1 one room ending full size version カントク kantoku -_frontier_- kawashiro mkguh shockolatte shmiklak
BeatmapID:1422575
BeatmapSetID:662120

[Difficulty]
HPDrainRate:5
CircleSize:3.8
OverallDifficulty:5
ApproachRate:7
SliderMultiplier:1.5
SliderTickRate:1

[Events]
//Background and Video events
0,0,"clover.png",0,0
//Break Periods
//Storyboard Layer 0 (Background)
//Storyboard Layer 1 (Fail)
//Storyboard Layer 2 (Pass)
//Storyboard Layer 3 (Foreground)
//Storyboard Sound Samples

[TimingPoints]
543,422.535211267606,4,2,1,55,1,0
56317,-100,4,2,1,60,0,1
83359,-100,4,2,1,60,0,0
86740,-100,4,2,1,50,0,0
100261,-100,4,2,1,45,0,0
110402,-100,4,2,1,50,0,0
115472,-100,4,2,1,60,0,1
142514,-100,4,2,1,45,0,0
143993,-133.333333333333,4,2,1,45,0,0
145895,-100,4,2,1,45,0,0
147373,-133.333333333333,4,2,1,45,0,0
148852,-100,4,2,1,45,0,0
149275,-100,4,2,1,45,0,0
150754,-133.333333333333,4,2,1,45,0,0
151810,-114.285714285714,4,2,1,45,0,0
152655,-100,4,2,1,45,0,0
159416,-100,4,2,1,55,0,0
172937,-100,4,2,1,45,0,0
188148,-100,4,2,1,40,0,0
194909,-100,4,2,1,60,0,1
221951,-100,4,2,1,55,0,0
238852,-100,4,2,1,55,0,0

[Colours]
Combo1 : 117,158,179
Combo2 : 155,197,139
Combo3 : 210,192,138
Combo4 : 198,147,176

[HitObjects]
64,96,331,5,0,0:0:0:0:
69,87,437,1,0,0:0:0:0:
74,78,543,6,0,L|81:227,1,150,4|8,0:0|0:0,0:0:0:0:
175,288,1176,2,0,B|253:305|244:253|320:271,1,150,0|0,0:0|0:0,0:0:0:0:
419,324,1810,2,0,P|432:282|429:245,1,75,10|0,0:0|0:0,0:0:0:0:
357,165,2233,2,0,P|328:97|350:27,1,150,2|8,0:0|0:0,0:0:0:0:
461,6,2866,2,0,P|490:74|468:144,1,150,0|0,0:0|0:0,0:0:0:0:
430,251,3500,2,0,L|355:247,1,75,10|0,0:0|0:0,0:0:0:0:
258,308,3923,6,0,P|307:253|296:181,1,150,4|8,0:0|0:0,0:0:0:0:
202,118,4557,2,0,B|111:111|111:111|58:136,1,150,0|0,0:0|0:0,0:0:0:0:
16,241,5190,2,0,B|21:315,1,75,10|0,0:0|0:0,0:0:0:0:
127,354,5613,2,0,P|185:308|259:308,1,150,2|8,0:0|0:0,0:0:0:0:
357,364,6247,2,0,B|431:358,1,75,0|8,0:0|0:3,0:0:0:0:
499,268,6669,5,2,0:0:0:0:
388,255,6881,1,8,0:3:0:0:
454,165,7092,1,10,0:3:0:0:
454,165,7197,1,0,0:0:0:0:
454,165,7303,6,0,P|486:99|467:28,1,150,4|8,0:0|0:0,0:0:0:0:
355,45,7937,2,0,B|205:56,1,150,0|0,0:0|0:0,0:0:0:0:
97,88,8571,2,0,B|91:123|91:123|98:161,1,75,10|0,0:0|0:0,0:0:0:0:
93,274,8993,2,0,P|147:225|220:226,1,150,2|8,0:0|0:0,0:0:0:0:
323,273,9627,2,0,B|370:287|370:287|470:273,1,150,0|0,0:0|0:0,0:0:0:0:
507,180,10261,2,0,P|516:143|513:106,1,75,10|0,0:0|0:0,0:0:0:0:
422,39,10683,6,0,B|412:114,2,75,4|0|8,0:0|0:0|0:0,0:0:0:0:
310,56,11317,1,2,0:0:0:0:
199,74,11528,2,0,B|209:-1,2,75,2|0|10,0:0|0:0|0:0,0:0:0:0:
280,139,12162,6,0,P|316:202|299:274,1,150,2|2,0:3|0:3,0:0:0:0:
291,286,12690,1,4,0:1:0:0:
283,298,12796,2,0,B|285:372,1,75,12|0,0:3|0:0,0:0:0:0:
300,378,13113,1,4,0:1:0:0:
315,384,13219,2,0,B|389:381,2,75,4|8|12,0:3|0:3|0:1,0:0:0:0:
210,343,13852,1,12,0:1:0:0:
99,367,14064,6,0,P|48:314|49:241,1,150,4|8,0:0|0:0,0:0:0:0:
130,164,14697,1,0,0:0:0:0:
157,272,14909,2,0,B|306:266,1,150,0|8,0:0|0:0,0:0:0:0:
412,305,15543,2,0,P|441:238|415:170,1,150,0|0,0:0|0:0,0:0:0:0:
498,93,16176,1,8,0:0:0:0:
390,60,16388,2,0,P|356:74|328:98,1,75,0|0,0:0|0:0,0:0:0:0:
309,210,16810,2,0,B|234:212,2,75,8|8|0,0:0|0:0|0:0,0:0:0:0:
328,99,17444,6,0,B|178:104,1,150,2|8,0:0|0:0,0:0:0:0:
71,73,18078,2,0,P|67:147|111:206,1,150,0|0,0:0|0:0,0:0:0:0:
58,305,18712,2,0,P|93:317|130:315,1,75,8|0,0:0|0:0,0:0:0:0:
215,245,19134,2,0,P|252:243|287:255,2,75,0|0|8,0:0|0:0|0:0,0:0:0:0:
233,352,19768,2,0,B|382:346,1,150,0|8,0:0|0:0,0:0:0:0:
460,263,20402,2,0,P|461:225|449:190,1,75,12|4,0:0|0:3,0:0:0:0:
498,93,20824,6,0,P|447:146|374:147,1,150,2|8,0:0|0:0,0:0:0:0:
278,88,21458,1,0,0:0:0:0:
274,201,21669,2,0,B|219:206|219:206|178:196|178:196|125:201,1,150,0|8,0:0|0:0,0:0:0:0:
29,142,22303,2,0,P|78:195|73:267,1,150,0|0,0:0|0:0,0:0:0:0:
1,355,22937,1,8,0:0:0:0:
113,373,23148,2,0,B|187:370,1,75,0|0,0:0|0:0,0:0:0:0:
282,308,23571,2,0,B|356:311,2,75,0|8|0,0:0|0:0|0:0,0:0:0:0:
181,257,24204,6,0,B|106:260,2,75,2|0|8,0:0|0:0|0:0,0:0:0:0:
275,195,24838,1,0,0:0:0:0:
375,244,25050,2,0,P|412:252|448:243,1,75,2|0,0:0|0:0,0:0:0:0:
441,131,25472,2,0,P|404:123|369:133,1,75,8|0,0:0|0:0,0:0:0:0:
275,195,25895,2,0,B|200:198,2,75,2|0|10,0:0|0:0|0:0,0:0:0:0:
267,82,26528,1,2,0:0:0:0:
165,32,26740,2,0,B|90:35,1,75,0|2,0:0|0:0,0:0:0:0:
13,117,27162,2,0,P|10:154|15:191,1,75,6|4,0:3|0:3,0:0:0:0:
105,258,27585,6,0,P|175:280|240:247,1,150,4|8,0:0|0:0,0:0:0:0:
310,158,28219,1,0,0:0:0:0:
353,263,28430,2,0,L|502:256,1,150,0|8,0:0|0:0,0:0:0:0:
459,151,29064,2,0,L|310:158,1,150,0|0,0:0|0:0,0:0:0:0:
240,247,29697,1,8,0:0:0:0:
197,142,29909,2,0,B|188:107|188:107|191:68,1,75,0|0,0:0|0:0,0:0:0:0:
288,11,30331,2,0,B|326:7|326:7|361:16,2,75,0|8|0,0:0|0:0|0:0,0:0:0:0:
191,68,30965,6,0,B|106:60|106:60|43:76,1,150,2|8,0:0|0:0,0:0:0:0:
20,187,31599,2,0,B|104:194|104:194|167:178,1,150,0|0,0:0|0:0,0:0:0:0:
274,145,32233,2,0,P|311:139|348:146,1,75,8|0,0:0|0:0,0:0:0:0:
322,255,32655,2,0,P|285:261|249:254,2,75,0|0|8,0:0|0:0|0:0,0:0:0:0:
429,222,33289,2,0,P|396:286|414:361,1,150,0|0,0:0|0:0,0:0:0:0:
509,301,33923,2,0,L|515:226,1,75,12|4,0:3|0:3,0:0:0:0:
480,119,34345,6,0,L|330:131,1,150,2|8,0:0|0:0,0:0:0:0:
256,217,34979,1,0,0:0:0:0:
145,195,35190,2,0,P|123:125|145:55,1,150,0|8,0:0|0:0,0:0:0:0:
253,24,35824,2,0,L|402:36,1,150,0|0,0:0|0:0,0:0:0:0:
480,119,36458,1,8,0:0:0:0:
448,228,36669,2,0,L|373:221,1,75,0|0,0:0|0:0,0:0:0:0:
297,137,37092,2,0,P|259:134|225:148,2,75,0|8|0,0:0|0:0|0:0,0:0:0:0:
373,221,37726,6,0,P|406:285|384:355,1,150,2|8,0:0|0:0,0:0:0:0:
275,380,38359,1,0,0:0:0:0:
200,298,38571,2,0,L|206:223,1,75,2|0,0:0|0:0,0:0:0:0:
296,155,38993,2,0,L|289:80,1,75,8|0,0:0|0:0,0:0:0:0:
194,19,39416,2,0,P|156:15|121:27,2,75,2|0|8,0:0|0:0|0:0,0:0:0:0:
289,80,40050,1,2,0:0:0:0:
389,28,40261,2,0,P|426:24|461:36,1,75,2|0,0:0|0:0,0:0:0:0:
502,141,40683,1,10,0:0:0:0:
501,159,40789,1,0,0:0:0:0:
500,178,40895,1,0,0:0:0:0:
499,197,41000,1,0,0:0:0:0:
498,216,41106,6,0,P|429:192|388:130,1,150,4|8,0:0|0:0,0:0:0:0:
289,80,41740,2,0,P|303:152|270:217,1,150,8|0,0:3|0:0,0:0:0:0:
275,328,42373,2,0,P|298:299|330:280,1,75,8|0,0:3|0:0,0:0:0:0:
438,247,42796,2,0,P|495:201|502:128,1,150,8|8,0:3|0:0,0:0:0:0:
431,41,43430,1,8,0:3:0:0:
318,58,43641,2,0,B|263:63|263:63|222:53|222:53|169:58,1,150,0|8,0:0|0:3,0:0:0:0:
61,28,44275,1,0,0:0:0:0:
89,135,44486,6,0,P|63:205|86:275,1,150,2|8,0:0|0:0,0:0:0:0:
200,298,45120,2,0,P|272:285|321:230,1,150,0|0,0:0|0:0,0:0:0:0:
284,120,45754,2,0,P|265:87|236:63,1,75,8|0,0:3|0:0,0:0:0:0:
127,31,46176,2,0,B|52:38,1,75,8|0,0:3|0:0,0:0:0:0:
10,157,46599,1,8,0:0:0:0:
134,134,46810,2,0,B|282:119,1,150,8|0,0:3|0:0,0:0:0:0:
360,37,47444,1,8,0:3:0:0:
360,37,47550,1,0,0:0:0:0:
360,37,47655,1,0,0:0:0:0:
392,144,47866,6,0,P|435:205|433:279,1,150,2|8,0:0|0:0,0:0:0:0:
341,345,48500,2,0,B|263:362|272:310|196:328,1,150,2|0,0:0|0:0,0:0:0:0:
92,373,49134,2,0,P|54:378|17:372,1,75,8|0,0:0|0:0,0:0:0:0:
29,257,49557,2,0,P|67:253|104:259,1,75,2|0,0:0|0:0,0:0:0:0:
196,328,49979,1,8,0:0:0:0:
302,283,50190,2,0,B|287:134,1,150,2|0,0:0|0:0,0:0:0:0:
192,73,50824,2,0,P|155:66|118:72,1,75,8|0,0:0|0:0,0:0:0:0:
50,163,51247,6,0,P|114:200|186:185,1,150,2|8,0:0|0:0,0:0:0:0:
287,133,51881,1,0,0:0:0:0:
382,193,52092,2,0,L|374:267,1,75,2|0,0:0|0:0,0:0:0:0:
294,346,52514,2,0,P|257:352|220:343,1,75,8|0,0:0|0:0,0:0:0:0:
141,263,52937,6,0,P|113:194|128:121,1,150,2|8,0:0|0:0,0:0:0:0:
200,34,53571,1,0,0:0:0:0:
239,139,53782,2,0,P|276:147|313:141,1,75,2|0,0:0|0:0,0:0:0:0:
377,49,54204,2,0,P|413:43|450:50,1,75,8|0,0:0|0:0,0:0:0:0:
488,156,54627,6,0,L|480:230,1,75,2|0,0:0|0:0,0:0:0:0:
373,267,55050,2,0,L|299:259,1,75,10|0,0:0|0:0,0:0:0:0:
196,210,55472,2,0,B|158:207|158:207|122:218,2,75,2|2|8,0:3|0:3|0:3,0:0:0:0:
204,323,56106,1,8,0:3:0:0:
299,259,56317,6,0,B|310:223|310:223|307:185,1,75,4|0,0:0|0:0,0:0:0:0:
230,102,56740,2,0,B|227:64|227:64|238:28,1,75,8|0,0:0|0:0,0:0:0:0:
340,77,57162,1,4,0:1:0:0:
451,52,57373,1,4,0:1:0:0:
340,77,57585,1,8,0:0:0:0:
451,52,57796,1,0,0:0:0:0:
417,158,58007,6,0,P|407:194|411:231,1,75,4|0,0:1|0:0,0:0:0:0:
474,325,58430,1,8,0:0:0:0:
362,332,58641,2,0,B|284:349|293:297|217:315,1,150,0|0,0:0|0:0,0:0:0:0:
115,365,59275,2,0,P|77:367|42:355,1,75,8|0,0:0|0:0,0:0:0:0:
5,249,59697,6,0,L|11:174,1,75,2|0,0:0|0:0,0:0:0:0:
122,195,60120,2,0,L|115:120,1,75,8|0,0:0|0:0,0:0:0:0:
227,121,60543,1,4,0:1:0:0:
197,12,60754,1,4,0:1:0:0:
227,121,60965,1,8,0:0:0:0:
197,12,61176,1,0,0:0:0:0:
306,40,61388,6,0,B|341:51|341:51|387:46,1,75,4|0,0:1|0:0,0:0:0:0:
481,1,61810,1,8,0:0:0:0:
469,110,62021,2,0,P|424:168|432:241,1,150,0|0,0:0|0:0,0:0:0:0:
499,332,62655,1,8,0:0:0:0:
387,344,62866,1,0,0:0:0:0:
387,344,62972,1,0,0:0:0:0:
387,344,63078,6,0,L|312:338,1,75,2|0,0:0|0:0,0:0:0:0:
200,329,63500,2,0,L|242:267,1,75,8|0,0:0|0:0,0:0:0:0:
307,174,63923,2,0,L|339:241,2,75,4|0|8,0:1|0:0|0:0,0:0:0:0:
259,71,64557,1,0,0:0:0:0:
259,71,64662,1,0,0:0:0:0:
259,71,64768,6,0,P|222:64|185:67,1,75,2|0,0:0|0:0,0:0:0:0:
73,65,65190,2,0,P|84:100|106:131,1,75,8|0,0:0|0:0,0:0:0:0:
160,229,65613,2,0,P|184:200|200:167,2,75,4|0|8,0:1|0:0|0:0,0:0:0:0:
60,262,66247,1,0,0:0:0:0:
60,262,66352,1,0,0:0:0:0:
60,262,66458,6,0,P|105:320|177:333,1,150,2|8,0:0|0:0,0:0:0:0:
256,254,67092,1,0,0:0:0:0:
334,333,67303,2,0,P|406:320|451:262,1,150,4|8,0:1|0:0,0:0:0:0:
483,153,67937,1,0,0:0:0:0:
374,121,68148,6,0,L|299:128,1,75,6|0,0:0|0:0,0:0:0:0:
216,51,68571,2,0,L|141:58,1,75,14|0,0:0|0:0,0:0:0:0:
51,125,68993,1,6,0:0:0:0:
154,168,69204,1,2,0:3:0:0:
161,173,69310,1,2,0:3:0:0:
167,177,69416,2,0,L|204:173,3,37.5,12|4|8|8,0:3|0:3|0:3|0:3,0:0:0:0:
244,213,69838,6,0,P|251:249|247:286,1,75,4|0,0:0|0:0,0:0:0:0:
168,367,70261,2,0,P|131:374|94:370,1,75,8|0,0:0|0:0,0:0:0:0:
14,291,70683,2,0,P|6:254|10:217,2,75,4|4|8,0:1|0:1|0:0,0:0:0:0:
94,370,71317,1,0,0:0:0:0:
173,289,71528,6,0,P|209:282|247:286,2,75,0|0|8,0:0|0:0|0:0,0:0:0:0:
93,209,72162,2,0,P|73:138|102:70,1,150,0|0,0:0|0:0,0:0:0:0:
196,7,72796,1,8,0:0:0:0:
204,119,73007,1,0,0:0:0:0:
204,119,73113,1,0,0:0:0:0:
204,119,73219,6,0,L|197:194,1,75,2|0,0:0|0:0,0:0:0:0:
256,288,73641,2,0,L|331:295,1,75,8|0,0:0|0:0,0:0:0:0:
425,236,74064,2,0,L|432:161,2,75,4|4|8,0:1|0:1|0:0,0:0:0:0:
330,294,74697,1,0,0:0:0:0:
272,200,74909,6,0,L|197:193,1,75,0|0,0:0|0:0,0:0:0:0:
124,105,75331,2,0,P|119:69|128:32,1,75,8|0,0:0|0:0,0:0:0:0:
150,23,75648,1,0,0:0:0:0:
150,23,75754,1,4,0:1:0:0:
246,80,75965,1,0,0:0:0:0:
328,3,76176,2,0,L|403:10,1,75,8|0,0:0|0:0,0:0:0:0:
475,96,76599,6,0,P|480:133|475:170,1,75,2|0,0:0|0:0,0:0:0:0:
378,228,77021,1,8,0:0:0:0:
475,283,77233,2,0,B|530:288,2,37.5,0|0|12,0:0|0:0|0:1,0:0:0:0:
420,381,77655,2,0,B|345:374,1,75,4|8,0:1|0:0,0:0:0:0:
258,302,78078,6,0,B|203:307|203:307|162:297|162:297|109:302,1,150,2|0,0:0|0:0,0:0:0:0:
17,367,78712,1,8,0:0:0:0:
6,253,78923,1,0,0:0:0:0:
109,301,79134,2,0,B|116:375,2,75,4|0|8,0:1|0:0|0:0,0:0:0:0:
99,187,79768,6,0,B|152:182|152:182|193:192|193:192|248:187,1,150,2|0,0:0|0:0,0:0:0:0:
327,108,80402,1,8,0:0:0:0:
356,216,80613,2,0,B|352:253,2,37.5,0|0|4,0:0|0:0|0:1,0:0:0:0:
436,136,81035,2,0,P|473:135|506:151,1,75,0|8,0:0|0:0,0:0:0:0:
501,267,81458,6,0,B|351:252,1,150,2|0,0:0|0:0,0:0:0:0:
244,285,82092,1,8,0:0:0:0:
269,176,82303,1,0,0:0:0:0:
269,176,82409,1,0,0:0:0:0:
269,176,82514,2,0,B|251:142|251:142|257:105,1,75,0|0,0:0|0:0,0:0:0:0:
363,64,82937,2,0,B|419:69,3,37.5,10|10|8|8,0:3|0:3|0:3|0:3,0:0:0:0:
427,72,83359,6,0,P|438:36|436:0,2,75,6|0|8,0:0|0:0|0:0,0:0:0:0:
453,181,83993,2,0,P|486:163|511:136,2,75,2|0|8,0:0|0:0|0:0,0:0:0:0:
394,276,84627,2,0,P|429:287|466:285,2,75,2|0|8,0:0|0:0|0:0,0:0:0:0:
341,177,85261,1,2,0:0:0:0:
281,272,85472,2,0,B|285:347,1,75,2|8,0:0|0:0,0:0:0:0:
175,371,85895,2,0,B|97:388|106:336|30:354,1,150,2|2,0:0|0:0,0:0:0:0:
30,354,86740,6,0,P|69:291|59:218,1,150,4|8,0:0|0:0,0:0:0:0:
12,116,87373,1,0,0:0:0:0:
125,126,87585,2,0,B|274:140,1,150,0|8,0:0|0:0,0:0:0:0:
378,97,88219,2,0,P|410:164|389:234,1,150,0|0,0:0|0:0,0:0:0:0:
301,304,88852,1,8,0:0:0:0:
215,229,89064,2,0,B|140:222,1,75,0|0,0:0|0:0,0:0:0:0:
118,333,89486,2,0,B|193:340,2,75,8|8|0,0:0|0:0|0:0,0:0:0:0:
32,257,90120,6,0,P|11:186|42:120,1,150,2|8,0:0|0:0,0:0:0:0:
149,84,90753,2,0,B|202:89|202:89|243:79|243:79|298:84,1,150,0|0,0:0|0:0,0:0:0:0:
404,47,91388,2,0,P|410:83|402:120,1,75,8|0,0:0|0:0,0:0:0:0:
366,225,91810,2,0,P|402:232|439:226,2,75,0|0|8,0:0|0:0|0:0,0:0:0:0:
264,175,92444,2,0,B|114:188,1,150,0|8,0:0|0:0,0:0:0:0:
10,233,93078,2,0,B|1:270|1:270|8:306,1,75,8|4,0:0|0:3,0:0:0:0:
117,334,93500,6,0,B|132:262|132:262|114:188,1,150,2|8,0:0|0:0,0:0:0:0:
28,114,94134,1,0,0:0:0:0:
135,76,94345,2,0,P|197:115|269:104,1,150,0|8,0:0|0:0,0:0:0:0:
379,75,94979,2,0,B|365:224,1,150,0|0,0:0|0:0,0:0:0:0:
444,304,95613,1,8,0:0:0:0:
364,382,95824,2,0,B|289:375,1,75,0|0,0:0|0:0,0:0:0:0:
199,306,96247,2,0,B|124:312,2,75,0|8|0,0:0|0:0|0:0,0:0:0:0:
303,262,96881,6,0,P|342:199|331:127,1,150,2|8,0:0|0:0,0:0:0:0:
271,32,97514,1,0,0:0:0:0:
159,51,97726,2,0,B|165:125,1,75,2|0,0:0|0:0,0:0:0:0:
225,220,98148,2,0,B|231:295,1,75,8|0,0:0|0:0,0:0:0:0:
144,367,98571,2,0,B|105:373|105:373|70:364,2,75,2|0|8,0:0|0:0|0:0,0:0:0:0:
230,294,99204,1,2,0:0:0:0:
328,348,99416,2,0,B|367:354|367:354|401:345,1,75,2|0,0:0|0:0,0:0:0:0:
482,267,99838,1,10,0:0:0:0:
484,248,99944,1,0,0:0:0:0:
487,230,100050,1,0,0:0:0:0:
489,211,100155,1,0,0:0:0:0:
492,193,100261,6,0,P|419:206|353:172,1,150,4|8,0:0|0:0,0:0:0:0:
257,113,100895,2,0,P|303:169|307:243,1,150,8|0,0:3|0:0,0:0:0:0:
304,357,101528,2,0,L|378:352,1,75,8|0,0:3|0:0,0:0:0:0:
454,268,101951,2,0,L|307:243,1,150,8|8,0:3|0:0,0:0:0:0:
201,283,102585,1,8,0:3:0:0:
121,203,102796,2,0,P|96:133|120:63,1,150,0|8,0:0|0:3,0:0:0:0:
218,6,103430,1,0,0:0:0:0:
218,6,103535,1,0,0:0:0:0:
218,6,103641,6,0,L|365:31,1,150,2|8,0:0|0:0,0:0:0:0:
478,32,104275,2,0,L|381:147,1,150,0|0,0:0|0:0,0:0:0:0:
325,244,104909,2,0,L|299:173,1,75,8|0,0:3|0:0,0:0:0:0:
204,113,105331,2,0,P|167:106|130:114,1,75,8|0,0:3|0:0,0:0:0:0:
70,209,105754,1,8,0:0:0:0:
176,244,105965,2,0,B|231:249|231:249|272:239|272:239|325:244,1,150,8|0,0:3|0:0,0:0:0:0:
390,335,106599,1,8,0:3:0:0:
390,335,106704,1,0,0:0:0:0:
390,335,106810,1,0,0:0:0:0:
434,231,107021,6,0,P|452:160|428:90,1,150,2|8,0:0|0:0,0:0:0:0:
316,78,107655,2,0,B|263:73|263:73|222:83|222:83|167:78,1,150,2|0,0:0|0:0,0:0:0:0:
57,45,108289,2,0,P|51:81|59:118,1,75,8|0,0:0|0:0,0:0:0:0:
147,191,108712,2,0,P|155:227|149:264,1,75,2|0,0:0|0:0,0:0:0:0:
100,365,109134,1,8,0:0:0:0:
45,267,109345,2,0,B|59:118,1,150,2|0,0:0|0:0,0:0:0:0:
167,78,109979,2,0,P|203:71|240:79,1,75,8|0,0:0|0:0,0:0:0:0:
333,140,110402,6,0,P|401:157|475:127,1,150,2|8,0:0|0:0,0:0:0:0:
396,45,111035,1,0,0:0:0:0:
333,140,111247,2,0,B|334:214,1,75,2|0,0:0|0:0,0:0:0:0:
264,302,111669,2,0,P|227:308|190:300,1,75,8|0,0:0|0:0,0:0:0:0:
116,215,112092,6,0,P|99:143|128:75,1,150,2|8,0:0|0:0,0:0:0:0:
218,6,112726,1,0,0:0:0:0:
323,44,112937,2,0,P|359:52|396:48,1,75,2|0,0:0|0:0,0:0:0:0:
469,133,113359,2,0,P|477:169|473:206,1,75,8|0,0:0|0:0,0:0:0:0:
406,295,113782,6,0,L|331:295,1,75,2|0,0:0|0:0,0:0:0:0:
248,219,114204,2,0,L|173:219,1,75,10|0,0:0|0:0,0:0:0:0:
81,154,114627,2,0,P|76:116|80:79,2,75,2|2|8,0:3|0:3|0:3,0:0:0:0:
70,267,115261,1,8,0:3:0:0:
163,334,115472,6,0,B|196:353|196:353|223:329,1,75,4|0,0:0|0:0,0:0:0:0:
248,219,115895,2,0,B|275:195|275:195|308:214,1,75,8|0,0:0|0:0,0:0:0:0:
393,287,116317,1,4,0:1:0:0:
414,177,116528,1,4,0:1:0:0:
393,287,116740,1,8,0:0:0:0:
414,177,116951,1,0,0:0:0:0:
329,104,117162,6,0,P|292:94|255:97,1,75,0|0,0:0|0:0,0:0:0:0:
157,153,117585,1,8,0:0:0:0:
248,219,117796,2,0,P|276:286|248:353,1,150,0|0,0:0|0:0,0:0:0:0:
138,379,118430,2,0,B|136:304,1,75,8|0,0:0|0:0,0:0:0:0:
178,198,118852,6,0,P|215:201|248:219,1,75,0|0,0:0|0:0,0:0:0:0:
353,259,119275,2,0,P|390:256|422:238,1,75,8|0,0:0|0:0,0:0:0:0:
479,141,119697,1,4,0:1:0:0:
423,44,119909,1,4,0:1:0:0:
479,141,120120,1,8,0:0:0:0:
423,44,120332,1,0,0:0:0:0:
366,140,120543,6,0,B|328:146|328:146|292:138,1,75,0|0,0:0|0:0,0:0:0:0:
208,63,120965,1,8,0:0:0:0:
185,173,121176,2,0,B|182:322,1,150,0|0,0:0|0:0,0:0:0:0:
281,375,121810,1,8,0:0:0:0:
376,316,122021,1,0,0:0:0:0:
376,316,122127,1,0,0:0:0:0:
376,315,122233,6,0,P|412:308|450:309,1,75,2|0,0:0|0:0,0:0:0:0:
499,208,122655,2,0,P|474:180|456:147,1,75,8|0,0:0|0:0,0:0:0:0:
343,155,123078,2,0,P|331:190|311:222,2,75,4|4|8,0:1|0:1|0:0,0:0:0:0:
278,60,123712,1,0,0:0:0:0:
278,60,123817,1,0,0:0:0:0:
278,60,123923,6,0,P|241:67|203:66,1,75,2|0,0:0|0:0,0:0:0:0:
91,60,124345,2,0,P|115:87|133:120,1,75,8|0,0:0|0:0,0:0:0:0:
185,221,124768,2,0,P|196:185|216:153,2,75,4|0|8,0:1|0:0|0:0,0:0:0:0:
101,296,125402,1,0,0:0:0:0:
101,296,125507,1,0,0:0:0:0:
100,296,125613,6,0,P|169:270|238:298,1,150,2|8,0:0|0:0,0:0:0:0:
317,378,126247,1,0,0:0:0:0:
425,349,126458,2,0,L|419:199,1,150,4|8,0:1|0:0,0:0:0:0:
479,103,127092,1,0,0:0:0:0:
366,100,127303,6,0,L|291:102,1,75,6|0,0:0|0:0,0:0:0:0:
216,187,127726,2,0,L|141:184,1,75,6|0,0:0|0:0,0:0:0:0:
56,110,128148,1,6,0:0:0:0:
163,73,128359,1,2,0:3:0:0:
171,71,128465,1,2,0:3:0:0:
179,69,128571,2,0,L|177:31,3,37.5,4|4|8|8,0:3|0:3|0:3|0:3,0:0:0:0:
229,9,128993,6,0,B|265:4|265:4|302:14,1,75,4|0,0:0|0:0,0:0:0:0:
379,96,129416,2,0,B|384:132|384:132|373:169,1,75,8|0,0:0|0:0,0:0:0:0:
292,246,129838,2,0,B|256:251|256:251|218:240,2,75,4|4|8,0:1|0:1|0:0,0:0:0:0:
373,169,130472,1,0,0:0:0:0:
398,278,130683,6,0,B|403:314|403:314|392:351,2,75,0|0|8,0:0|0:0|0:0,0:0:0:0:
374,169,131317,2,0,P|352:99|383:32,1,150,0|0,0:0|0:0,0:0:0:0:
461,107,131951,1,8,0:0:0:0:
471,214,132162,1,0,0:0:0:0:
471,214,132268,1,0,0:0:0:0:
471,214,132373,6,0,L|477:288,1,75,2|0,0:0|0:0,0:0:0:0:
387,356,132796,2,0,L|312:362,1,75,8|0,0:0|0:0,0:0:0:0:
245,272,133219,2,0,L|238:197,2,75,4|4|8,0:1|0:1|0:0,0:0:0:0:
312,362,133852,1,0,0:0:0:0:
357,258,134064,6,0,L|350:183,1,75,0|0,0:0|0:0,0:0:0:0:
281,93,134486,2,0,P|244:84|207:87,1,75,8|0,0:0|0:0,0:0:0:0:
195,108,134803,1,0,0:0:0:0:
195,108,134909,1,4,0:1:0:0:
101,45,135120,1,0,0:0:0:0:
15,119,135331,2,0,L|21:193,1,75,8|0,0:0|0:0,0:0:0:0:
88,284,135754,6,0,P|125:288|160:278,1,75,2|0,0:0|0:0,0:0:0:0:
226,186,136176,1,8,0:0:0:0:
115,158,136388,2,0,L|117:195,2,37.5,0|0|12,0:0|0:0|0:1,0:0:0:0:
64,57,136810,2,0,B|98:42|98:42|134:50,1,75,4|8,0:1|0:0,0:0:0:0:
246,72,137233,6,0,L|396:80,1,150,0|0,0:0|0:0,0:0:0:0:
495,26,137866,1,8,0:0:0:0:
395,79,138078,2,0,L|397:41,2,37.5,0|0|4,0:0|0:0|0:1,0:0:0:0:
492,138,138500,2,0,P|504:177|502:213,1,75,0|8,0:0|0:0,0:0:0:0:
393,192,138923,6,0,L|243:200,1,150,2|0,0:0|0:0,0:0:0:0:
163,279,139557,1,8,0:0:0:0:
134,169,139768,2,0,L|131:131,2,37.5,0|0|4,0:0|0:0|0:1,0:0:0:0:
54,249,140190,2,0,P|50:287|60:323,1,75,0|8,0:0|0:0,0:0:0:0:
162,372,140613,6,0,B|240:389|231:337|307:355,1,150,2|0,0:0|0:0,0:0:0:0:
416,382,141247,1,8,0:0:0:0:
384,274,141458,1,0,0:0:0:0:
378,266,141564,1,0,0:0:0:0:
372,258,141669,2,0,P|365:221|370:185,1,75,4|0,0:1|0:0,0:0:0:0:
422,83,142092,1,10,0:3:0:0:
434,69,142197,1,10,0:3:0:0:
448,56,142303,1,8,0:3:0:0:
463,45,142409,1,8,0:3:0:0:
480,36,142514,5,4,0:0:0:0:
372,3,142726,2,0,L|297:10,1,75,2|0,0:0|0:0,0:0:0:0:
210,82,143148,1,4,0:3:0:0:
205,86,143571,2,0,L|279:93,1,75,8|8,0:3|0:3,0:0:0:0:
342,148,143993,6,0,B|371:120|363:68|363:68|416:122|416:122|457:64|457:64|522:109|513:206,1,393.750015020371,4|2,0:1|0:0,0:0:0:0:
336,346,145895,5,2,0:0:0:0:
234,293,146106,2,0,P|198:287|161:294,1,75,2|0,0:0|0:0,0:0:0:0:
64,352,146528,1,4,0:3:0:0:
68,345,146951,2,0,P|74:308|67:271,1,75,8|8,0:3|0:3,0:0:0:0:
7,211,147373,6,0,B|44:153|52:82|52:82|91:161|116:197|116:197|74:160|60:158,1,337.500012874604,4|0,0:1|0:0,0:0:0:0:
49,46,148852,1,4,0:1:0:0:
265,107,149275,5,2,0:0:0:0:
360,48,149486,2,0,B|397:40|397:40|433:45,1,75,2|0,0:0|0:0,0:0:0:0:
506,132,149909,1,4,0:3:0:0:
510,138,150331,2,0,B|518:175|518:175|512:211,1,75,8|8,0:3|0:3,0:0:0:0:
461,280,150754,6,0,P|370:273|428:202,1,225.000008583069,4|0,1:0|0:0,0:0:0:0:
501,119,151810,6,0,P|414:157|329:114,1,196.875001877546,4|0,1:0|0:0,0:0:0:0:
250,34,152655,6,0,L|100:45,1,150,2|0,0:0|0:0,0:0:0:0:
20,126,153289,2,0,P|2:196|40:259,1,150,2|0,0:0|0:0,0:0:0:0:
138,313,153923,2,0,L|212:318,1,75,10|0,0:0|0:0,0:0:0:0:
304,381,154345,2,0,P|265:320|288:251,2,150,2|10|2,0:0|0:0|0:0,0:0:0:0:
389,306,155402,2,0,L|351:308,4,37.5,0|0|10|0|0,0:0|0:0|0:0|0:0|0:0,0:0:0:0:
363,196,156035,6,0,L|213:184,1,150,6|8,0:0|0:0,0:0:0:0:
113,237,156669,1,0,0:0:0:0:
113,237,156775,1,0,0:0:0:0:
113,237,156881,2,0,P|108:274|116:310,1,75,2|8,0:3|0:3,0:0:0:0:
205,380,157303,1,8,0:3:0:0:
220,268,157514,6,0,L|208:118,1,150,6|0,0:0|0:0,0:0:0:0:
290,41,158148,1,0,0:0:0:0:
316,150,158359,2,0,L|318:187,2,37.5,0|0|0,0:0|0:0|0:0,0:0:0:0:
398,73,158782,1,0,0:0:0:0:
424,182,158993,2,0,L|426:219,3,37.5,0|0|0|0,0:0|0:0|0:0|0:0,0:0:0:0:
468,258,159416,6,0,B|393:245|328:286|328:286|309:252|324:228|319:187|319:187|267:231|200:218,1,375,4|0,0:0|0:0,0:0:0:0:
123,135,160683,1,8,0:0:0:0:
210,62,160895,5,0,0:0:0:0:
210,62,161000,1,0,0:0:0:0:
210,61,161106,2,0,P|270:20|343:30,1,150,0|8,0:0|0:0,0:0:0:0:
410,121,161740,1,0,0:0:0:0:
298,134,161951,2,0,B|305:283,1,150,0|8,0:0|0:0,0:0:0:0:
388,360,162585,5,0,0:0:0:0:
388,360,162690,1,0,0:0:0:0:
388,360,162796,1,0,0:0:0:0:
412,250,163007,1,0,0:0:0:0:
305,283,163219,2,0,P|271:299|234:304,1,75,8|0,0:0|0:0,0:0:0:0:
123,284,163641,2,0,P|92:262|69:232,2,75,0|0|8,0:0|0:0|0:0,0:0:0:0:
196,198,164275,1,0,0:0:0:0:
196,198,164381,1,0,0:0:0:0:
196,198,164486,6,0,P|211:126|168:67,1,150,0|8,0:0|0:0,0:0:0:0:
57,82,165120,2,0,L|69:232,1,150,0|0,0:0|0:0,0:0:0:0:
156,302,165754,1,8,0:0:0:0:
196,198,165965,1,0,0:0:0:0:
200,192,166071,1,0,0:0:0:0:
203,185,166176,6,0,B|256:180|256:180|297:190|297:190|352:185,1,150,6|8,0:0|0:0,0:0:0:0:
417,93,166810,1,0,0:0:0:0:
417,93,166916,1,0,0:0:0:0:
417,93,167021,1,8,0:0:0:0:
464,195,167233,2,0,P|470:231|464:268,1,75,0|8,0:0|0:0,0:0:0:0:
376,339,167655,6,0,B|298:356|307:304|231:322,1,150,2|0,0:0|0:0,0:0:0:0:
133,378,168289,1,8,0:0:0:0:
77,280,168500,1,0,0:0:0:0:
77,280,168606,1,0,0:0:0:0:
77,280,168712,1,0,0:0:0:0:
175,223,168923,2,0,P|181:187|178:150,1,75,0|8,0:0|0:0,0:0:0:0:
124,49,169345,6,0,P|68:95|77:167,1,150,6|0,0:0|0:0,0:0:0:0:
141,224,169873,1,0,0:0:0:0:
175,223,169979,2,0,B|249:219,1,75,8|0,0:0|0:0,0:0:0:0:
273,192,170296,1,0,0:0:0:0:
296,166,170402,2,0,B|292:91,1,75,0|0,0:0|0:0,0:0:0:0:
391,37,170824,1,8,0:0:0:0:
490,92,171035,6,0,P|504:164|469:229,1,150,2|0,0:0|0:0,0:0:0:0:
376,293,171669,1,8,0:0:0:0:
274,244,171881,2,0,L|276:206,2,37.5,0|0|0,0:0|0:0|0:0,0:0:0:0:
282,356,172303,1,0,0:0:0:0:
182,307,172514,2,0,L|184:269,3,37.5,10|0|2|0,0:0|0:0|0:0|0:0,0:0:0:0:
194,325,172937,6,0,P|124:349|52:330,1,150,6|8,0:0|0:0,0:0:0:0:
3,229,173571,2,0,P|17:156|68:103,1,150,8|0,0:3|0:0,0:0:0:0:
180,110,174204,2,0,P|211:132|229:165,1,75,8|0,0:3|0:0,0:0:0:0:
172,263,174627,2,0,P|232:220|305:232,1,150,8|8,0:3|0:0,0:0:0:0:
398,296,175261,1,8,0:3:0:0:
474,213,175472,2,0,L|463:59,1,150,0|8,0:0|0:3,0:0:0:0:
366,5,176106,1,0,0:0:0:0:
366,5,176212,1,0,0:0:0:0:
366,5,176317,6,0,B|300:42|300:42|223:37,1,150,2|8,0:0|0:0,0:0:0:0:
130,98,176951,2,0,B|195:136|195:136|229:205,1,150,0|0,0:0|0:0,0:0:0:0:
328,255,177585,2,0,L|328:179,1,75,8|0,0:3|0:0,0:0:0:0:
434,134,178007,2,0,P|444:169|439:206,1,75,8|0,0:3|0:0,0:0:0:0:
425,327,178430,1,8,0:0:0:0:
328,255,178641,2,0,B|250:238|259:290|183:272,1,150,8|0,0:3|0:0,0:0:0:0:
86,330,179275,2,0,L|82:367,2,37.5,8|0|0,0:3|0:0|0:0,0:0:0:0:
84,216,179697,6,0,P|60:146|84:76,1,150,2|8,0:0|0:0,0:0:0:0:
183,23,180331,2,0,L|332:39,1,150,2|0,0:0|0:0,0:0:0:0:
441,13,180965,2,0,P|463:42|471:78,1,75,8|0,0:0|0:0,0:0:0:0:
466,191,181388,2,0,L|457:268,1,75,2|0,0:0|0:0,0:0:0:0:
385,351,181810,1,8,0:0:0:0:
347,245,182021,2,0,P|275:227|211:261,1,150,2|0,0:0|0:0,0:0:0:0:
135,345,182655,2,0,B|98:356|98:356|62:347,1,75,8|0,0:0|0:0,0:0:0:0:
9,248,183078,6,0,L|25:98,1,150,2|8,0:0|0:0,0:0:0:0:
126,49,183712,1,0,0:0:0:0:
199,134,183923,2,0,P|235:141|272:133,1,75,2|0,0:0|0:0,0:0:0:0:
310,28,184345,2,0,P|273:21|237:29,1,75,8|0,0:0|0:0,0:0:0:0:
199,134,184768,6,0,B|185:191|185:191|200:280,1,150,2|8,0:0|0:0,0:0:0:0:
297,339,185402,1,0,0:0:0:0:
381,264,185613,2,0,B|393:190,1,75,2|0,0:0|0:0,0:0:0:0:
492,136,186035,2,0,B|479:62,1,75,8|0,0:0|0:0,0:0:0:0:
375,17,186458,6,0,P|338:11|302:22,1,75,2|0,0:0|0:0,0:0:0:0:
268,129,186881,2,0,P|232:139|195:134,1,75,10|0,0:0|0:0,0:0:0:0:
100,74,187303,2,0,L|103:0,2,75,2|2|8,0:3|0:3|0:3,0:0:0:0:
95,186,187937,1,8,0:3:0:0:
195,134,188148,5,4,0:0:0:0:
195,134,189416,1,4,0:1:0:0:
256,350,189838,5,2,0:0:0:0:
256,350,191528,5,2,0:0:0:0:
256,350,192796,1,4,0:1:0:0:
411,189,193219,6,0,P|435:119|410:49,1,150,2|4,0:0|0:1,0:0:0:0:
308,4,193852,1,8,0:0:0:0:
202,44,194064,1,10,0:3:0:0:
290,115,194275,2,0,L|328:118,4,37.5,2|2|8|8|8,0:3|0:3|0:3|0:3|0:3,0:0:0:0:
183,155,194909,6,0,L|108:160,1,75,4|0,0:0|0:0,0:0:0:0:
73,267,195331,2,0,L|147:261,1,75,8|0,0:0|0:0,0:0:0:0:
256,237,195754,1,4,0:1:0:0:
183,155,195965,1,4,0:1:0:0:
147,261,196176,1,8,0:0:0:0:
221,343,196388,1,0,0:0:0:0:
221,343,196493,1,0,0:0:0:0:
221,343,196599,6,0,P|258:346|295:342,1,75,0|0,0:0|0:0,0:0:0:0:
365,255,197021,2,0,P|402:251|439:255,1,75,8|0,0:0|0:0,0:0:0:0:
508,166,197444,1,4,0:1:0:0:
435,80,197655,1,0,0:0:0:0:
324,100,197866,1,8,0:0:0:0:
251,14,198078,1,0,0:0:0:0:
251,14,198183,1,0,0:0:0:0:
251,14,198289,6,0,L|101:30,1,150,0|8,0:0|0:0,0:0:0:0:
25,114,198923,1,0,0:0:0:0:
134,138,199134,2,0,P|166:204|147:275,1,150,4|8,0:1|0:0,0:0:0:0:
71,358,199768,1,0,0:0:0:0:
181,383,199979,6,0,L|257:374,1,75,6|0,0:0|0:0,0:0:0:0:
368,379,200402,2,0,L|415:318,1,75,14|0,0:0|0:0,0:0:0:0:
497,243,200824,1,6,0:0:0:0:
476,144,201035,1,2,0:3:0:0:
478,137,201141,1,2,0:3:0:0:
481,131,201247,2,0,L|476:92,3,37.5,12|4|8|8,0:3|0:3|0:3|0:3,0:0:0:0:
431,57,201669,6,0,P|395:52|359:63,1,75,4|0,0:0|0:0,0:0:0:0:
293,155,202092,2,0,P|287:191|298:227,1,75,8|0,0:0|0:0,0:0:0:0:
390,294,202514,2,0,P|426:299|462:288,2,75,4|4|8,0:1|0:1|0:0,0:0:0:0:
298,227,203148,1,0,0:0:0:0:
286,341,203359,6,0,P|249:346|213:335,2,75,0|0|8,0:0|0:0|0:0,0:0:0:0:
298,227,203993,2,0,L|148:243,1,150,0|0,0:0|0:0,0:0:0:0:
102,346,204627,1,8,0:0:0:0:
37,254,204838,1,0,0:0:0:0:
37,254,204944,1,0,0:0:0:0:
37,254,205050,6,0,B|31:214|31:214|36:179,1,75,0|0,0:0|0:0,0:0:0:0:
113,102,205472,2,0,B|153:96|153:96|187:101,1,75,8|0,0:0|0:0,0:0:0:0:
298,128,205895,2,0,B|332:133|332:133|372:127,2,75,4|4|8,0:1|0:1|0:0,0:0:0:0:
187,101,206528,1,0,0:0:0:0:
265,18,206740,6,0,L|339:26,1,75,0|0,0:0|0:0,0:0:0:0:
372,126,207162,2,0,L|363:200,1,75,8|0,0:0|0:0,0:0:0:0:
359,229,207479,1,0,0:0:0:0:
359,229,207585,1,0,0:0:0:0:
256,192,207796,1,0,0:0:0:0:
178,272,208007,2,0,L|103:263,1,75,8|0,0:0|0:0,0:0:0:0:
18,188,208430,6,0,P|15:150|23:114,1,75,2|0,0:0|0:0,0:0:0:0:
52,7,208852,2,0,P|85:23|113:48,1,75,8|0,0:0|0:0,0:0:0:0:
192,126,209275,2,0,P|161:147|125:158,2,75,12|4|8,0:1|0:1|0:0,0:0:0:0:
219,19,209909,6,0,B|274:24|274:24|315:14|315:14|368:19,1,150,2|0,0:0|0:0,0:0:0:0:
470,64,210543,1,8,0:0:0:0:
380,131,210754,1,0,0:0:0:0:
483,175,210965,2,0,P|494:210|493:247,2,75,4|0|8,0:1|0:0|0:0,0:0:0:0:
380,131,211599,6,0,B|327:126|327:126|286:136|286:136|231:131,1,150,2|0,0:0|0:0,0:0:0:0:
132,77,212233,1,8,0:0:0:0:
134,189,212444,2,0,B|137:226,2,37.5,0|0|4,0:0|0:0|0:1,0:0:0:0:
36,135,212866,2,0,P|24:170|24:207,1,75,0|8,0:0|0:0,0:0:0:0:
63,313,213289,6,0,P|131:342|202:322,1,150,2|0,0:0|0:0,0:0:0:0:
279,240,213923,1,8,0:0:0:0:
313,348,214134,1,0,0:0:0:0:
313,348,214240,1,0,0:0:0:0:
313,348,214345,2,0,L|387:339,1,75,0|0,0:0|0:0,0:0:0:0:
466,258,214768,1,8,0:0:0:0:
467,248,214873,1,0,0:0:0:0:
468,239,214979,1,0,0:0:0:0:
469,230,215085,1,0,0:0:0:0:
470,220,215190,6,0,L|461:145,2,75,4|0|8,0:0|0:0|0:0,0:0:0:0:
366,173,215824,1,0,0:0:0:0:
366,173,215930,1,0,0:0:0:0:
366,173,216035,2,0,L|374:98,2,75,0|0|8,0:0|0:0|0:0,0:0:0:0:
279,240,216669,5,6,0:0:0:0:
85,312,218571,6,0,P|74:348|76:384,2,75,6|0|8,0:0|0:0|0:0,0:0:0:0:
59,203,219205,2,0,P|26:221|1:248,2,75,2|0|0,0:0|0:0|0:0,0:0:0:0:
118,108,219839,2,0,P|83:97|46:99,2,75,2|0|0,0:0|0:0|0:0,0:0:0:0:
226,82,220472,1,2,0:0:0:0:
320,139,220683,2,0,P|355:150|392:148,1,75,2|8,0:0|0:0,0:0:0:0:
487,85,221106,2,0,P|438:140|445:213,1,150,2|2,0:0|0:0,0:0:0:0:
506,308,221740,1,8,0:0:0:0:
509,315,221845,1,0,0:0:0:0:
512,322,221951,6,0,L|362:313,1,150,4|8,0:0|0:0,0:0:0:0:
265,372,222585,2,0,P|192:371|142:318,1,150,0|0,0:0|0:0,0:0:0:0:
124,206,223219,2,0,L|128:131,1,75,10|0,0:0|0:0,0:0:0:0:
58,43,223641,2,0,B|127:73|127:73|199:56,1,150,2|8,0:0|0:0,0:0:0:0:
312,56,224275,2,0,B|385:73|385:73|454:43,1,150,0|0,0:0|0:0,0:0:0:0:
504,144,224909,2,0,L|508:218,1,75,10|0,0:0|0:0,0:0:0:0:
432,301,225331,6,0,P|361:280|296:313,1,150,4|8,0:0|0:0,0:0:0:0:
199,371,225965,2,0,B|121:388|130:336|54:354,1,150,0|0,0:0|0:0,0:0:0:0:
5,251,226599,2,0,P|0:214|7:177,1,75,10|0,0:0|0:0,0:0:0:0:
91,102,227021,2,0,B|202:95|202:95|236:112,1,150,2|8,0:0|0:0,0:0:0:0:
325,179,227655,2,0,P|363:177|397:162,1,75,0|8,0:0|0:3,0:0:0:0:
450,66,228078,5,2,0:0:0:0:
507,160,228289,1,8,0:3:0:0:
454,256,228500,1,10,0:3:0:0:
454,256,228606,1,0,0:0:0:0:
454,256,228712,6,0,L|304:270,1,150,4|8,0:0|0:0,0:0:0:0:
237,359,229345,2,0,P|256:288|221:223,1,150,0|0,0:0|0:0,0:0:0:0:
123,168,229979,2,0,L|48:160,1,75,10|0,0:0|0:0,0:0:0:0:
24,50,230402,2,0,L|173:64,1,150,2|8,0:0|0:0,0:0:0:0:
237,159,231035,2,0,P|309:177|373:143,1,150,0|0,0:0|0:0,0:0:0:0:
477,95,231669,2,0,P|488:130|486:167,1,75,10|0,0:0|0:0,0:0:0:0:
409,253,232092,6,0,L|405:327,2,75,4|0|8,0:0|0:0|0:0,0:0:0:0:
373,143,232726,1,2,0:0:0:0:
296,230,232937,2,0,L|292:304,2,75,0|0|10,0:0|0:0|0:0,0:0:0:0:
373,143,233571,6,0,P|305:114|233:133,1,150,2|2,0:3|0:3,0:0:0:0:
225,145,234099,1,4,0:1:0:0:
217,157,234204,2,0,L|213:82,1,75,4|0,0:3|0:0,0:0:0:0:
205,68,234521,1,4,0:1:0:0:
197,54,234627,2,0,L|122:58,2,75,4|8|4,0:3|0:3|0:1,0:0:0:0:
300,9,235261,2,0,L|337:11,1,37.5,4|0,0:1|0:0,0:0:0:0:
376,52,235472,5,4,0:0:0:0:
256,192,235578,12,0,238852,0:0:0:0:
