osu file format v14

[General]
AudioFilename: audio.mp3
AudioLeadIn: 0
PreviewTime: 188148
Countdown: 0
SampleSet: Soft
StackLeniency: 0.7
Mode: 0
LetterboxInBreaks: 0
EpilepsyWarning: 1
WidescreenStoryboard: 1

[Editor]
DistanceSpacing: 1.8
BeatDivisor: 4
GridSize: 16
TimelineZoom: 2.1

[Metadata]
Title:Harumachi Clover
TitleUnicode:春待ちクローバー
Artist:Hanasaka Yui(CV: M.A.O)
ArtistUnicode:花坂結衣(CV:M・A・O)
Creator:Deppyforce
Version:Happy Ending
Source:OneRoom
Tags:市道 真央 ichimichi mao 1 one room ending full size version カントク kantoku -_frontier_- kawashiro mkguh shockolatte shmiklak
BeatmapID:1401608
BeatmapSetID:662120

[Difficulty]
HPDrainRate:6.4
CircleSize:4.1
OverallDifficulty:8.5
ApproachRate:9
SliderMultiplier:1.6
SliderTickRate:1

[Events]
//Background and Video events
0,0,"clover.png",0,0
//Break Periods
//Storyboard Layer 0 (Background)
//Storyboard Layer 1 (Fail)
//Storyboard Layer 2 (Pass)
//Storyboard Layer 3 (Foreground)
//Storyboard Layer 4 (Overlay)
//Storyboard Sound Samples
Sample,165754,0,"soft-hitclap.wav",70

[TimingPoints]
543,422.535211267606,4,2,1,55,1,0
14064,-111.111111111111,4,2,1,50,0,0
41106,-125,4,2,1,45,0,0
51247,-100,4,2,1,50,0,0
56317,-83.3333333333333,4,2,1,60,0,1
69733,-83.3333333333333,4,2,1,60,0,0
69838,-83.3333333333333,4,2,1,60,0,1
83359,-100,4,2,1,60,0,0
86740,-100,4,2,1,50,0,0
100261,-125,4,2,1,45,0,0
110402,-100,4,2,1,50,0,0
115472,-83.3333333333333,4,2,1,60,0,1
128888,-83.3333333333333,4,2,1,60,0,0
128993,-83.3333333333333,4,2,1,60,0,1
142514,-100,4,2,1,45,0,0
143993,-133.333333333333,4,2,1,45,0,0
145895,-100,4,2,1,45,0,0
147373,-133.333333333333,4,2,1,45,0,0
148852,-50,4,2,1,45,0,0
149275,-100,4,2,1,45,0,0
151810,-74.6268656716418,4,2,1,45,0,0
152655,-90.9090909090909,4,2,1,45,0,0
159416,-76.9230769230769,4,2,1,55,0,0
172937,-125,4,2,1,45,0,0
188148,-200,4,2,1,40,0,0
194909,-83.3333333333333,4,2,1,60,0,1
201564,-83.3333333333333,4,2,1,60,0,0
201669,-83.3333333333333,4,2,1,60,0,1
216669,-83.3333333333333,4,2,1,60,0,0
218571,-83.3333333333333,4,2,1,60,0,1
221951,-100,4,2,1,55,0,0

[Colours]
Combo1 : 117,158,179
Combo2 : 155,197,139
Combo3 : 210,192,138
Combo4 : 198,147,176

[HitObjects]
48,240,331,5,0,0:0:0:0:
48,240,437,1,0,0:0:0:0:
48,240,543,2,0,L|208:233,1,160,4|8,0:0|0:0,0:0:0:0:
345,292,1176,1,0,0:0:0:0:
230,157,1388,2,0,P|215:193|207:233,1,80,0|0,0:0|0:0,0:0:0:0:
321,367,1810,2,0,P|336:331|345:292,1,80,10|0,0:0|0:0,0:0:0:0:
321,367,2233,6,0,P|345:292|342:212,1,160,2|8,0:0|0:0,0:0:0:0:
127,236,2866,2,0,L|207:233,1,80,0|0,0:0|0:0,0:0:0:0:
312,133,3289,1,0,0:0:0:0:
448,277,3500,1,10,0:0:0:0:
342,212,3712,1,0,0:0:0:0:
171,358,3923,6,0,P|247:339|320:366,1,160,4|8,0:0|0:0,0:0:0:0:
478,356,4557,1,0,0:0:0:0:
327,286,4768,2,0,L|320:366,1,80,0|0,0:0|0:0,0:0:0:0:
455,197,5190,2,0,L|448:277,1,80,10|0,0:0|0:0,0:0:0:0:
455,197,5613,6,0,L|439:356,1,160,2|8,0:0|0:0,0:0:0:0:
247,340,6246,2,0,P|286:347|321:366,1,80,0|8,0:0|0:3,0:0:0:0:
487,281,6669,1,2,0:0:0:0:
277,205,6881,1,8,0:3:0:0:
439,356,7092,1,10,0:3:0:0:
490,112,7303,6,0,B|411:103|411:103|334:123,1,160,4|8,0:0|0:0,0:0:0:0:
180,197,7937,1,0,0:0:0:0:
313,46,8148,2,0,P|328:83|333:123,1,80,0|0,0:0|0:0,0:0:0:0:
199,273,8571,2,0,P|184:236|180:197,1,80,10|0,0:0|0:0,0:0:0:0:
199,273,8993,6,0,P|181:197|204:121,1,160,2|8,0:0|0:0,0:0:0:0:
411,103,9627,2,0,B|334:123,1,80,0|0,0:0|0:0,0:0:0:0:
222,30,10050,1,0,0:0:0:0:
180,196,10261,1,10,0:0:0:0:
292,135,10472,1,0,0:0:0:0:
397,295,10683,5,4,0:0:0:0:
284,109,10895,1,0,0:0:0:0:
198,272,11106,1,8,0:0:0:0:
328,212,11317,1,2,0:0:0:0:
162,120,11528,1,2,0:0:0:0:
281,285,11740,1,0,0:0:0:0:
378,75,11951,1,10,0:0:0:0:
472,274,12162,6,0,P|436:292|397:295,1,80,2|0,0:3|0:0,0:0:0:0:
277,268,12585,1,2,0:3:0:0:
277,268,12690,1,4,0:1:0:0:
277,268,12796,1,12,0:3:0:0:
369,134,13007,1,0,0:0:0:0:
369,134,13113,1,4,0:1:0:0:
369,134,13219,1,4,0:3:0:0:
403,320,13430,5,8,0:3:0:0:
170,265,13641,1,12,0:1:0:0:
364,216,13852,1,12,0:1:0:0:
222,353,14064,6,0,P|153:366|92:331,2,143.999995605469,4|8|0,0:0|0:0|0:0,0:0:0:0:
170,265,15120,1,0,0:0:0:0:
170,265,15226,1,0,0:0:0:0:
170,265,15331,2,0,L|174:229,1,35.9999989013672,8|0,0:0|0:0,0:0:0:0:
302,325,15543,2,0,L|306:361,1,35.9999989013672,0|0,0:0|0:0,0:0:0:0:
353,236,15754,6,0,P|320:223|285:223,1,71.9999978027344,0|0,0:0|0:0,0:0:0:0:
222,353,16176,1,8,0:0:0:0:
73,290,16388,2,0,L|63:146,1,143.999995605469,0|8,0:0|0:0,0:0:0:0:
173,229,17021,1,8,0:0:0:0:
295,107,17233,1,0,0:0:0:0:
295,107,17338,1,0,0:0:0:0:
294,107,17444,6,0,P|228:131|157:121,2,143.999995605469,2|8|0,0:0|0:0|0:0,0:0:0:0:
364,6,18500,1,0,0:0:0:0:
220,44,18712,2,0,L|265:45,1,35.9999989013672,8|0,0:0|0:0,0:0:0:0:
369,85,18923,2,0,L|404:84,1,35.9999989013672,0|0,0:0|0:0,0:0:0:0:
353,268,19134,5,0,0:0:0:0:
294,107,19345,1,0,0:0:0:0:
211,271,19557,1,0,0:0:0:0:
405,191,19767,1,8,0:0:0:0:
208,166,19979,1,0,0:0:0:0:
429,160,20190,1,8,0:0:0:0:
237,305,20402,1,12,0:0:0:0:
317,191,20613,1,4,0:3:0:0:
485,337,20824,6,0,P|509:270|495:200,2,143.999995605469,2|8|0,0:0|0:0|0:0,0:0:0:0:
382,272,21881,1,0,0:0:0:0:
382,272,21986,1,0,0:0:0:0:
382,272,22092,2,0,L|419:267,1,35.9999989013672,8|0,0:0|0:0,0:0:0:0:
290,368,22303,2,0,L|327:373,1,35.9999989013672,0|0,0:0|0:0,0:0:0:0:
242,277,22514,6,0,P|214:297|197:329,1,71.9999978027344,0|0,0:0|0:0,0:0:0:0:
104,218,22937,1,8,0:0:0:0:
290,76,23148,2,0,L|307:221,1,143.999995605469,0|0,0:0|0:0,0:0:0:0:
192,82,23782,1,8,0:0:0:0:
381,103,23993,1,0,0:0:0:0:
200,196,24204,5,2,0:0:0:0:
403,89,24416,1,0,0:0:0:0:
179,70,24627,1,8,0:0:0:0:
327,188,24838,1,0,0:0:0:0:
256,14,25050,1,2,0:0:0:0:
200,196,25261,1,0,0:0:0:0:
76,26,25472,1,8,0:0:0:0:
199,102,25683,1,0,0:0:0:0:
64,233,25895,5,2,0:0:0:0:
86,59,26105,1,0,0:0:0:0:
236,189,26317,1,10,0:0:0:0:
35,141,26528,1,2,0:0:0:0:
166,103,26740,1,0,0:0:0:0:
166,262,26951,1,0,0:0:0:0:
10,141,27162,1,6,0:3:0:0:
221,183,27373,1,4,0:3:0:0:
58,376,27585,6,0,L|63:232,2,143.999995605469,4|8|0,0:0|0:0|0:0,0:0:0:0:
183,300,28641,1,0,0:0:0:0:
49,218,28852,1,8,0:0:0:0:
147,375,29064,1,0,0:0:0:0:
314,211,29275,6,0,P|262:198|210:200,1,71.9999978027344,0|0,0:0|0:0,0:0:0:0:
49,218,29697,1,8,0:0:0:0:
62,56,29909,2,0,P|129:82|200:73,1,143.999995605469,0|0,0:0|0:0,0:0:0:0:
280,226,30543,1,8,0:0:0:0:
364,97,30754,1,0,0:0:0:0:
436,298,30965,6,0,L|444:149,2,143.999995605469,2|8|0,0:0|0:0|0:0,0:0:0:0:
349,179,32021,1,0,0:0:0:0:
288,358,32233,1,8,0:0:0:0:
393,296,32444,1,0,0:0:0:0:
222,301,32655,5,0,0:0:0:0:
413,261,32866,1,0,0:0:0:0:
254,175,33078,1,8,0:0:0:0:
443,154,33289,1,0,0:0:0:0:
301,254,33500,1,0,0:0:0:0:
380,100,33712,1,0,0:0:0:0:
372,302,33923,1,12,0:3:0:0:
232,161,34134,1,4,0:3:0:0:
204,368,34345,6,0,P|157:381|66:362,2,143.999995605469,2|8|0,0:0|0:0|0:0,0:0:0:0:
299,242,35402,1,0,0:0:0:0:
140,285,35613,1,8,0:0:0:0:
285,328,35824,1,0,0:0:0:0:
195,147,36035,6,0,L|196:221,1,71.9999978027344,0|0,0:0|0:0,0:0:0:0:
295,338,36458,1,8,0:0:0:0:
115,285,36669,1,0,0:0:0:0:
299,242,36881,2,0,P|347:253|388:250,1,71.9999978027344,0|0,0:0|0:0,0:0:0:0:
296,127,37303,1,8,0:0:0:0:
219,288,37514,1,0,0:0:0:0:
157,107,37726,6,0,P|228:102|296:127,1,143.999995605469,2|8,0:0|0:0,0:0:0:0:
182,213,38359,1,0,0:0:0:0:
369,252,38571,2,0,L|359:180,1,71.9999978027344,2|0,0:0|0:0,0:0:0:0:
172,141,38993,2,0,L|182:213,1,71.9999978027344,8|0,0:0|0:0,0:0:0:0:
295,338,39416,5,2,0:0:0:0:
372,145,39627,1,0,0:0:0:0:
196,255,39838,1,8,0:0:0:0:
411,271,40050,1,2,0:0:0:0:
259,108,40261,5,2,0:0:0:0:
232,124,40366,1,0,0:0:0:0:
202,135,40472,1,0,0:0:0:0:
172,141,40577,1,0,0:0:0:0:
140,141,40683,1,10,0:0:0:0:
109,135,40789,1,0,0:0:0:0:
79,125,40894,1,0,0:0:0:0:
52,109,41000,1,0,0:0:0:0:
28,88,41106,6,0,P|74:45|134:24,1,128,4|8,0:0|0:0,0:0:0:0:
246,76,41740,2,0,P|199:119|140:141,1,128,8|0,0:3|0:0,0:0:0:0:
97,254,42373,1,8,0:3:0:0:
97,254,42585,1,0,0:0:0:0:
177,345,42796,6,0,L|248:340,1,64,8|0,0:3|0:0,0:0:0:0:
322,249,43219,2,0,L|251:244,1,64,8|8,0:0|0:3,0:0:0:0:
177,153,43641,2,0,L|319:142,1,128,0|8,0:0|0:3,0:0:0:0:
416,192,44275,1,0,0:0:0:0:
504,108,44486,6,0,P|428:88|358:109,2,128,2|8|0,0:0|0:0|0:0,0:0:0:0:
416,192,45543,1,0,0:0:0:0:
416,192,45754,2,0,P|414:222|423:259,1,64,8|0,0:3|0:0,0:0:0:0:
490,356,46176,6,0,L|360:350,1,128,8|8,0:3|0:0,0:0:0:0:
250,300,46810,2,0,L|96:310,1,128,8|0,0:3|0:0,0:0:0:0:
7,349,47444,1,8,0:3:0:0:
7,349,47550,1,0,0:0:0:0:
7,349,47655,1,0,0:0:0:0:
83,231,47866,5,2,0:0:0:0:
146,343,48078,1,0,0:0:0:0:
235,234,48289,1,8,0:0:0:0:
356,328,48500,2,0,P|331:269|332:205,1,128,2|0,0:0|0:0,0:0:0:0:
412,106,49134,1,8,0:0:0:0:
412,106,49345,1,0,0:0:0:0:
478,241,49557,5,2,0:0:0:0:
338,183,49768,1,0,0:0:0:0:
501,130,49979,1,8,0:0:0:0:
323,55,50190,2,0,L|338:183,1,128,2|0,0:0|0:0,0:0:0:0:
470,304,50824,2,0,L|478:241,1,64,8|0,0:0|0:0,0:0:0:0:
281,335,51247,6,0,P|212:373|134:363,1,160,2|8,0:0|0:0,0:0:0:0:
60,256,51881,1,0,0:0:0:0:
190,230,52092,1,2,0:0:0:0:
100,351,52303,1,0,0:0:0:0:
109,168,52514,1,8,0:0:0:0:
256,296,52726,1,0,0:0:0:0:
109,132,52937,5,2,0:0:0:0:
37,284,53148,1,0,0:0:0:0:
217,149,53359,1,8,0:0:0:0:
284,305,53571,1,0,0:0:0:0:
149,243,53782,1,2,0:0:0:0:
334,208,53993,1,0,0:0:0:0:
177,316,54204,1,8,0:0:0:0:
194,124,54416,1,0,0:0:0:0:
195,349,54627,5,2,0:0:0:0:
144,204,54838,1,0,0:0:0:0:
303,328,55050,1,10,0:0:0:0:
65,246,55261,1,0,0:0:0:0:
65,246,55366,1,0,0:0:0:0:
65,246,55472,1,2,0:3:0:0:
236,164,55683,1,2,0:3:0:0:
17,105,55894,1,8,0:3:0:0:
188,23,56106,1,8,0:3:0:0:
172,239,56317,5,4,0:0:0:0:
98,56,56528,1,0,0:0:0:0:
305,100,56740,1,8,0:0:0:0:
122,174,56951,1,0,0:0:0:0:
274,20,57162,5,4,0:1:0:0:
301,235,57373,1,4,0:1:0:0:
99,146,57585,1,8,0:0:0:0:
341,110,57796,2,0,L|305:142,1,47.9999985351563,0|0,0:0|0:0,0:0:0:0:
169,265,58007,5,4,0:1:0:0:
184,58,58219,1,0,0:0:0:0:
301,265,58430,1,8,0:0:0:0:
59,225,58641,1,0,0:0:0:0:
247,125,58852,6,0,P|293:110|341:110,1,95.9999970703126,0|0,0:0|0:0,0:0:0:0:
138,247,59275,2,0,P|92:262|44:262,1,95.9999970703126,8|0,0:0|0:0,0:0:0:0:
184,26,59697,5,2,0:0:0:0:
268,227,59909,1,0,0:0:0:0:
447,41,60120,1,8,0:0:0:0:
247,125,60332,1,0,0:0:0:0:
488,240,60543,5,4,0:1:0:0:
346,64,60755,1,4,0:1:0:0:
345,290,60965,1,8,0:0:0:0:
430,137,61176,2,0,L|384:151,1,47.9999985351563,0|0,0:0|0:0,0:0:0:0:
211,282,61388,5,0,0:0:0:0:
488,240,61599,1,4,0:1:0:0:
314,381,61810,1,8,0:0:0:0:
385,151,62021,2,0,L|338:164,1,47.9999985351563,0|0,0:0|0:0,0:0:0:0:
225,358,62233,6,0,P|177:363|130:355,1,95.9999970703126,0|0,0:0|0:0,0:0:0:0:
393,237,62655,2,0,P|440:231|487:239,1,95.9999970703126,8|0,0:0|0:0,0:0:0:0:
183,175,63078,6,0,L|172:75,1,95.9999970703126,2|0,0:0|0:0,0:0:0:0:
300,136,63500,1,8,0:0:0:0:
86,229,63712,1,0,0:0:0:0:
139,46,63923,1,4,0:1:0:0:
233,253,64134,1,0,0:0:0:0:
40,116,64345,1,8,0:0:0:0:
306,95,64557,1,0,0:0:0:0:
306,95,64662,1,0,0:0:0:0:
306,95,64768,5,2,0:0:0:0:
115,207,64979,1,0,0:0:0:0:
341,285,65190,1,8,0:0:0:0:
222,171,65402,1,0,0:0:0:0:
143,344,65613,1,4,0:1:0:0:
17,154,65824,1,0,0:0:0:0:
211,271,66035,1,8,0:0:0:0:
375,47,66247,1,0,0:0:0:0:
375,47,66352,1,0,0:0:0:0:
374,46,66458,6,0,P|328:32|280:39,1,95.9999970703126,2|0,0:0|0:0,0:0:0:0:
147,149,66881,2,0,P|193:162|241:156,1,95.9999970703126,8|0,0:0|0:0,0:0:0:0:
395,37,67303,2,0,P|341:21|286:28,1,95.9999970703126,4|0,0:1|0:0,0:0:0:0:
128,158,67726,1,8,0:0:0:0:
323,112,67937,1,0,0:0:0:0:
166,320,68148,5,6,0:0:0:0:
206,60,68359,1,0,0:0:0:0:
290,337,68571,1,14,0:0:0:0:
153,124,68782,1,0,0:0:0:0:
16,377,68993,1,6,0:0:0:0:
237,231,69204,5,2,0:3:0:0:
265,217,69310,1,2,0:3:0:0:
296,205,69416,1,12,0:3:0:0:
366,196,69521,1,4,0:3:0:0:
434,219,69627,1,8,0:3:0:0:
484,270,69732,1,8,0:3:0:0:
507,337,69838,5,4,0:0:0:0:
304,288,70050,1,0,0:0:0:0:
428,117,70261,1,8,0:0:0:0:
405,317,70472,1,0,0:0:0:0:
325,164,70683,5,4,0:1:0:0:
512,250,70895,1,4,0:1:0:0:
388,84,71106,2,0,L|337:82,1,47.9999985351563,8|0,0:0|0:0,0:0:0:0:
304,288,71317,2,0,L|341:258,1,47.9999985351563,0|0,0:0|0:0,0:0:0:0:
210,81,71528,5,0,0:0:0:0:
364,180,71740,1,0,0:0:0:0:
166,213,71951,1,8,0:0:0:0:
338,74,72162,1,0,0:0:0:0:
274,275,72373,6,0,P|228:291|180:291,1,95.9999970703126,0|0,0:0|0:0,0:0:0:0:
364,180,72796,2,0,P|410:164|458:164,1,95.9999970703126,8|0,0:0|0:0,0:0:0:0:
285,378,73219,5,2,0:0:0:0:
166,213,73430,1,0,0:0:0:0:
12,374,73641,1,8,0:0:0:0:
187,325,73852,1,0,0:0:0:0:
27,186,74064,5,4,0:1:0:0:
100,369,74275,1,4,0:1:0:0:
208,177,74486,1,8,0:0:0:0:
18,338,74697,1,0,0:0:0:0:
121,72,74909,5,0,0:0:0:0:
147,300,75120,1,0,0:0:0:0:
364,180,75331,1,8,0:0:0:0:
310,355,75542,1,0,0:0:0:0:
310,355,75648,1,0,0:0:0:0:
310,355,75754,1,4,0:1:0:0:
256,169,75965,1,0,0:0:0:0:
386,287,76176,1,8,0:0:0:0:
204,251,76388,1,0,0:0:0:0:
340,65,76599,5,2,0:0:0:0:
308,254,76810,1,0,0:0:0:0:
161,117,77021,1,8,0:0:0:0:
364,180,77232,1,0,0:0:0:0:
364,180,77338,1,0,0:0:0:0:
364,180,77444,1,12,0:1:0:0:
131,111,77655,1,4,0:1:0:0:
315,274,77867,1,8,0:0:0:0:
226,11,78078,6,0,L|221:209,1,191.999994140625,2|0,0:0|0:0,0:0:0:0:
319,69,78712,1,8,0:0:0:0:
131,111,78923,1,0,0:0:0:0:
339,188,79134,1,4,0:1:0:0:
95,107,79345,1,0,0:0:0:0:
350,57,79557,1,8,0:0:0:0:
216,299,79768,6,0,P|125:325|36:294,1,191.999994140625,2|0,0:0|0:0,0:0:0:0:
221,202,80402,1,8,0:0:0:0:
312,372,80613,1,0,0:0:0:0:
312,372,80719,1,0,0:0:0:0:
312,372,80824,1,4,0:1:0:0:
390,202,81035,1,0,0:0:0:0:
239,321,81247,1,8,0:0:0:0:
475,241,81458,6,0,B|498:198|498:198|488:55,1,191.999994140625,2|0,0:0|0:0,0:0:0:0:
259,124,82092,1,8,0:0:0:0:
387,248,82303,1,0,0:0:0:0:
387,248,82409,1,0,0:0:0:0:
387,248,82514,1,0,0:0:0:0:
345,49,82726,1,0,0:0:0:0:
286,283,82937,1,10,0:3:0:0:
216,299,83042,1,10,0:3:0:0:
146,285,83148,1,8,0:3:0:0:
88,243,83253,1,8,0:3:0:0:
52,181,83359,5,6,0:0:0:0:
272,92,83571,1,0,0:0:0:0:
216,299,83782,1,8,0:0:0:0:
57,155,83993,5,2,0:0:0:0:
291,109,84205,1,0,0:0:0:0:
190,306,84416,1,8,0:0:0:0:
68,131,84627,5,2,0:0:0:0:
306,131,84839,1,0,0:0:0:0:
164,309,85050,1,8,0:0:0:0:
85,110,85261,5,2,0:0:0:0:
316,156,85473,1,2,0:0:0:0:
138,305,85684,1,8,0:0:0:0:
161,64,85895,5,2,0:0:0:0:
255,282,86106,1,8,0:0:0:0:
258,82,86317,5,2,0:0:0:0:
164,309,86528,1,8,0:0:0:0:
164,309,86634,1,0,0:0:0:0:
164,309,86740,6,0,P|86:324|13:293,2,160,4|8|0,0:0|0:0|0:0,0:0:0:0:
245,199,87796,1,0,0:0:0:0:
251,322,88007,2,0,L|255:282,1,40,8|0,0:0|0:0,0:0:0:0:
206,150,88219,2,0,L|210:190,1,40,0|0,0:0|0:0,0:0:0:0:
321,71,88430,6,0,P|282:65|243:72,1,80,0|0,0:0|0:0,0:0:0:0:
109,168,88852,1,8,0:0:0:0:
24,23,89064,2,0,L|186:12,1,160,0|8,0:0|0:0,0:0:0:0:
38,116,89697,1,8,0:0:0:0:
209,189,89909,1,0,0:0:0:0:
209,189,90014,1,0,0:0:0:0:
209,189,90120,6,0,P|287:189|352:144,2,160,2|8|0,0:0|0:0|0:0,0:0:0:0:
252,74,91176,1,0,0:0:0:0:
392,139,91388,2,0,L|346:144,1,40,8|0,0:0|0:0,0:0:0:0:
248,184,91599,2,0,L|202:189,1,40,0|0,0:0|0:0,0:0:0:0:
356,236,91810,5,0,0:0:0:0:
256,99,92021,1,0,0:0:0:0:
173,255,92233,1,8,0:0:0:0:
252,74,92444,1,0,0:0:0:0:
266,264,92655,1,0,0:0:0:0:
151,134,92866,1,8,0:0:0:0:
349,203,93078,1,8,0:0:0:0:
157,282,93289,1,4,0:3:0:0:
365,363,93500,6,0,P|426:313|504:298,2,160,2|8|0,0:0|0:0|0:0,0:0:0:0:
260,312,94557,1,0,0:0:0:0:
428,279,94768,2,0,L|385:276,1,40,8|0,0:0|0:0,0:0:0:0:
283,268,94979,2,0,L|240:265,1,40,0|0,0:0|0:0,0:0:0:0:
124,256,95190,6,0,P|176:196|195:119,1,160,0|8,0:0|0:0,0:0:0:0:
119,24,95824,2,0,P|94:54|78:90,1,80,0|0,0:0|0:0,0:0:0:0:
218,140,96247,1,0,0:0:0:0:
47,190,96458,1,8,0:0:0:0:
133,43,96669,1,0,0:0:0:0:
299,108,96881,6,0,L|291:267,1,160,2|8,0:0|0:0,0:0:0:0:
142,292,97514,1,0,0:0:0:0:
222,180,97726,2,0,P|302:181|369:221,1,160,2|8,0:0|0:0,0:0:0:0:
287,318,98359,1,0,0:0:0:0:
198,138,98571,5,2,0:0:0:0:
290,292,98782,1,0,0:0:0:0:
376,105,98993,1,8,0:0:0:0:
259,206,99204,1,2,0:0:0:0:
472,300,99416,5,2,0:0:0:0:
486,268,99521,1,0,0:0:0:0:
493,235,99627,1,0,0:0:0:0:
492,201,99732,1,0,0:0:0:0:
484,167,99838,1,10,0:0:0:0:
469,135,99944,1,0,0:0:0:0:
462,102,100050,1,0,0:0:0:0:
463,68,100155,1,0,0:0:0:0:
471,34,100261,6,0,B|405:23|405:23|344:26,1,128,4|8,0:0|0:0,0:0:0:0:
306,142,100895,2,0,B|245:145|245:145|179:134,1,128,8|0,0:3|0:0,0:0:0:0:
67,88,101528,1,8,0:3:0:0:
67,88,101740,1,0,0:0:0:0:
178,40,101951,6,0,P|188:73|191:104,1,64,8|0,0:3|0:0,0:0:0:0:
306,142,102373,2,0,P|296:175|293:206,1,64,8|8,0:0|0:3,0:0:0:0:
207,290,102796,2,0,P|155:253|93:236,1,128,0|8,0:0|0:3,0:0:0:0:
9,325,103430,1,0,0:0:0:0:
118,377,103641,6,0,L|245:371,2,128,2|8|0,0:0|0:0|0:0,0:0:0:0:
9,325,104697,1,0,0:0:0:0:
9,325,104909,2,0,L|6:257,1,64,8|0,0:3|0:0,0:0:0:0:
59,154,105331,6,0,P|122:162|179:135,1,128,0|8,0:0|0:0,0:0:0:0:
262,223,105965,2,0,P|318:195|381:203,1,128,8|0,0:3|0:0,0:0:0:0:
479,277,106599,1,8,0:3:0:0:
479,277,106704,1,0,0:0:0:0:
479,277,106810,1,0,0:0:0:0:
512,140,107021,5,2,0:0:0:0:
408,215,107233,1,0,0:0:0:0:
453,368,107444,1,8,0:0:0:0:
303,308,107655,2,0,B|239:303|239:303|180:331,1,128,2|0,0:0|0:0,0:0:0:0:
102,236,108289,1,8,0:0:0:0:
102,236,108500,1,0,0:0:0:0:
32,365,108712,5,2,0:0:0:0:
83,214,108923,1,0,0:0:0:0:
180,358,109134,1,8,0:0:0:0:
261,190,109345,2,0,P|294:245|303:308,1,128,2|0,0:0|0:0,0:0:0:0:
126,275,109979,2,0,P|166:266|189:265,1,64,8|0,0:0|0:0,0:0:0:0:
323,293,110402,6,0,L|336:133,1,160,2|8,0:0|0:0,0:0:0:0:
256,25,111035,1,0,0:0:0:0:
392,33,111247,1,2,0:0:0:0:
259,145,111458,1,0,0:0:0:0:
437,121,111669,1,8,0:0:0:0:
329,266,111881,1,0,0:0:0:0:
356,63,112092,5,2,0:0:0:0:
415,226,112303,1,0,0:0:0:0:
275,113,112514,1,8,0:0:0:0:
216,276,112726,1,0,0:0:0:0:
334,186,112937,1,2,0:0:0:0:
135,165,113148,1,0,0:0:0:0:
312,306,113359,1,8,0:0:0:0:
241,102,113571,1,0,0:0:0:0:
86,280,113782,5,2,0:0:0:0:
234,141,113993,1,0,0:0:0:0:
242,348,114204,1,10,0:0:0:0:
429,249,114416,1,0,0:0:0:0:
220,181,114627,1,0,0:0:0:0:
407,82,114838,1,0,0:0:0:0:
407,82,114944,1,0,0:0:0:0:
407,82,115049,1,0,0:0:0:0:
198,14,115261,1,0,0:0:0:0:
227,208,115472,5,4,0:0:0:0:
303,21,115683,1,0,0:0:0:0:
411,209,115895,1,8,0:0:0:0:
188,109,116106,1,0,0:0:0:0:
431,50,116317,5,4,0:1:0:0:
312,231,116528,1,4,0:1:0:0:
179,28,116740,2,0,L|226:35,1,47.9999985351563,8|0,0:0|0:0,0:0:0:0:
446,133,116951,2,0,L|398:125,1,47.9999985351563,0|0,0:0|0:0,0:0:0:0:
203,209,117162,5,0,0:0:0:0:
319,52,117373,1,0,0:0:0:0:
87,146,117585,1,8,0:0:0:0:
322,201,117796,1,0,0:0:0:0:
135,357,118007,6,0,P|124:306|130:264,1,95.9999970703126,0|0,0:0|0:0,0:0:0:0:
223,38,118430,2,0,P|234:89|228:131,1,95.9999970703126,8|0,0:0|0:0,0:0:0:0:
381,330,118852,5,0,0:0:0:0:
432,100,119064,1,0,0:0:0:0:
253,258,119275,1,8,0:0:0:0:
499,212,119486,1,0,0:0:0:0:
266,120,119697,5,4,0:1:0:0:
346,315,119909,2,0,L|346:257,1,47.9999985351563,4|0,0:1|0:0,0:0:0:0:
349,80,120120,1,8,0:0:0:0:
217,282,120331,1,0,0:0:0:0:
93,63,120543,5,0,0:0:0:0:
307,156,120754,1,0,0:0:0:0:
67,314,120965,1,8,0:0:0:0:
184,79,121176,2,0,L|217:115,1,47.9999985351563,0|0,0:0|0:0,0:0:0:0:
332,269,121388,6,0,P|281:272|236:261,1,95.9999970703126,0|0,0:0|0:0,0:0:0:0:
42,157,121810,2,0,P|93:154|138:165,1,95.9999970703126,8|0,0:0|0:0,0:0:0:0:
413,29,122233,6,0,L|424:132,1,95.9999970703126,2|0,0:0|0:0,0:0:0:0:
304,47,122655,1,8,0:0:0:0:
512,80,122866,1,0,0:0:0:0:
320,187,123078,1,4,0:1:0:0:
511,41,123289,1,4,0:1:0:0:
464,263,123500,1,8,0:0:0:0:
257,116,123712,1,0,0:0:0:0:
257,116,123817,1,0,0:0:0:0:
257,116,123923,5,2,0:0:0:0:
299,322,124134,1,0,0:0:0:0:
443,138,124345,1,8,0:0:0:0:
275,217,124557,1,0,0:0:0:0:
486,289,124768,1,4,0:1:0:0:
344,131,124979,1,0,0:0:0:0:
273,363,125190,1,8,0:0:0:0:
125,115,125402,1,0,0:0:0:0:
125,115,125507,1,0,0:0:0:0:
125,115,125613,6,0,P|182:102|231:108,1,95.9999970703126,2|0,0:0|0:0,0:0:0:0:
369,208,126035,2,0,P|312:221|263:215,1,95.9999970703126,8|0,0:0|0:0,0:0:0:0:
105,95,126458,2,0,P|172:79|230:86,1,95.9999970703126,0|0,0:0|0:0,0:0:0:0:
389,228,126881,1,8,0:0:0:0:
195,185,127092,1,0,0:0:0:0:
65,325,127303,5,6,0:0:0:0:
294,176,127514,1,0,0:0:0:0:
26,113,127726,1,6,0:0:0:0:
260,252,127937,1,0,0:0:0:0:
1,379,128148,1,6,0:0:0:0:
178,214,128359,5,2,0:3:0:0:
195,185,128464,1,0,0:0:0:0:
207,152,128571,1,4,0:3:0:0:
194,82,128676,1,4,0:3:0:0:
147,29,128782,1,8,0:3:0:0:
79,9,128887,1,8,0:3:0:0:
10,28,128993,5,4,0:0:0:0:
83,215,129204,1,0,0:0:0:0:
234,51,129416,1,8,0:0:0:0:
7,139,129627,1,0,0:0:0:0:
283,218,129838,5,4,0:1:0:0:
108,50,130050,1,4,0:1:0:0:
160,294,130261,2,0,L|178:248,1,47.9999985351563,8|0,0:0|0:0,0:0:0:0:
256,59,130472,2,0,L|274:105,1,47.9999985351563,0|0,0:0|0:0,0:0:0:0:
373,308,130683,5,0,0:0:0:0:
464,117,130895,1,0,0:0:0:0:
261,182,131106,1,8,0:0:0:0:
479,286,131317,1,0,0:0:0:0:
224,365,131528,6,0,P|206:311|206:273,1,95.9999970703126,0|0,0:0|0:0,0:0:0:0:
363,113,131951,2,0,P|381:167|381:205,1,95.9999970703126,8|0,0:0|0:0,0:0:0:0:
102,302,132373,5,2,0:0:0:0:
224,94,132585,1,0,0:0:0:0:
340,281,132796,1,8,0:0:0:0:
98,191,133007,1,0,0:0:0:0:
322,118,133219,5,4,0:1:0:0:
176,272,133430,1,4,0:1:0:0:
226,12,133641,1,8,0:0:0:0:
288,266,133852,1,0,0:0:0:0:
110,49,134064,5,0,0:0:0:0:
324,9,134275,1,0,0:0:0:0:
116,165,134486,1,8,0:0:0:0:
380,205,134697,1,0,0:0:0:0:
380,205,134803,1,0,0:0:0:0:
380,205,134909,1,4,0:1:0:0:
216,103,135120,1,0,0:0:0:0:
188,291,135331,1,8,0:0:0:0:
305,155,135542,1,0,0:0:0:0:
503,352,135754,5,2,0:0:0:0:
324,285,135965,1,0,0:0:0:0:
429,94,136176,1,8,0:0:0:0:
225,142,136387,1,0,0:0:0:0:
225,142,136493,1,0,0:0:0:0:
225,142,136599,1,8,0:0:0:0:
461,72,136810,1,4,0:1:0:0:
331,316,137021,1,8,0:0:0:0:
340,33,137233,6,0,B|323:83|352:125|352:125|383:167|367:215,1,191.999994140625,0|0,0:0|0:0,0:0:0:0:
258,105,137866,1,8,0:0:0:0:
446,221,138078,1,0,0:0:0:0:
244,299,138289,1,4,0:1:0:0:
474,225,138500,1,0,0:0:0:0:
250,76,138711,1,8,0:0:0:0:
310,356,138923,6,0,P|327:266|255:209,1,191.999994140625,2|0,0:0|0:0,0:0:0:0:
61,273,139557,1,8,0:0:0:0:
244,299,139768,1,0,0:0:0:0:
244,299,139873,1,0,0:0:0:0:
244,299,139979,1,4,0:1:0:0:
85,364,140190,1,0,0:0:0:0:
255,209,140402,1,8,0:0:0:0:
42,88,140613,6,0,B|26:143|26:143|61:273,1,191.999994140625,2|0,0:0|0:0,0:0:0:0:
271,344,141247,1,8,0:0:0:0:
372,192,141458,1,0,0:0:0:0:
372,192,141564,1,0,0:0:0:0:
372,192,141669,1,4,0:1:0:0:
206,272,141881,1,0,0:0:0:0:
42,88,142092,5,10,0:3:0:0:
119,84,142198,1,10,0:3:0:0:
146,156,142304,1,8,0:3:0:0:
87,205,142409,1,8,0:3:0:0:
22,163,142514,5,4,0:0:0:0:
270,139,142726,1,2,0:0:0:0:
270,139,143148,1,4,0:3:0:0:
87,205,143571,5,8,0:3:0:0:
102,291,143782,1,0,0:0:0:0:
171,236,143993,6,0,B|217:199|204:157|204:157|187:113|224:76|224:76|310:128|291:235|225:288,1,420.000016021729,4|2,0:1|0:0,0:0:0:0:
262,355,145895,5,2,0:0:0:0:
262,355,146106,2,0,P|322:379|307:316,2,160,2|4|8,0:0|0:3|0:3,0:0:0:0:
335,240,147162,1,0,0:0:0:0:
335,240,147373,6,0,P|429:175|312:220,1,360.000013732911,4|0,0:1|0:0,0:0:0:0:
230,138,148852,6,0,B|221:88|258:51|258:51|313:24|368:26|401:44,1,240,4|0,0:1|0:0,0:0:0:0:
422,55,149275,5,2,0:0:0:0:
482,287,149486,1,2,0:0:0:0:
482,287,149909,1,4,0:3:0:0:
321,357,150332,5,8,0:3:0:0:
269,286,150543,1,0,0:0:0:0:
234,367,150754,6,0,B|192:348|184:310|184:310|121:317|121:317|137:249|35:215|12:293,1,320,4|0,1:0|0:0,0:0:0:0:
1,188,151810,2,0,B|43:168|51:130|51:130|114:137|114:137|98:69|200:35|223:113,1,321.599984787598,4|0,1:0|0:0,0:0:0:0:
256,23,152655,6,0,B|372:12|372:12|347:23|334:57,1,176.000005371094,2|0,0:0|0:0,0:0:0:0:
403,173,153289,1,2,0:0:0:0:
403,173,153500,2,0,P|453:178|495:167,1,88.000002685547,0|0,0:0|0:0,0:0:0:0:
445,81,153923,1,10,0:0:0:0:
391,276,154134,1,0,0:0:0:0:
251,142,154345,5,2,0:0:0:0:
489,169,154557,1,0,0:0:0:0:
240,181,154768,5,10,0:0:0:0:
499,129,154980,1,0,0:0:0:0:
274,264,155190,5,2,0:0:0:0:
451,48,155402,1,0,0:0:0:0:
451,48,155507,1,0,0:0:0:0:
451,48,155613,1,10,0:0:0:0:
451,48,155719,1,0,0:0:0:0:
451,48,155824,1,0,0:0:0:0:
210,143,156035,5,6,0:0:0:0:
379,301,156247,1,0,0:0:0:0:
164,346,156458,1,0,0:0:0:0:
373,270,156669,1,0,0:0:0:0:
373,270,156775,1,0,0:0:0:0:
373,270,156881,1,2,0:3:0:0:
107,140,157092,5,8,0:3:0:0:
273,363,157303,1,8,0:3:0:0:
362,68,157514,1,6,0:0:0:0:
256,192,157620,12,4,159416,0:0:0:0:
177,334,159838,6,0,L|188:224,2,103.999995239258,0|0|0,0:0|0:0|0:0,0:0:0:0:
321,217,160472,1,0,0:0:0:0:
98,262,160683,1,8,0:0:0:0:
303,349,160895,1,0,0:0:0:0:
303,349,161000,1,0,0:0:0:0:
303,348,161106,6,0,P|395:307|488:348,1,207.999990478516,0|8,0:0|0:0,0:0:0:0:
400,184,161740,1,0,0:0:0:0:
512,25,161951,1,0,0:0:0:0:
337,80,162162,1,0,0:0:0:0:
512,208,162373,1,8,0:0:0:0:
297,256,162585,1,0,0:0:0:0:
297,256,162690,1,0,0:0:0:0:
297,256,162796,6,0,L|189:255,1,103.999995239258,0|0,0:0|0:0,0:0:0:0:
314,63,163218,2,0,L|422:64,1,103.999995239258,8|0,0:0|0:0,0:0:0:0:
301,284,163641,1,0,0:0:0:0:
287,88,163852,1,0,0:0:0:0:
418,267,164064,1,8,0:0:0:0:
202,173,164275,1,0,0:0:0:0:
202,173,164381,1,0,0:0:0:0:
201,172,164486,6,0,P|122:205|192:254,1,207.999990478516,0|8,0:0|0:0,0:0:0:0:
388,224,165120,1,0,0:0:0:0:
203,84,165331,2,0,P|152:81|103:98,1,103.999995239258,0|0,0:0|0:0,0:0:0:0:
194,287,165754,1,0,0:0:0:0:
397,246,165965,1,0,0:0:0:0:
246,2,166176,6,0,B|220:48|220:48|240:209,1,207.999990478516,6|0,0:0|0:0,0:0:0:0:
364,90,166810,1,0,0:0:0:0:
364,90,166916,1,0,0:0:0:0:
364,90,167021,1,8,0:0:0:0:
402,279,167233,1,0,0:0:0:0:
463,72,167444,1,8,0:0:0:0:
389,307,167655,6,0,P|286:313|199:368,1,207.999990478516,2|0,0:0|0:0,0:0:0:0:
52,216,168289,1,8,0:0:0:0:
208,146,168500,1,0,0:0:0:0:
208,146,168606,1,0,0:0:0:0:
208,146,168712,1,0,0:0:0:0:
272,293,168923,1,0,0:0:0:0:
52,216,169134,1,8,0:0:0:0:
264,80,169345,6,0,B|339:54|411:90|411:90|382:109|358:109,1,207.999990478516,6|0,0:0|0:0,0:0:0:0:
298,157,169873,1,0,0:0:0:0:
298,157,169979,2,0,L|305:213,1,51.999997619629,8|0,0:0|0:0,0:0:0:0:
151,238,170190,1,0,0:0:0:0:
151,238,170296,1,0,0:0:0:0:
151,238,170401,2,0,L|144:294,1,51.999997619629,0|0,0:0|0:0,0:0:0:0:
324,236,170613,2,0,L|331:292,1,51.999997619629,0|0,0:0|0:0,0:0:0:0:
115,314,170824,2,0,L|108:370,1,51.999997619629,8|0,0:0|0:0,0:0:0:0:
103,140,171035,6,0,B|157:146|202:115|202:115|298:157,1,207.999990478516,2|0,0:0|0:0,0:0:0:0:
144,289,171669,1,8,0:0:0:0:
207,85,171881,1,0,0:0:0:0:
207,85,171986,1,0,0:0:0:0:
207,85,172092,1,0,0:0:0:0:
297,281,172303,1,0,0:0:0:0:
77,168,172514,1,10,0:0:0:0:
350,97,172726,1,2,0:0:0:0:
176,299,172937,6,0,B|233:271|233:271|297:281,1,128,6|8,0:0|0:0,0:0:0:0:
396,352,173571,2,0,B|386:288|386:288|414:231,1,128,8|0,0:3|0:0,0:0:0:0:
484,132,174204,1,8,0:3:0:0:
484,132,174416,1,0,0:0:0:0:
447,15,174627,6,0,P|416:19|384:17,1,64,8|0,0:3|0:0,0:0:0:0:
314,117,175050,2,0,P|345:112|377:114,1,64,8|8,0:0|0:3,0:0:0:0:
413,230,175472,2,0,P|369:277|310:300,1,128,0|8,0:0|0:3,0:0:0:0:
196,256,176106,1,0,0:0:0:0:
76,278,176317,6,0,L|65:150,2,128,2|8|0,0:0|0:0|0:0,0:0:0:0:
196,256,177373,1,0,0:0:0:0:
196,256,177585,2,0,L|202:169,1,64,8|0,0:3|0:0,0:0:0:0:
287,107,178007,6,0,B|349:119|349:119|412:108,1,128,8|8,0:3|0:0,0:0:0:0:
337,12,178641,2,0,B|274:0|274:0|211:10,1,128,8|0,0:3|0:0,0:0:0:0:
130,101,179275,1,8,0:3:0:0:
130,101,179381,1,0,0:0:0:0:
130,101,179486,1,0,0:0:0:0:
25,7,179697,5,2,0:0:0:0:
135,65,179909,1,0,0:0:0:0:
154,210,180120,1,8,0:0:0:0:
263,84,180331,2,0,P|326:76|389:84,1,128,2|0,0:0|0:0,0:0:0:0:
498,151,180965,1,8,0:0:0:0:
498,151,181176,1,0,0:0:0:0:
351,203,181388,5,2,0:0:0:0:
473,131,181599,1,0,0:0:0:0:
400,282,181810,1,8,0:0:0:0:
228,240,182021,2,0,L|351:203,1,128,2|0,0:0|0:0,0:0:0:0:
418,343,182655,2,0,L|400:282,1,64,8|0,0:0|0:0,0:0:0:0:
381,117,183078,6,0,P|317:109|254:117,1,128,2|8,0:0|0:0,0:0:0:0:
170,178,183712,1,0,0:0:0:0:
235,34,183922,1,2,0:0:0:0:
269,160,184133,1,0,0:0:0:0:
70,88,184345,1,8,0:0:0:0:
36,214,184557,1,0,0:0:0:0:
175,127,184768,5,2,0:0:0:0:
0,139,184979,1,0,0:0:0:0:
155,173,185190,1,8,0:0:0:0:
101,330,185401,1,0,0:0:0:0:
293,279,185613,1,2,0:0:0:0:
143,250,185824,1,0,0:0:0:0:
323,357,186035,1,8,0:0:0:0:
265,242,186247,1,0,0:0:0:0:
363,75,186458,5,2,0:0:0:0:
193,148,186669,1,0,0:0:0:0:
310,237,186881,1,10,0:0:0:0:
266,64,187092,1,0,0:0:0:0:
475,118,187303,1,2,0:3:0:0:
300,199,187514,1,2,0:3:0:0:
498,276,187726,1,8,0:3:0:0:
323,357,187937,1,8,0:3:0:0:
494,196,188148,6,0,L|497:275,1,80,4|0,0:0|0:0,0:0:0:0:
422,298,188782,1,0,0:0:0:0:
352,267,188993,1,0,0:0:0:0:
329,194,189204,1,0,0:0:0:0:
362,125,189416,1,4,0:1:0:0:
307,178,189627,1,0,0:0:0:0:
231,183,189838,6,0,P|216:170|203:156,1,40,2|0,0:0|0:0,0:0:0:0:
186,81,190261,1,0,0:0:0:0:
211,9,190472,1,0,0:0:0:0:
211,9,190895,1,0,0:0:0:0:
186,81,191106,1,0,0:0:0:0:
122,122,191317,1,0,0:0:0:0:
46,116,191528,6,0,L|43:155,1,40,2|0,0:0|0:0,0:0:0:0:
16,227,191951,1,0,0:0:0:0:
86,255,192162,1,0,0:0:0:0:
98,329,192373,1,0,0:0:0:0:
168,358,192585,1,0,0:0:0:0:
241,337,192796,1,4,0:1:0:0:
267,265,193007,1,0,0:0:0:0:
251,189,193219,6,0,P|247:170|243:132,1,40,2|0,0:0|0:0,0:0:0:0:
280,83,193641,1,4,0:1:0:0:
168,231,193852,1,8,0:0:0:0:
328,153,194064,1,10,0:3:0:0:
120,160,194275,1,2,0:3:0:0:
143,148,194380,1,2,0:3:0:0:
163,131,194486,1,8,0:3:0:0:
180,110,194591,1,8,0:3:0:0:
193,87,194697,1,8,0:3:0:0:
202,62,194803,1,0,0:0:0:0:
205,35,194908,5,4,0:0:0:0:
280,226,195120,1,0,0:0:0:0:
413,57,195331,1,8,0:0:0:0:
203,136,195543,1,0,0:0:0:0:
460,93,195753,5,4,0:1:0:0:
250,18,195964,1,4,0:1:0:0:
315,261,196176,1,8,0:0:0:0:
372,86,196388,1,0,0:0:0:0:
372,86,196493,1,0,0:0:0:0:
372,86,196599,5,0,0:0:0:0:
120,160,196810,1,0,0:0:0:0:
282,301,197021,1,8,0:0:0:0:
292,52,197232,1,0,0:0:0:0:
162,254,197444,5,4,0:1:0:0:
378,172,197655,1,0,0:0:0:0:
119,135,197866,1,8,0:0:0:0:
416,278,198078,1,0,0:0:0:0:
416,278,198183,1,0,0:0:0:0:
416,278,198289,6,0,L|511:271,1,95.9999970703126,0|0,0:0|0:0,0:0:0:0:
297,173,198712,2,0,L|201:166,1,95.9999970703126,8|0,0:0|0:0,0:0:0:0:
417,305,199134,2,0,L|512:298,1,95.9999970703126,4|0,0:1|0:0,0:0:0:0:
298,146,199557,1,8,0:0:0:0:
256,343,199768,1,0,0:0:0:0:
151,103,199979,5,6,0:0:0:0:
263,316,200190,1,0,0:0:0:0:
0,209,200402,1,14,0:0:0:0:
305,242,200613,1,0,0:0:0:0:
69,0,200824,1,6,0:0:0:0:
88,290,201035,5,2,0:3:0:0:
105,262,201140,1,2,0:3:0:0:
127,236,201247,1,12,0:3:0:0:
185,192,201352,1,4,0:3:0:0:
253,167,201458,1,8,0:3:0:0:
324,159,201563,1,8,0:3:0:0:
396,166,201669,5,4,0:0:0:0:
231,285,201881,1,0,0:0:0:0:
256,53,202092,1,8,0:0:0:0:
353,251,202303,1,0,0:0:0:0:
429,39,202514,5,4,0:1:0:0:
261,251,202725,1,4,0:1:0:0:
340,11,202937,2,0,L|354:57,1,47.9999985351563,8|0,0:0|0:0,0:0:0:0:
441,285,203148,2,0,L|394:267,1,47.9999985351563,0|0,0:0|0:0,0:0:0:0:
179,175,203359,5,0,0:0:0:0:
512,93,203571,1,0,0:0:0:0:
357,380,203782,1,8,0:0:0:0:
256,38,203994,1,0,0:0:0:0:
397,224,204204,6,0,P|352:240|305:242,1,95.9999970703126,0|0,0:0|0:0,0:0:0:0:
87,193,204627,2,0,P|131:176|179:175,1,95.9999970703126,8|0,0:0|0:0,0:0:0:0:
260,344,205050,5,0,0:0:0:0:
43,269,205261,1,0,0:0:0:0:
251,140,205472,1,8,0:0:0:0:
148,361,205683,1,0,0:0:0:0:
26,129,205895,5,4,0:1:0:0:
278,216,206106,1,4,0:1:0:0:
4,236,206317,1,8,0:0:0:0:
234,51,206528,1,0,0:0:0:0:
199,283,206740,5,0,0:0:0:0:
120,86,206951,1,0,0:0:0:0:
347,277,207162,1,8,0:0:0:0:
397,48,207373,1,0,0:0:0:0:
397,48,207479,1,0,0:0:0:0:
397,48,207585,1,0,0:0:0:0:
199,152,207796,1,0,0:0:0:0:
440,236,208007,1,8,0:0:0:0:
282,371,208219,1,0,0:0:0:0:
353,149,208430,5,2,0:0:0:0:
448,362,208641,1,0,0:0:0:0:
226,247,208852,1,8,0:0:0:0:
473,164,209063,1,0,0:0:0:0:
473,164,209169,1,0,0:0:0:0:
473,164,209275,1,12,0:1:0:0:
189,228,209486,1,4,0:1:0:0:
410,362,209697,1,8,0:0:0:0:
258,153,209909,6,0,P|171:126|98:183,1,191.999994140625,2|0,0:0|0:0,0:0:0:0:
297,248,210542,1,8,0:0:0:0:
406,23,210753,1,0,0:0:0:0:
406,23,210859,1,0,0:0:0:0:
406,23,210965,1,4,0:1:0:0:
323,286,211176,1,0,0:0:0:0:
191,47,211387,1,8,0:0:0:0:
398,217,211599,6,0,P|425:304|368:377,1,191.999994140625,2|0,0:0|0:0,0:0:0:0:
164,317,212233,1,8,0:0:0:0:
345,165,212444,1,0,0:0:0:0:
345,165,212550,1,0,0:0:0:0:
345,165,212655,1,4,0:1:0:0:
205,331,212866,1,0,0:0:0:0:
134,106,213078,1,8,0:0:0:0:
328,356,213289,6,0,L|345:163,1,191.999994140625,2|0,0:0|0:0,0:0:0:0:
100,197,213923,1,8,0:0:0:0:
252,303,214134,1,0,0:0:0:0:
252,303,214240,1,0,0:0:0:0:
252,303,214345,1,0,0:0:0:0:
162,92,214557,1,0,0:0:0:0:
26,270,214768,1,8,0:0:0:0:
86,230,214873,1,0,0:0:0:0:
154,204,214979,1,0,0:0:0:0:
223,193,215084,1,0,0:0:0:0:
296,196,215190,5,4,0:0:0:0:
67,85,215402,1,0,0:0:0:0:
85,338,215613,1,8,0:0:0:0:
315,156,215824,5,0,0:0:0:0:
315,156,215930,1,0,0:0:0:0:
315,156,216035,1,0,0:0:0:0:
25,79,216247,1,0,0:0:0:0:
103,368,216458,1,8,0:0:0:0:
425,241,216669,5,6,0:0:0:0:
459,273,218571,5,6,0:0:0:0:
271,5,218782,1,0,0:0:0:0:
139,309,218993,1,8,0:0:0:0:
468,252,219204,5,2,0:0:0:0:
246,7,219415,1,0,0:0:0:0:
153,326,219626,1,8,0:0:0:0:
474,230,219838,5,2,0:0:0:0:
222,14,220049,1,0,0:0:0:0:
171,341,220260,1,8,0:0:0:0:
476,208,220471,5,2,0:0:0:0:
200,25,220682,1,2,0:0:0:0:
191,352,220895,1,8,0:0:0:0:
419,95,221106,5,2,0:0:0:0:
82,209,221317,1,8,0:0:0:0:
271,5,221528,5,2,0:0:0:0:
466,296,221739,1,8,0:0:0:0:
460,272,221845,1,0,0:0:0:0:
453,251,221951,6,0,L|293:244,1,160,4|8,0:0|0:0,0:0:0:0:
156,303,222584,1,0,0:0:0:0:
271,168,222796,2,0,P|286:204|294:244,1,80,0|0,0:0|0:0,0:0:0:0:
180,378,223218,2,0,P|165:342|156:303,1,80,10|0,0:0|0:0,0:0:0:0:
180,378,223641,6,0,P|156:303|159:223,1,160,2|8,0:0|0:0,0:0:0:0:
374,247,224274,2,0,L|294:244,1,80,0|0,0:0|0:0,0:0:0:0:
189,144,224697,1,0,0:0:0:0:
53,288,224908,1,10,0:0:0:0:
159,223,225120,1,0,0:0:0:0:
330,369,225331,6,0,P|253:350|180:378,1,160,4|8,0:0|0:0,0:0:0:0:
23,367,225965,1,0,0:0:0:0:
173,298,226176,2,0,L|180:378,1,80,0|0,0:0|0:0,0:0:0:0:
46,208,226598,2,0,L|53:288,1,80,10|0,0:0|0:0,0:0:0:0:
46,208,227021,6,0,L|62:367,1,160,2|8,0:0|0:0,0:0:0:0:
254,351,227654,2,0,P|214:358|180:378,1,80,0|0,0:0|0:0,0:0:0:0:
14,292,228077,1,2,0:0:0:0:
224,216,228289,1,8,0:3:0:0:
62,367,228500,1,10,0:3:0:0:
11,123,228711,6,0,B|90:114|90:114|167:134,1,160,4|8,0:0|0:0,0:0:0:0:
321,208,229345,1,0,0:0:0:0:
187,57,229556,2,0,P|172:94|167:134,1,80,0|0,0:0|0:0,0:0:0:0:
302,284,229979,2,0,P|317:247|321:208,1,80,10|0,0:0|0:0,0:0:0:0:
303,283,230401,6,0,P|321:207|298:131,1,160,2|8,0:0|0:0,0:0:0:0:
90,114,231035,2,0,B|167:134,1,80,0|0,0:0|0:0,0:0:0:0:
279,41,231458,1,0,0:0:0:0:
321,207,231669,1,10,0:0:0:0:
209,146,231880,1,0,0:0:0:0:
104,306,232091,5,4,0:0:0:0:
217,120,232303,1,0,0:0:0:0:
303,283,232514,1,8,0:0:0:0:
173,223,232725,1,2,0:0:0:0:
339,131,232936,1,0,0:0:0:0:
220,296,233148,1,0,0:0:0:0:
123,86,233359,1,10,0:0:0:0:
29,285,233570,6,0,P|65:303|104:306,1,80,2|0,0:3|0:0,0:0:0:0:
224,279,233993,1,2,0:3:0:0:
224,279,234098,1,4,0:1:0:0:
224,279,234204,1,4,0:3:0:0:
132,145,234415,1,0,0:0:0:0:
132,145,234521,1,4,0:1:0:0:
132,145,234627,1,4,0:3:0:0:
98,331,234838,5,8,0:3:0:0:
331,276,235049,1,0,0:0:0:0:
137,227,235260,1,0,0:0:0:0:
379,376,235472,1,4,0:0:0:0:
256,192,235578,12,0,238852,0:0:0:0:
