osu file format v14

[General]
AudioFilename: audio.mp3
AudioLeadIn: 0
PreviewTime: 188148
Countdown: 0
SampleSet: Soft
StackLeniency: 0.7
Mode: 0
LetterboxInBreaks: 0
EpilepsyWarning: 1
WidescreenStoryboard: 1

[Editor]
Bookmarks: 14064,27585,41106
DistanceSpacing: 1.1
BeatDivisor: 4
GridSize: 32
TimelineZoom: 1

[Metadata]
Title:Harumachi Clover
TitleUnicode:春待ちクローバー
Artist:Hanasaka Yui(CV: M.A.O)
ArtistUnicode:花坂結衣(CV:M・A・O)
Creator:Deppyforce
Version:Easy
Source:OneRoom
Tags:市道 真央 ichimichi mao 1 one room ending full size version カントク kantoku -_frontier_- kawashiro mkguh shockolatte shmiklak
BeatmapID:1401607
BeatmapSetID:662120

[Difficulty]
HPDrainRate:3
CircleSize:3
OverallDifficulty:2.5
ApproachRate:3
SliderMultiplier:0.8
SliderTickRate:1

[Events]
//Background and Video events
0,0,"clover.png",0,0
//Break Periods
2,86940,98821
//Storyboard Layer 0 (Background)
//Storyboard Layer 1 (Fail)
//Storyboard Layer 2 (Pass)
//Storyboard Layer 3 (Foreground)
//Storyboard Sound Samples

[TimingPoints]
543,422.535211267606,4,2,1,55,1,0
14064,-100,4,2,1,50,0,0
41106,-100,4,2,1,45,0,0
51247,-100,4,2,1,50,0,0
56317,-100,4,2,1,60,0,1
69733,-100,4,2,1,60,0,0
69838,-100,4,2,1,60,0,1
83359,-100,4,2,1,60,0,0
86740,-100,4,2,1,50,0,0
100261,-100,4,2,1,45,0,0
110402,-100,4,2,1,50,0,0
115472,-100,4,2,1,60,0,1
128888,-100,4,2,1,60,0,0
128993,-100,4,2,1,60,0,1
142514,-100,4,2,1,45,0,0
159416,-100,4,2,1,55,0,0
172937,-100,4,2,1,45,0,0
188148,-100,4,2,1,40,0,0
194909,-100,4,2,1,60,0,1
201564,-100,4,2,1,60,0,0
201669,-100,4,2,1,60,0,1
216669,-100,4,2,1,60,0,0
218571,-100,4,2,1,60,0,1
221951,-100,4,2,1,55,0,0

[Colours]
Combo1 : 117,158,179
Combo2 : 155,197,139
Combo3 : 210,192,138
Combo4 : 198,147,176

[HitObjects]
146,343,543,6,0,P|89:358|35:333,2,120,4|0|10,0:0|0:0|0:0,0:0:0:0:
206,277,2233,2,0,P|152:252|95:267,2,120,2|0|10,0:0|0:0|0:0,0:0:0:0:
256,352,3923,2,0,P|199:367|145:342,2,120,4|0|10,0:0|0:0|0:0,0:0:0:0:
316,286,5613,2,0,P|262:261|205:276,1,120,2|0,0:0|0:0,0:0:0:0:
145,342,6670,1,2,0:0:0:0:
14,304,7303,6,0,L|7:184,2,120,4|0|10,0:0|0:0|0:0,0:0:0:0:
96,268,8993,2,0,L|89:148,2,120,2|0|10,0:0|0:0|0:0,0:0:0:0:
178,232,10683,2,0,B|171:112|171:112|204:134,1,160,4|2,0:0|0:0,0:0:0:0:
264,251,12162,2,0,L|257:131,1,120,2|12,0:3|0:3,0:0:0:0:
344,120,13219,2,0,L|348:199,1,80,4|12,0:3|0:1,0:0:0:0:
426,241,14064,6,0,P|450:166|427:90,1,160,4|0,0:0|0:0,0:0:0:0:
344,120,15331,1,8,0:0:0:0:
264,82,15754,2,0,L|184:80,2,80,0|8|0,0:0|0:0|0:0,0:0:0:0:
344,120,17021,1,8,0:0:0:0:
427,90,17444,6,0,P|450:166|426:241,1,160,2|0,0:0|0:0,0:0:0:0:
350,289,18712,1,8,0:0:0:0:
348,199,19134,2,0,L|344:120,2,80,0|8|0,0:0|0:0|0:0,0:0:0:0:
426,241,20402,1,12,0:0:0:0:
350,289,20824,6,0,B|312:304|272:294|272:294|231:282|193:296,1,160,2|0,0:0|0:0,0:0:0:0:
128,356,22092,1,8,0:0:0:0:
44,328,22514,2,0,P|27:291|26:252,2,80,0|8|0,0:0|0:0|0:0,0:0:0:0:
128,356,23783,1,8,0:0:0:0:
193,296,24204,6,0,P|195:256|183:218,2,80,2|8|2,0:0|0:0|0:0,0:0:0:0:
128,356,25472,1,8,0:0:0:0:
44,328,25895,2,0,P|27:291|26:252,2,80,2|10|0,0:0|0:0|0:0,0:0:0:0:
128,356,27162,1,6,0:3:0:0:
193,296,27585,6,0,B|231:282|272:294|272:294|312:304|350:289,1,160,4|0,0:0|0:0,0:0:0:0:
426,241,28852,1,8,0:0:0:0:
348,199,29275,2,0,L|344:120,2,80,0|8|0,0:0|0:0|0:0,0:0:0:0:
350,289,30543,1,8,0:0:0:0:
426,240,30965,6,0,P|450:166|427:90,1,160,2|0,0:0|0:0,0:0:0:0:
361,31,32233,1,8,0:0:0:0:
340,117,32655,2,0,P|363:192|426:241,1,160,0|0,0:0|0:0,0:0:0:0:
473,166,33923,1,12,0:3:0:0:
427,91,34345,6,0,L|259:60,1,160,2|0,0:0|0:0,0:0:0:0:
226,139,35613,1,8,0:0:0:0:
183,218,36035,2,0,P|195:256|193:296,2,80,0|8|0,0:0|0:0|0:0,0:0:0:0:
96,197,37303,1,8,0:0:0:0:
25,252,37726,6,0,P|27:291|44:328,2,80,2|8|2,0:0|0:0|0:0,0:0:0:0:
96,197,38993,1,8,0:0:0:0:
183,218,39416,2,0,B|195:256|195:256|193:296,2,80,2|8|2,0:0|0:0|0:0,0:0:0:0:
157,133,40683,1,10,0:0:0:0:
96,197,41106,6,0,B|136:197|167:164|167:164|237:202|237:202|268:172|308:172,1,240,4|8,0:0|0:3,0:0:0:0:
343,252,42796,2,0,P|394:154|309:83,1,240,8|8,0:3|0:3,0:0:0:0:
308,170,44486,6,0,P|393:241|342:340,1,240,2|8,0:0|0:3,0:0:0:0:
307,260,46176,2,0,B|267:260|236:290|236:290|166:252|166:252|135:285|95:285,1,240,8|8,0:3|0:3,0:0:0:0:
33,220,47866,6,0,L|25:100,2,120,2|2|8,0:0|0:0|0:0,0:0:0:0:
115,252,49557,2,0,L|107:372,2,120,2|2|8,0:0|0:0|0:0,0:0:0:0:
197,220,51247,6,0,B|238:214|276:223,2,80,2|8|2,0:0|0:0|0:0,0:0:0:0:
115,252,52514,1,8,0:0:0:0:
78,172,52937,2,0,B|37:166|-2:174,2,80,2|8|2,0:0|0:0|0:0,0:0:0:0:
115,252,54204,1,8,0:0:0:0:
197,220,54627,6,0,B|238:214|238:214|274:222,2,80,2|10|2,0:0|0:0|0:3,0:0:0:0:
115,252,55895,1,8,0:3:0:0:
78,171,56317,6,0,P|139:124|218:128,1,160,4|4,0:0|0:1,0:0:0:0:
273,59,57585,1,8,0:0:0:0:
341,114,58007,2,0,L|420:120,2,80,4|8|0,0:1|0:0|0:0,0:0:0:0:
273,59,59275,1,8,0:0:0:0:
218,128,59697,6,0,P|139:124|78:171,1,160,2|4,0:0|0:1,0:0:0:0:
115,252,60965,1,8,0:0:0:0:
197,220,61388,2,0,B|238:214|238:214|274:222,2,80,4|8|0,0:1|0:0|0:0,0:0:0:0:
115,252,62656,1,8,0:0:0:0:
78,171,63078,6,0,P|139:124|218:128,1,160,2|4,0:0|0:1,0:0:0:0:
273,59,64346,1,8,0:0:0:0:
341,114,64768,2,0,P|402:81|355:29,1,160,2|4,0:0|0:1,0:0:0:0:
273,59,66036,1,8,0:0:0:0:
218,128,66458,6,0,P|139:124|78:171,1,160,2|4,0:0|0:1,0:0:0:0:
115,252,67726,1,8,0:0:0:0:
197,220,68149,2,0,B|238:214|238:214|274:222,2,80,6|14|0,0:0|0:0|0:0,0:0:0:0:
115,252,69417,1,12,0:3:0:0:
154,331,69838,6,0,P|231:344|300:306,1,160,4|4,0:0|0:1,0:0:0:0:
275,222,71106,1,8,0:0:0:0:
308,140,71528,2,0,L|403:139,2,80,0|8|0,0:0|0:0|0:0,0:0:0:0:
275,222,72796,1,8,0:0:0:0:
300,306,73219,6,0,P|231:344|154:331,1,160,2|4,0:0|0:1,0:0:0:0:
115,252,74486,1,8,0:0:0:0:
197,220,74909,2,0,B|238:214|238:214|274:222,2,80,0|8|4,0:0|0:0|0:1,0:0:0:0:
115,252,76176,1,8,0:0:0:0:
154,330,76599,6,0,P|231:344|300:306,1,160,2|12,0:0|0:0,0:0:0:0:
428,335,78078,2,0,L|433:215,1,120,2|8,0:0|0:0,0:0:0:0:
385,139,79134,1,4,0:1:0:0:
259,111,79768,6,0,L|253:230,1,120,2|8,0:0|0:0,0:0:0:0:
302,307,80824,1,4,0:1:0:0:
428,335,81458,2,0,L|433:215,1,120,2|8,0:0|0:0,0:0:0:0:
384,138,82514,1,0,0:0:0:0:
298,116,82937,1,10,0:3:0:0:
215,147,83359,6,0,L|210:267,1,120,6|2,0:0|0:0,0:0:0:0:
125,368,84627,2,0,L|116:234,1,120,2|2,0:0|0:0,0:0:0:0:
38,141,85895,2,0,L|33:239,1,80,2|2,0:0|0:0,0:0:0:0:
29,309,86740,5,4,0:0:0:0:
195,261,100261,6,0,B|116:274|116:274|58:219|58:219|57:139,1,240,4|8,0:0|0:3,0:0:0:0:
118,76,101951,2,0,B|197:63|197:63|255:118|255:118|256:198,1,240,8|8,0:3|0:3,0:0:0:0:
317,261,103641,6,0,B|396:274|396:274|454:219|454:219|455:139,1,240,2|8,0:0|0:3,0:0:0:0:
394,76,105331,2,0,B|315:63|315:63|257:118|257:118|256:198,1,240,8|8,0:3|0:3,0:0:0:0:
195,261,107021,6,0,P|138:280|79:276,2,120,2|2|8,0:0|0:0|0:0,0:0:0:0:
256,198,108712,2,0,P|312:217|371:213,2,120,2|2|8,0:0|0:0|0:0,0:0:0:0:
194,135,110402,6,0,P|156:146|116:147,2,80,2|8|2,0:0|0:0|0:0,0:0:0:0:
256,72,111669,1,8,0:0:0:0:
337,106,112092,2,0,P|375:117|415:118,2,80,2|8|2,0:0|0:0|0:0,0:0:0:0:
256,72,113359,1,8,0:0:0:0:
194,135,113782,6,0,B|156:146|156:146|116:147,2,80,2|10|2,0:0|0:0|0:3,0:0:0:0:
256,72,115049,1,8,0:3:0:0:
337,106,115472,6,0,L|352:272,1,160,4|4,0:0|0:1,0:0:0:0:
421,319,116740,1,8,0:0:0:0:
503,286,117162,2,0,L|506:206,2,80,0|8|0,0:0|0:0|0:0,0:0:0:0:
421,319,118430,1,8,0:0:0:0:
351,265,118852,6,0,L|337:106,1,160,0|4,0:0|0:1,0:0:0:0:
256,72,120120,1,8,0:0:0:0:
194,135,120542,2,0,P|156:146|116:147,2,80,0|8|0,0:0|0:0|0:0,0:0:0:0:
256,72,121810,1,8,0:0:0:0:
337,106,122233,6,0,L|352:272,1,160,2|4,0:0|0:1,0:0:0:0:
421,319,123501,1,8,0:0:0:0:
503,286,123923,2,0,B|508:206|508:206|432:232,1,160,2|4,0:0|0:1,0:0:0:0:
421,319,125191,1,8,0:0:0:0:
351,265,125613,6,0,L|337:106,1,160,2|4,0:0|0:1,0:0:0:0:
256,72,126881,1,8,0:0:0:0:
194,135,127303,2,0,P|156:146|116:147,2,80,6|6|6,0:0|0:0|0:0,0:0:0:0:
256,72,128571,1,4,0:3:0:0:
280,158,128994,6,0,L|265:324,1,160,4|0,0:0|0:0,0:0:0:0:
179,335,130261,1,8,0:0:0:0:
94,311,130684,2,0,L|90:231,2,80,0|8|0,0:0|0:0|0:0,0:0:0:0:
179,335,131952,1,8,0:0:0:0:
265,317,132374,6,0,L|279:157,1,160,2|4,0:0|0:1,0:0:0:0:
361,124,133642,1,8,0:0:0:0:
422,187,134064,2,0,L|425:266,2,80,0|8|4,0:0|0:0|0:1,0:0:0:0:
361,124,135332,1,8,0:0:0:0:
280,158,135754,6,0,L|265:324,1,160,2|12,0:0|0:0,0:0:0:0:
179,217,137232,2,0,P|124:239|67:224,1,120,0|8,0:0|0:0,0:0:0:0:
24,147,138288,1,4,0:1:0:0:
94,34,138923,6,0,P|148:11|205:26,1,120,2|8,0:0|0:0,0:0:0:0:
249,104,139979,1,4,0:1:0:0:
179,217,140613,2,0,P|124:239|67:224,1,120,2|8,0:0|0:0,0:0:0:0:
24,147,141669,1,4,0:1:0:0:
108,121,142092,1,10,0:3:0:0:
94,33,142514,6,0,B|150:8|150:8|205:25,1,120,4|4,0:0|0:3,0:0:0:0:
249,104,143570,1,8,0:3:0:0:
238,194,143993,2,0,B|226:252|183:274|183:274|100:220|108:121,1,280,4|2,0:1|0:0,0:0:0:0:
94,33,145895,6,0,B|150:8|150:8|205:25,1,120,2|4,0:0|0:3,0:0:0:0:
249,104,146951,1,8,0:3:0:0:
238,194,147374,2,0,B|226:252|183:274|183:274|100:220|108:121,1,280,4|4,0:1|0:1,0:0:0:0:
94,33,149275,6,0,B|150:8|150:8|205:25,1,120,2|4,0:0|0:3,0:0:0:0:
249,104,150331,1,8,0:3:0:0:
238,194,150754,2,0,B|226:252|183:274|183:274|131:242|119:199,1,200,4|4,1:0|1:0,0:0:0:0:
163,123,152233,1,0,0:0:0:0:
249,104,152655,6,0,L|368:109,2,120,2|2|10,0:0|0:0|0:0,0:0:0:0:
238,194,154345,2,0,L|317:197,1,80,2|10,0:0|0:0,0:0:0:0:
306,287,155190,2,0,L|227:284,1,80,2|10,0:0|0:0,0:0:0:0:
152,236,156035,5,6,0:0:0:0:
256,192,156247,12,4,159416,0:0:0:0:
56,123,161106,6,0,B|98:105|118:80|118:80|177:149|265:126,1,240,0|8,0:0|0:0,0:0:0:0:
349,101,162796,2,0,L|354:180,1,80,0|8,0:0|0:0,0:0:0:0:
440,201,163641,2,0,L|434:280,1,80,0|8,0:0|0:0,0:0:0:0:
367,338,164486,2,0,P|417:367|475:357,2,120,0|0|8,0:0|0:0|0:0,0:0:0:0:
312,270,166176,6,0,B|240:303|240:303|160:290,1,160,6|8,0:0|0:0,0:0:0:0:
44,230,167655,2,0,P|22:174|32:116,1,120,2|8,0:0|0:0,0:0:0:0:
97,56,168712,1,0,0:0:0:0:
213,117,169345,2,0,P|234:172|224:230,1,120,6|8,0:0|0:0,0:0:0:0:
161,291,170402,1,0,0:0:0:0:
44,230,171035,2,0,P|22:174|32:116,1,120,2|8,0:0|0:0,0:0:0:0:
81,42,172092,1,0,0:0:0:0:
160,78,172514,1,10,0:0:0:0:
139,164,172937,6,0,L|372:220,1,240,6|8,0:0|0:3,0:0:0:0:
317,294,174627,2,0,L|193:89,1,240,8|8,0:3|0:3,0:0:0:0:
284,75,176317,6,0,L|228:309,1,240,2|8,0:0|0:3,0:0:0:0:
153,254,178007,2,0,L|358:130,1,240,8|8,0:3|0:3,0:0:0:0:
372,220,179697,6,0,P|424:192|449:139,2,120,2|2|8,0:0|0:0|0:0,0:0:0:0:
317,294,181388,2,0,P|373:309|428:289,2,120,2|2|8,0:0|0:0|0:0,0:0:0:0:
281,210,183078,6,0,L|275:128,1,80,2|8,0:0|0:0,0:0:0:0:
188,113,183923,2,0,L|182:192,1,80,2|8,0:0|0:0,0:0:0:0:
110,244,184768,2,0,P|72:254|32:251,2,80,2|8|2,0:0|0:0|0:0,0:0:0:0:
182,192,186035,1,8,0:0:0:0:
152,108,186458,6,0,P|113:97|73:100,2,80,2|10|2,0:0|0:0|0:3,0:0:0:0:
182,192,187726,1,8,0:3:0:0:
110,244,188148,6,0,B|172:220|228:231|228:231|257:258|265:300|265:300|326:268|379:269,1,320,4|2,0:0|0:0,0:0:0:0:
379,269,191529,6,0,B|326:268|265:300|265:300|257:258|228:231|228:231|172:220|110:244,1,320,2|2,0:0|0:0,0:0:0:0:
68,120,193852,2,0,L|188:113,1,120,8|8,0:0|0:3,0:0:0:0:
256,57,194909,6,0,L|424:66,1,160,4|0,0:0|0:0,0:0:0:0:
460,141,196176,1,8,0:0:0:0:
387,191,196599,2,0,P|375:229|379:269,2,80,0|8|4,0:0|0:0|0:1,0:0:0:0:
460,141,197866,1,8,0:0:0:0:
415,66,198290,6,0,L|256:57,1,160,0|0,0:0|0:0,0:0:0:0:
187,113,199557,1,8,0:0:0:0:
104,82,199979,2,0,L|90:4,2,80,6|14|6,0:0|0:0|0:0,0:0:0:0:
187,113,201247,1,12,0:3:0:0:
256,57,201669,6,0,L|415:66,1,160,4|4,0:0|0:1,0:0:0:0:
460,141,202937,1,8,0:0:0:0:
387,191,203359,2,0,P|375:229|379:269,2,80,0|8|0,0:0|0:0|0:0,0:0:0:0:
460,141,204628,1,8,0:0:0:0:
415,66,205050,6,0,L|256:57,1,160,0|4,0:0|0:1,0:0:0:0:
187,113,206317,1,8,0:0:0:0:
104,82,206740,2,0,L|90:4,2,80,0|8|0,0:0|0:0|0:0,0:0:0:0:
187,113,208007,1,8,0:0:0:0:
256,57,208430,6,0,L|415:66,1,160,2|12,0:0|0:1,0:0:0:0:
494,171,209909,2,0,P|507:229|500:288,1,120,2|8,0:0|0:0,0:0:0:0:
430,342,210965,1,12,0:0:0:0:
308,289,211599,6,0,P|294:230|301:171,1,120,2|8,0:0|0:0,0:0:0:0:
372,118,212656,1,4,0:1:0:0:
494,171,213289,2,0,P|507:229|500:288,1,120,2|8,0:0|0:0,0:0:0:0:
430,342,214346,1,0,0:0:0:0:
394,261,214768,1,8,0:0:0:0:
307,288,215190,6,0,P|296:250|293:210,1,80,4|8,0:0|0:0,0:0:0:0:
345,138,216035,1,0,0:0:0:0:
394,260,216669,1,6,0:0:0:0:
394,260,218571,6,0,L|514:260,2,120,6|2|2,0:0|0:0|0:0,0:0:0:0:
291,343,220472,2,0,L|250:228,1,120,2|2,0:0|0:0,0:0:0:0:
171,191,221528,1,2,0:0:0:0:
202,108,221951,6,0,B|259:92|259:92|313:118,2,120,4|0|10,0:0|0:0|0:0,0:0:0:0:
142,174,223641,2,0,B|196:200|196:200|253:184,2,120,2|0|10,0:0|0:0|0:0,0:0:0:0:
90,98,225331,2,0,B|147:82|147:82|201:108,2,120,4|0|10,0:0|0:0|0:0,0:0:0:0:
30,164,227021,2,0,B|84:190|84:190|141:174,1,120,2|0,0:0|0:0,0:0:0:0:
201,108,228078,1,2,0:0:0:0:
328,141,228712,6,0,P|359:191|370:250,2,120,4|0|10,0:0|0:0|0:0,0:0:0:0:
251,185,230402,2,0,P|263:243|253:302,2,120,2|0|10,0:0|0:0|0:0,0:0:0:0:
164,200,232091,2,0,P|147:277|92:333,1,160,4|0,0:0|0:0,0:0:0:0:
12,227,233571,2,0,P|41:176|93:147,1,120,2|4,0:3|0:3,0:0:0:0:
164,200,234627,2,0,P|201:211|241:208,1,80,4|4,0:3|0:1,0:0:0:0:
327,192,235472,5,4,0:0:0:0:
256,192,235683,12,0,238852,0:0:0:0:
