osu file format v14

[General]
AudioFilename: audio.mp3
AudioLeadIn: 0
PreviewTime: 284
Countdown: 0
SampleSet: Soft
StackLeniency: 0.7
Mode: 0
LetterboxInBreaks: 0
WidescreenStoryboard: 0

[Editor]
DistanceSpacing: 1.4
BeatDivisor: 4
GridSize: 8
TimelineZoom: 1.5

[Metadata]
Title:Harumachi Clover
TitleUnicode:Harumachi Clover
Artist:Hanasaka Yui(CV: M.A.O)
ArtistUnicode:Hanasaka Yui(CV: M.A.O)
Creator:Cyrax
Version:Extra
Source:
Tags:
BeatmapID:1749693
BeatmapSetID:835405

[Difficulty]
HPDrainRate:6
CircleSize:4
OverallDifficulty:8.7
ApproachRate:8.6
SliderMultiplier:1.6
SliderTickRate:1

[Events]
//Background and Video events
0,0,"theboi2.jpg",0,0
//Break Periods
//Storyboard Layer 0 (Background)
//Storyboard Layer 1 (Fail)
//Storyboard Layer 2 (Pass)
//Storyboard Layer 3 (Foreground)
//Storyboard Sound Samples

[TimingPoints]
-349,422.535211267606,4,2,0,100,1,0
22467,-125,4,2,0,100,0,0

[HitObjects]
96,168,284,5,0,0:0:0:0:
400,80,496,1,0,0:0:0:0:
120,248,707,1,0,0:0:0:0:
240,96,918,2,0,L|240:16,2,80
384,240,1552,5,0,0:0:0:0:
112,320,1763,1,10,0:0:0:0:
408,336,1974,5,0,0:0:0:0:
120,192,2186,1,0,0:0:0:0:
320,152,2397,2,0,L|320:72,1,80,0|10,0:0|0:0,0:0:0:0:
440,272,2820,1,0,0:0:0:0:
440,272,2925,1,0,0:0:0:0:
440,272,3031,5,0,0:0:0:0:
328,232,3242,1,0,0:0:0:0:
376,96,3453,1,10,0:0:0:0:
280,104,3665,2,0,B|240:152|224:112|280:192|224:248,1,160
56,248,4298,1,10,0:0:0:0:
176,88,4510,1,0,0:0:0:0:
176,88,4616,1,0,0:0:0:0:
176,88,4721,5,0,0:0:0:0:
448,136,4932,1,0,0:0:0:0:
176,192,5143,5,10,0:0:0:0:
432,56,5355,1,0,0:0:0:0:
232,88,5566,2,0,L|232:-8,2,80,0|0|14,0:0|0:0|0:0,0:0:0:0:
232,88,6200,1,0,0:0:0:0:
120,248,6411,5,0,0:0:0:0:
392,96,6622,1,0,0:0:0:0:
112,80,6834,5,10,0:0:0:0:
328,208,7045,2,0,B|400:240|400:240|320:272,1,160
128,96,7679,1,10,0:0:0:0:
128,248,7890,1,0,0:0:0:0:
128,248,7996,1,0,0:0:0:0:
128,248,8101,1,0,0:0:0:0:
408,128,8312,1,0,0:0:0:0:
112,72,8524,1,10,0:0:0:0:
240,248,8735,2,0,L|240:336,2,80
240,80,9369,1,10,0:0:0:0:
88,168,9580,5,0,0:0:0:0:
88,168,9686,1,0,0:0:0:0:
88,168,9791,1,0,0:0:0:0:
168,304,10003,5,0,0:0:0:0:
320,32,10214,1,10,0:0:0:0:
424,288,10425,5,0,0:0:0:0:
160,72,10636,1,0,0:0:0:0:
80,304,10848,5,0,0:0:0:0:
320,168,11059,1,10,0:0:0:0:
136,168,11270,5,0,0:0:0:0:
144,192,11376,1,0,0:0:0:0:
152,216,11481,5,0,0:0:0:0:
432,48,11693,2,0,L|432:136,2,80
480,24,12327,1,0,0:0:0:0:
267,22,12538,5,0,0:0:0:0:
329,310,12749,1,0,0:0:0:0:
64,200,12960,5,0,0:0:0:0:
144,96,13172,5,4,0:0:0:0:
216,160,13383,1,0,0:0:0:0:
192,256,13594,1,4,0:0:0:0:
32,64,13805,2,0,L|-24:-8,2,80,0|4|0,0:0|0:0|0:0,0:0:0:0:
80,112,14334,1,0,0:0:0:0:
98,146,14439,1,0,0:0:0:0:
131,168,14545,1,0,0:0:0:0:
171,173,14650,1,0,0:0:0:0:
208,158,14756,1,0,0:0:0:0:
240,128,14862,5,0,0:0:0:0:
472,40,15073,1,0,0:0:0:0:
208,16,15284,5,10,0:0:0:0:
464,272,15496,1,0,0:0:0:0:
56,256,15707,5,0,0:0:0:0:
144,96,15918,1,0,0:0:0:0:
184,288,16129,5,10,0:0:0:0:
40,48,16341,1,0,0:0:0:0:
256,136,16552,5,0,0:0:0:0:
376,128,16763,2,0,L|456:216,2,80,0|10|0,0:0|0:0|0:0,0:0:0:0:
376,128,17397,1,0,0:0:0:0:
200,112,17608,1,0,0:0:0:0:
376,128,17820,1,10,0:0:0:0:
200,112,18031,1,0,0:0:0:0:
376,128,18242,5,0,0:0:0:0:
304,328,18453,1,0,0:0:0:0:
280,112,18665,5,10,0:0:0:0:
392,352,18876,1,0,0:0:0:0:
384,72,19087,5,0,0:0:0:0:
88,112,19298,1,0,0:0:0:0:
352,328,19510,5,10,0:0:0:0:
352,72,19721,1,0,0:0:0:0:
88,112,19932,5,0,0:0:0:0:
328,200,20143,1,0,0:0:0:0:
104,232,20355,5,10,0:0:0:0:
320,96,20566,1,0,0:0:0:0:
168,56,20777,5,0,0:0:0:0:
312,288,20988,1,0,0:0:0:0:
280,80,21200,5,10,0:0:0:0:
192,312,21411,1,0,0:0:0:0:
192,312,21517,1,0,0:0:0:0:
192,312,21622,5,0,0:0:0:0:
392,264,21834,1,0,0:0:0:0:
184,224,22045,5,10,0:0:0:0:
392,336,22256,1,0,0:0:0:0:
224,328,22467,6,0,L|160:328,2,64,0|0|10,0:0|0:0|0:0,0:0:0:0:
224,328,23101,1,0,0:0:0:0:
224,328,23312,5,0,0:0:0:0:
392,256,23524,1,0,0:0:0:0:
376,352,23735,5,10,0:0:0:0:
200,240,23946,1,0,0:0:0:0:
384,232,24158,5,0,0:0:0:0:
232,336,24369,1,0,0:0:0:0:
368,344,24580,5,10,0:0:0:0:
248,136,24791,1,0,0:0:0:0:
136,320,25003,5,0,0:0:0:0:
248,136,25214,1,0,0:0:0:0:
296,184,25425,1,10,0:0:0:0:
336,232,25636,5,0,0:0:0:0:
336,232,25742,1,0,0:0:0:0:
336,232,25847,1,0,0:0:0:0:
408,80,26059,5,0,0:0:0:0:
344,224,26270,1,10,0:0:0:0:
408,80,26481,5,0,0:0:0:0:
344,216,26693,5,0,0:0:0:0:
160,320,26904,1,0,0:0:0:0:
368,328,27115,5,10,0:0:0:0:
192,256,27327,1,0,0:0:0:0:
352,256,27538,5,0,0:0:0:0:
264,272,27749,5,0,0:0:0:0:
184,264,27960,5,0,0:0:0:0:
160,256,28065,1,0,0:0:0:0:
144,224,28171,1,0,0:0:0:0:
152,200,28276,1,0,0:0:0:0:
256,192,28383,12,4,30496,0:0:0:0:
