osu file format v14

[General]
AudioFilename: audio.mp3
AudioLeadIn: 0
PreviewTime: 179
Countdown: 0
SampleSet: Soft
StackLeniency: 0.7
Mode: 2
LetterboxInBreaks: 0
WidescreenStoryboard: 0

[Editor]
DistanceSpacing: 0.9
BeatDivisor: 4
GridSize: 32
TimelineZoom: 1

[Metadata]
Title:Harumachi Clover
TitleUnicode:春待ちクローバー
Artist:Hanasaka Yui(CV: M.A.O)
ArtistUnicode:花坂結衣(CV:M・A・O)
Creator:Ascendance
Version:Salad
Source:OneRoom
Tags:tvsize kantoku カントク one room ワンルーム ZiRoX Tenshichan [superstar] alienflybot
BeatmapID:1291408
BeatmapSetID:611826

[Difficulty]
HPDrainRate:4
CircleSize:3
OverallDifficulty:7
ApproachRate:7
SliderMultiplier:1.6
SliderTickRate:2

[Events]
//Background and Video events
0,0,"harumachi1.jpg",0,0
//Break Periods
//Storyboard Layer 0 (Background)
//Storyboard Layer 1 (Fail)
//Storyboard Layer 2 (Pass)
//Storyboard Layer 3 (Foreground)
//Storyboard Sound Samples

[TimingPoints]
-349,422.535211267606,4,2,1,50,1,0
1341,-100,4,2,1,100,0,0
23418,-100,4,2,1,5,0,0
23524,-100,4,2,1,100,0,0
28489,-100,4,2,1,65,0,0
29334,-100,4,2,1,45,0,0
30284,-100,4,2,1,5,0,0

[Colours]
Combo1 : 79,146,197
Combo2 : 186,118,169
Combo3 : 160,215,228
Combo4 : 253,212,243

[HitObjects]
108,340,284,5,0,0:2:0:0:
44,293,495,1,0,0:2:0:0:
24,217,706,1,0,0:2:0:0:
57,146,917,1,0,0:2:0:0:
127,111,1129,1,0,0:2:0:0:
325,64,1341,6,0,L|417:70,1,80,4|0,1:0|0:2,0:0:0:0:
280,155,1763,2,0,L|192:157,1,80,8|0,3:2|0:2,0:0:0:0:
325,64,2186,2,0,L|417:70,1,80,0|0,3:0|0:0,0:0:0:0:
280,155,2608,2,0,L|192:157,1,80,8|0,3:2|0:0,0:0:0:0:
407,164,3031,6,0,P|448:219|394:299,1,160,0|8,3:2|3:2,0:0:0:0:
301,351,3665,2,0,L|141:355,1,160,0|0,0:2|0:2,0:0:0:0:
286,260,4298,2,0,L|366:260,1,80,8|0,3:2|0:2,0:0:0:0:
157,205,4721,6,0,L|142:113,1,80,0|0,3:2|0:0,0:0:0:0:
272,85,5143,2,0,L|280:-5,1,80,8|0,3:2|0:2,0:0:0:0:
157,205,5566,2,0,L|142:113,1,80,0|0,3:2|0:2,0:0:0:0:
272,85,5988,2,0,L|280:-5,1,80,8|0,3:2|0:2,0:0:0:0:
76,85,6411,6,0,P|31:148|85:241,1,160,0|8,3:2|3:2,0:0:0:0:
183,294,7045,2,0,L|380:294,1,160,0|0,0:2|0:2,0:0:0:0:
227,207,7679,2,0,L|212:121,1,80,8|0,3:2|3:2,0:0:0:0:
421,42,8101,6,0,L|512:49,2,80,4|0|8,3:1|0:2|3:2,0:0:0:0:
247,109,8946,2,0,L|160:116,2,80,0|0|8,3:2|0:2|3:2,0:0:0:0:
352,97,9580,1,0,0:0:0:0:
165,43,9791,5,4,0:1:0:0:
311,43,10214,1,8,3:2:0:0:
122,149,10636,2,0,L|221:149,1,80,0|0,3:2|0:2,0:0:0:0:
322,240,11059,2,0,L|222:240,1,80,8|0,3:2|0:2,0:0:0:0:
24,239,11481,5,4,3:1:0:0:
215,241,11904,1,8,3:2:0:0:
31,242,12327,1,0,3:2:0:0:
102,242,12538,1,0,0:0:0:0:
173,242,12749,1,8,3:2:0:0:
244,243,12960,1,0,3:2:0:0:
448,249,13172,5,4,3:1:0:0:
297,245,13594,1,8,3:2:0:0:
94,244,14017,1,0,3:2:0:0:
274,244,14439,2,0,L|334:244,2,40,8|0|0,3:2|3:0|3:0,0:0:0:0:
48,343,14862,6,0,L|26:261,1,80,4|0,3:1|0:2,0:0:0:0:
137,232,15284,1,8,3:2:0:0:
235,175,15495,1,0,0:2:0:0:
231,66,15706,1,0,3:2:0:0:
137,46,15917,1,0,0:2:0:0:
24,101,16129,2,0,L|39:192,1,80,8|0,3:2|0:0,0:0:0:0:
241,301,16552,6,0,L|431:284,1,160,4|8,3:1|3:2,0:0:0:0:
277,201,17186,2,0,P|245:119|303:42,1,160,0|0,0:2|0:2,0:0:0:0:
390,21,17820,2,0,L|482:26,1,80,8|0,3:2|0:2,0:0:0:0:
248,81,18242,5,4,3:1:0:0:
178,118,18453,1,0,0:2:0:0:
144,189,18664,1,8,3:2:0:0:
156,267,18875,1,0,0:2:0:0:
211,323,19087,1,0,3:2:0:0:
288,338,19298,1,0,0:2:0:0:
382,333,19510,2,0,L|462:324,1,80,8|0,3:2|0:2,0:0:0:0:
244,222,19932,6,0,P|178:227|76:282,1,160,4|8,3:1|3:2,0:0:0:0:
246,314,20566,2,0,P|304:316|410:278,1,160,0|0,0:2|0:2,0:0:0:0:
496,195,21200,2,0,P|495:141|481:111,1,80,8|0,3:2|0:2,0:0:0:0:
277,42,21622,6,0,L|195:51,2,80,4|0|8,3:1|0:2|3:2,0:0:0:0:
156,140,22256,1,0,3:2:0:0:
161,179,22361,1,8,0:0:0:0:
166,219,22467,1,8,3:2:0:0:
295,267,22679,2,0,L|287:357,1,80,8|8,0:2|3:2,0:0:0:0:
83,358,23101,1,4,3:1:0:0:
247,279,23524,6,0,L|256:194,1,80,0|8,3:2|3:2,0:0:0:0:
133,140,23946,1,0,0:2:0:0:
127,100,24051,1,0,0:0:0:0:
122,60,24157,1,0,3:2:0:0:
239,18,24369,1,0,0:2:0:0:
373,20,24580,1,8,3:2:0:0:
190,15,24792,5,4,3:1:0:0:
295,86,25214,2,0,L|378:86,1,80,0|8,3:2|3:2,0:0:0:0:
200,195,25848,2,0,L|116:195,2,80,0|0|8,3:2|0:2|3:2,0:0:0:0:
426,195,26481,5,4,3:1:0:0:
258,294,26904,2,0,L|170:294,2,80,0|8|0,3:2|3:2|0:2,0:0:0:0:
71,213,27749,2,0,L|61:129,1,80,0|8,0:2|3:2,0:0:0:0:
425,93,28383,5,8,0:2:0:0:
256,192,28805,12,0,30284,0:2:0:0:
