osu file format v14

[General]
AudioFilename: audio.mp3
AudioLeadIn: 0
PreviewTime: 179
Countdown: 0
SampleSet: Soft
StackLeniency: 0.7
Mode: 2
LetterboxInBreaks: 0
WidescreenStoryboard: 0

[Editor]
Bookmarks: 14862
DistanceSpacing: 1.2
BeatDivisor: 4
GridSize: 32
TimelineZoom: 1

[Metadata]
Title:Harumachi Clover
TitleUnicode:春待ちクローバー
Artist:Hanasaka Yui(CV: M.A.O)
ArtistUnicode:花坂結衣(CV:M・A・O)
Creator:Ascendance
Version:Ascenshichan's Light Rain
Source:OneRoom
Tags:tvsize kantoku カントク one room ワンルーム ZiRoX Tenshichan [superstar] alienflybot
BeatmapID:1291405
BeatmapSetID:611826

[Difficulty]
HPDrainRate:6
CircleSize:4.5
OverallDifficulty:8.5
ApproachRate:8.5
SliderMultiplier:2
SliderTickRate:2

[Events]
//Background and Video events
0,0,"harumachi1.jpg",0,0
//Break Periods
//Storyboard Layer 0 (Background)
//Storyboard Layer 1 (Fail)
//Storyboard Layer 2 (Pass)
//Storyboard Layer 3 (Foreground)
//Storyboard Sound Samples

[TimingPoints]
-349,422.535211267606,4,2,1,50,1,0
1341,-100,4,2,1,100,0,0
23418,-100,4,2,1,5,0,0
23524,-100,4,2,1,100,0,0
28489,-100,4,2,1,65,0,0
29334,-100,4,2,1,45,0,0
30284,-100,4,2,1,5,0,0

[Colours]
Combo1 : 79,146,197
Combo2 : 186,118,169
Combo3 : 160,215,228
Combo4 : 253,212,243

[HitObjects]
104,192,284,5,0,0:2:0:0:
280,192,496,2,0,L|392:192,1,100,0|0,0:2|0:2,0:0:0:0:
208,48,918,2,0,L|72:48,1,100,0|0,0:2|0:2,0:0:0:0:
376,48,1341,6,0,L|496:48,1,100,4|0,1:0|0:2,0:0:0:0:
328,136,1763,2,0,L|200:136,1,100,8|0,3:2|0:2,0:0:0:0:
376,208,2186,1,0,3:0:0:0:
227,208,2397,1,0,0:0:0:0:
376,208,2608,2,0,L|504:208,1,100,8|0,3:2|0:0,0:0:0:0:
192,48,3031,6,0,L|80:48,1,100,0|0,3:2|0:2,0:0:0:0:
272,152,3453,2,0,L|136:152,1,100,8|0,3:2|0:2,0:0:0:0:
335,71,3876,2,0,L|463:71,1,100,0|0,3:2|0:2,0:0:0:0:
280,225,4298,2,0,L|416:225,1,100,8|0,3:2|0:2,0:0:0:0:
64,80,4721,6,0,L|208:80,1,100,0|0,3:2|0:0,0:0:0:0:
303,82,5143,1,8,3:2:0:0:
164,80,5355,1,0,0:2:0:0:
354,81,5566,2,0,L|482:81,1,100,0|0,3:2|0:2,0:0:0:0:
320,176,5989,1,8,3:2:0:0:
458,174,6200,1,0,0:2:0:0:
160,56,6411,6,0,L|40:56,1,100,0|0,3:2|0:2,0:0:0:0:
208,168,6834,2,0,L|344:168,1,100,8|0,3:2|0:2,0:0:0:0:
464,256,7256,2,0,L|352:256,1,100,0|0,3:2|0:2,0:0:0:0:
192,256,7679,1,8,3:2:0:0:
62,257,7890,1,0,3:2:0:0:
344,112,8101,5,4,3:1:0:0:
480,112,8312,1,0,0:2:0:0:
312,32,8524,2,0,L|192:32,1,100,8|0,3:2|0:2,0:0:0:0:
72,112,8946,2,0,L|192:112,1,100,0|0,3:2|0:2,0:0:0:0:
312,32,9369,2,0,L|192:32,1,100,8|0,3:2|0:0,0:0:0:0:
480,192,9791,6,0,L|360:192,1,100,4|0,0:1|0:2,0:0:0:0:
216,192,10214,1,8,3:2:0:0:
326,195,10425,1,0,0:2:0:0:
216,192,10636,2,0,L|104:192,1,100,0|0,3:2|0:2,0:0:0:0:
247,83,11059,1,8,3:2:0:0:
74,77,11270,1,0,0:2:0:0:
347,80,11481,6,0,L|451:80,1,100,4|0,3:1|0:2,0:0:0:0:
248,160,11904,2,0,L|120:160,1,100,8|0,3:2|0:2,0:0:0:0:
280,240,12327,1,0,3:2:0:0:
148,240,12538,1,0,0:0:0:0:
306,242,12749,1,8,3:2:0:0:
131,240,12960,1,0,3:2:0:0:
402,52,13172,6,0,L|530:52,1,100,4|0,3:1|3:2,0:0:0:0:
192,128,13594,2,0,L|88:128,1,100,8|0,3:2|3:2,0:0:0:0:
376,192,14017,2,0,L|488:192,1,100,0|0,3:2|3:0,0:0:0:0:
168,240,14439,2,0,L|40:240,1,100,8|0,3:2|3:0,0:0:0:0:
343,334,14862,6,0,P|365:274|364:228,1,100,4|0,3:1|0:2,0:0:0:0:
207,169,15284,2,0,P|188:112|203:53,1,100,8|0,3:2|0:2,0:0:0:0:
330,21,15707,1,0,3:2:0:0:
172,266,15918,2,0,L|62:273,2,100,0|8|0,0:2|3:2|0:0,0:0:0:0:
454,157,16552,6,0,L|345:167,2,100,4|0|8,3:1|0:2|3:2,0:0:0:0:
180,318,17186,2,0,P|133:264|209:152,1,200,0|0,0:2|0:2,0:0:0:0:
336,133,17820,2,0,P|397:140|450:128,1,100,8|0,3:2|0:2,0:0:0:0:
162,55,18242,6,0,P|92:52|33:64,1,100,4|0,3:1|0:2,0:0:0:0:
226,122,18665,2,0,P|290:127|345:115,1,100,8|0,3:2|0:0,0:0:0:0:
162,55,19087,1,0,3:2:0:0:
32,147,19298,2,0,L|144:148,1,100,0|8,0:2|3:2,0:0:0:0:
6,146,19721,1,0,0:2:0:0:
417,185,19932,6,0,L|296:193,2,100,4|0|8,3:1|0:2|3:2,0:0:0:0:
270,266,20566,2,0,P|224:213|284:112,1,200,0|0,0:2|0:2,0:0:0:0:
435,35,21200,1,8,3:2:0:0:
385,34,21306,1,0,0:0:0:0:
336,34,21411,1,0,0:2:0:0:
68,209,21622,6,0,L|171:195,1,100,4|0,3:1|0:2,0:0:0:0:
359,264,22045,2,0,L|249:263,1,100,8|0,3:2|3:2,0:0:0:0:
208,230,22362,1,8,0:0:0:0:
148,230,22467,1,8,3:2:0:0:
300,118,22679,1,8,0:2:0:0:
349,118,22784,1,0,0:0:0:0:
400,119,22890,1,8,3:2:0:0:
97,111,23101,6,0,L|314:124,1,200,4|0,3:1|3:2,0:0:0:0:
166,305,23735,2,0,L|158:194,1,100,8|0,3:2|0:2,0:0:0:0:
211,176,24052,1,0,0:0:0:0:
396,149,24158,5,0,3:2:0:0:
245,135,24369,1,0,0:2:0:0:
425,158,24580,1,8,3:2:0:0:
100,65,24791,6,0,P|53:105|107:227,1,200,4|0,3:1|3:2,0:0:0:0:
232,237,25425,1,8,3:2:0:0:
68,319,25636,1,0,0:2:0:0:
118,320,25741,1,0,0:0:0:0:
168,321,25847,1,0,3:2:0:0:
295,321,26059,1,0,0:2:0:0:
118,320,26270,1,8,3:2:0:0:
435,248,26481,6,0,P|466:180|382:93,1,200,4|0,3:1|3:2,0:0:0:0:
275,93,27115,1,8,3:2:0:0:
431,13,27327,1,0,0:2:0:0:
382,15,27432,1,8,0:0:0:0:
332,18,27538,1,0,3:2:0:0:
201,28,27749,1,0,0:2:0:0:
315,111,27960,6,0,L|305:163,1,50,8|8,3:2|0:0,0:0:0:0:
90,234,28172,2,0,L|105:290,1,50,4|8,3:1|0:0,0:0:0:0:
394,348,28383,5,8,0:2:0:0:
256,192,28594,12,0,30284,0:2:0:0:
