osu file format v14

[General]
AudioFilename: audio.mp3
AudioLeadIn: 0
PreviewTime: 179
Countdown: 0
SampleSet: Soft
StackLeniency: 0.3
Mode: 0
LetterboxInBreaks: 0
WidescreenStoryboard: 0

[Editor]
DistanceSpacing: 0.9
BeatDivisor: 4
GridSize: 32
TimelineZoom: 1

[Metadata]
Title:Harumachi Clover
TitleUnicode:春待ちクローバー
Artist:Hanasaka Yui(CV: M.A.O)
ArtistUnicode:花坂結衣(CV:M・A・O)
Creator:[C u r i]
Version:Normal
Source:OneRoom
Tags:VINXIS Ending ED tv size one_room カントク Kantoku
BeatmapID:1201507
BeatmapSetID:567163

[Difficulty]
HPDrainRate:3.5
CircleSize:3.5
OverallDifficulty:4
ApproachRate:5
SliderMultiplier:1.1
SliderTickRate:1

[Events]
//Background and Video events
0,0,"VVVVVVVVVVVVVVVVVVVVVVVVVV.jpg",0,0
//Break Periods
//Storyboard Layer 0 (Background)
//Storyboard Layer 1 (Fail)
//Storyboard Layer 2 (Pass)
//Storyboard Layer 3 (Foreground)
//Storyboard Sound Samples

[TimingPoints]
-349,422.535211267606,4,2,1,40,1,0
1341,-100,4,2,1,80,0,0
29651,-100,4,2,1,10,0,0

[Colours]
Combo1 : 255,192,0
Combo2 : 255,128,0
Combo3 : 117,45,30
Combo4 : 244,72,98

[HitObjects]
113,266,284,5,0,0:0:0:0:
113,266,496,2,0,P|144:208|75:123,1,165,0|0,0:0|0:0,0:0:0:0:
60,96,1341,6,0,L|186:83,1,110,6|8,0:1|0:0,0:0:0:0:
218,80,1974,1,0,0:0:0:0:
218,80,2186,1,2,0:0:0:0:
277,159,2608,1,8,0:0:0:0:
184,193,3031,2,0,L|37:211,2,110,2|8|0,0:0|0:0|0:0,0:0:0:0:
277,159,4298,1,8,0:0:0:0:
320,69,4721,6,0,L|467:87,1,110,2|8,0:1|0:0,0:0:0:0:
478,89,5355,1,0,0:0:0:0:
478,89,5566,1,2,0:0:0:0:
425,173,5989,1,8,0:0:0:0:
471,261,6411,2,0,P|416:271|351:241,1,110,2|8,0:0|0:0,0:0:0:0:
290,186,7256,2,0,P|235:176|170:206,1,110,0|8,0:0|0:0,0:0:0:0:
153,232,7890,1,0,0:0:0:0:
153,232,8101,5,6,0:1:0:0:
151,331,8524,1,8,0:0:0:0:
69,275,8946,2,0,L|56:149,1,110,2|8,0:0|0:0,0:0:0:0:
53,116,9580,1,0,0:0:0:0:
53,116,9791,2,0,P|113:97|168:114,1,110,6|8,0:1|0:0,0:0:0:0:
235,168,10636,2,0,P|295:187|350:170,1,110,2|8,0:0|0:0,0:0:0:0:
384,156,11270,1,0,0:0:0:0:
384,156,11481,5,6,0:1:0:0:
425,66,11904,1,8,0:0:0:0:
479,148,12327,2,0,P|486:222|456:267,1,110,2|8,0:0|0:0,0:0:0:0:
428,277,12960,1,0,0:0:0:0:
428,277,13172,2,0,P|388:273|351:272,1,55,12|2,0:1|0:0,0:0:0:0:
326,287,13594,2,0,P|286:291|249:292,1,55,8|2,0:1|0:0,0:0:0:0:
224,274,14017,2,0,P|184:270|147:269,1,55,8|2,0:1|0:0,0:0:0:0:
120,274,14439,1,2,0:0:0:0:
34,223,14862,6,0,P|18:173|36:118,1,110,6|8,0:1|0:0,0:0:0:0:
79,97,15496,1,0,0:0:0:0:
79,97,15707,1,2,0:0:0:0:
143,172,16129,1,8,0:0:0:0:
215,104,16552,2,0,L|342:93,2,110,2|8|0,0:0|0:0|0:0,0:0:0:0:
143,172,17820,1,8,0:0:0:0:
222,230,18242,6,0,L|349:219,1,110,6|8,0:1|0:0,0:0:0:0:
381,220,18876,1,0,0:0:0:0:
381,220,19087,1,2,0:0:0:0:
440,140,19510,1,8,0:0:0:0:
382,59,19932,2,0,P|433:41|487:51,2,110,6|8|2,0:0|0:0|0:0,0:0:0:0:
440,140,21200,1,8,0:0:0:0:
381,220,21622,6,0,L|388:291,2,55,6|0|8,0:1|0:0|0:0,0:0:0:0:
302,159,22467,2,0,L|307:104,2,55,2|0|8,0:0|0:0|0:0,0:0:0:0:
297,208,23101,2,0,P|230:230|183:210,1,110,12|0,0:1|0:0,0:0:0:0:
153,190,23735,1,8,0:0:0:0:
81,121,24158,2,0,L|86:66,2,55,2|0|8,0:0|0:0|0:0,0:0:0:0:
46,155,24791,6,0,L|55:266,1,110,12|0,0:1|0:0,0:0:0:0:
56,314,25425,1,8,0:0:0:0:
155,311,25848,2,0,L|158:377,2,55,8|0|8,0:0|0:0|0:0,0:0:0:0:
158,261,26481,2,0,P|209:244|257:267,1,110,6|0,0:1|0:0,0:0:0:0:
297,297,27115,1,8,0:0:0:0:
297,297,27327,2,0,P|349:314|397:291,1,110,0|2,0:0|0:0,0:0:0:0:
427,253,27960,2,0,L|422:195,1,55,8|0,0:0|0:0,0:0:0:0:
418,148,28383,5,12,0:1:0:0:
256,192,28594,12,0,30284,0:0:0:0:
