osu file format v14

[General]
AudioFilename: audio.mp3
AudioLeadIn: 0
PreviewTime: 179
Countdown: 0
SampleSet: Soft
StackLeniency: 0.3
Mode: 0
LetterboxInBreaks: 0
WidescreenStoryboard: 0

[Editor]
DistanceSpacing: 0.5
BeatDivisor: 4
GridSize: 32
TimelineZoom: 1

[Metadata]
Title:Harumachi Clover
TitleUnicode:春待ちクローバー
Artist:Hanasaka Yui(CV: M.A.O)
ArtistUnicode:花坂結衣(CV:M・A・O)
Creator:[C u r i]
Version:HatsuKoi
Source:OneRoom
Tags:VINXIS Ending ED tv size one_room カントク Kantoku
BeatmapID:1201303
BeatmapSetID:567163

[Difficulty]
HPDrainRate:6
CircleSize:3.5
OverallDifficulty:8
ApproachRate:8
SliderMultiplier:1.6
SliderTickRate:1

[Events]
//Background and Video events
0,0,"VVVVVVVVVVVVVVVVVVVVVVVVVV.jpg",0,0
//Break Periods
//Storyboard Layer 0 (Background)
//Storyboard Layer 1 (Fail)
//Storyboard Layer 2 (Pass)
//Storyboard Layer 3 (Foreground)
//Storyboard Sound Samples

[TimingPoints]
-349,422.535211267606,4,2,1,40,1,0
1341,-100,4,2,1,80,0,0
29651,-100,4,2,1,10,0,0

[Colours]
Combo1 : 255,192,0
Combo2 : 255,128,0
Combo3 : 117,45,30
Combo4 : 244,72,98

[HitObjects]
214,138,284,5,0,0:0:0:0:
284,189,496,1,0,0:0:0:0:
232,259,707,1,0,0:0:0:0:
160,208,918,1,0,0:0:0:0:
214,138,1129,1,0,0:0:0:0:
232,259,1341,5,6,0:1:0:0:
201,37,1552,1,0,0:0:0:0:
236,288,1763,1,8,0:0:0:0:
201,37,1974,1,0,0:0:0:0:
319,50,2186,1,2,0:0:0:0:
90,75,2397,1,0,0:0:0:0:
319,50,2608,1,8,0:0:0:0:
80,217,2820,1,0,0:0:0:0:
80,217,2925,1,0,0:0:0:0:
80,217,3031,6,0,P|78:252|95:299,1,80,2|0,0:0|0:1,0:0:0:0:
213,370,3453,1,8,0:0:0:0:
323,219,3665,2,0,L|161:240,1,160
398,330,4298,1,8,0:0:0:0:
230,148,4510,1,0,0:0:0:0:
230,148,4615,1,0,0:0:0:0:
230,148,4721,5,2,0:1:0:0:
292,365,4932,1,0,0:0:0:0:
345,135,5143,1,8,0:0:0:0:
398,330,5355,1,0,0:0:0:0:
164,239,5566,1,2,0:0:0:0:
425,183,5777,1,0,0:0:0:0:
213,66,5989,1,8,0:0:0:0:
228,306,6200,1,0,0:0:0:0:
228,306,6305,1,0,0:0:0:0:
228,306,6411,6,0,L|327:294,1,80,2|0,0:0|0:0,0:0:0:0:
418,94,6834,1,8,0:0:0:0:
465,319,7045,2,0,L|290:293,1,160
90,262,7679,1,8,0:0:0:0:
342,191,7890,1,0,0:0:0:0:
342,191,7996,1,0,0:0:0:0:
342,191,8101,5,6,0:1:0:0:
272,384,8312,1,0,0:0:0:0:
225,115,8524,1,8,0:0:0:0:
307,296,8735,1,0,0:0:0:0:
90,262,8946,1,2,0:0:0:0:
392,308,9158,1,0,0:0:0:0:
90,262,9369,1,8,0:0:0:0:
317,99,9580,1,0,0:0:0:0:
317,99,9686,1,0,0:0:0:0:
317,99,9791,5,6,0:1:0:0:
199,344,10003,1,0,0:0:0:0:
207,92,10214,1,8,0:0:0:0:
412,230,10425,1,0,0:0:0:0:
162,195,10636,1,2,0:0:0:0:
412,230,10848,1,0,0:0:0:0:
74,184,11059,1,8,0:0:0:0:
335,354,11270,1,0,0:0:0:0:
335,354,11376,1,0,0:0:0:0:
335,354,11481,6,0,L|327:269,1,80,6|0,0:1|0:0,0:0:0:0:
141,97,11904,1,8,0:0:0:0:
371,106,12115,1,0,0:0:0:0:
155,184,12327,1,2,0:0:0:0:
351,194,12538,1,0,0:0:0:0:
124,262,12749,1,8,0:0:0:0:
168,12,12960,1,0,0:0:0:0:
208,316,13172,5,12,0:1:0:0:
95,68,13383,1,2,0:0:0:0:
59,331,13594,1,8,0:1:0:0:
281,232,13805,1,2,0:0:0:0:
30,342,14017,1,8,0:1:0:0:
95,68,14228,1,2,0:0:0:0:
67,96,14333,1,0,0:0:0:0:
53,133,14439,1,2,0:0:0:0:
54,173,14544,1,0,0:0:0:0:
70,209,14650,1,2,0:0:0:0:
100,236,14756,1,0,0:0:0:0:
137,252,14862,6,0,L|239:241,1,80,6|0,0:1|0:0,0:0:0:0:
466,318,15284,1,8,0:0:0:0:
269,328,15496,1,0,0:0:0:0:
511,233,15707,1,2,0:0:0:0:
216,243,15918,1,0,0:0:0:0:
466,318,16129,1,8,0:0:0:0:
287,111,16341,1,0,0:0:0:0:
287,111,16446,1,0,0:0:0:0:
287,111,16552,6,0,L|295:190,1,80,2|0,0:0|0:0,0:0:0:0:
462,42,16974,1,8,0:0:0:0:
366,241,17186,2,0,P|298:278|228:246,1,160
287,111,17820,1,8,0:0:0:0:
150,310,18031,1,0,0:0:0:0:
150,310,18136,1,0,0:0:0:0:
150,310,18242,6,0,L|143:211,1,80,6|0,0:1|0:0,0:0:0:0:
366,241,18665,1,8,0:0:0:0:
133,142,18876,1,0,0:0:0:0:
335,348,19087,1,2,0:0:0:0:
301,59,19298,1,0,0:0:0:0:
150,310,19510,1,8,0:0:0:0:
426,195,19721,1,0,0:0:0:0:
426,195,19827,1,0,0:0:0:0:
426,195,19932,6,0,L|414:112,1,80,6|0,0:0|0:0,0:0:0:0:
289,279,20355,1,8,0:0:0:0:
314,37,20566,1,0,0:0:0:0:
314,37,20672,1,0,0:0:0:0:
314,37,20777,2,0,L|326:120,1,80,2|0,0:0|0:0,0:0:0:0:
144,230,21200,1,8,0:0:0:0:
386,371,21411,1,0,0:0:0:0:
386,371,21517,1,0,0:0:0:0:
386,371,21622,6,0,L|375:286,1,80,6|0,0:1|0:0,0:0:0:0:
122,317,22045,1,8,0:0:0:0:
339,206,22256,1,0,0:0:0:0:
339,206,22362,1,0,0:0:0:0:
339,206,22467,1,2,0:0:0:0:
135,77,22679,1,0,0:0:0:0:
122,317,22890,1,8,0:0:0:0:
419,164,23101,5,12,0:1:0:0:
419,164,23524,1,0,0:0:0:0:
199,287,23735,1,8,0:0:0:0:
190,15,23946,1,0,0:0:0:0:
190,15,24052,1,0,0:0:0:0:
190,15,24158,1,2,0:0:0:0:
419,164,24369,1,0,0:0:0:0:
199,287,24580,1,8,0:0:0:0:
499,125,24791,5,12,0:1:0:0:
499,125,25214,1,0,0:0:0:0:
274,246,25425,1,8,0:0:0:0:
507,132,25636,1,0,0:0:0:0:
507,132,25742,1,0,0:0:0:0:
507,132,25848,1,8,0:0:0:0:
264,146,26059,1,0,0:0:0:0:
404,350,26270,1,8,0:0:0:0:
498,43,26481,6,0,L|329:55,1,160,6|0,0:1|0:0,0:0:0:0:
449,223,27115,1,8,0:0:0:0:
255,66,27327,1,0,0:0:0:0:
255,66,27432,1,0,0:0:0:0:
255,66,27538,1,2,0:0:0:0:
366,250,27749,1,2,0:0:0:0:
498,43,27960,1,8,0:0:0:0:
458,45,28065,1,0,0:0:0:0:
418,48,28171,1,0,0:0:0:0:
378,51,28276,1,0,0:0:0:0:
338,54,28382,5,12,0:1:0:0:
256,192,28489,12,0,30284,0:0:0:0:
