osu file format v14

[General]
AudioFilename: audio.mp3
AudioLeadIn: 0
PreviewTime: 73
Countdown: 0
SampleSet: Normal
StackLeniency: 0.7
Mode: 0
LetterboxInBreaks: 0
WidescreenStoryboard: 1

[Editor]
DistanceSpacing: 1.2
BeatDivisor: 4
GridSize: 4
TimelineZoom: 1

[Metadata]
Title:Harumachi Clover
TitleUnicode:春待ちクローバー
Artist:Hanasaka Yui (CV:M.A.O)
ArtistUnicode:花坂結衣(CV:M・A・O)
Creator:Mking
Version:Normal
Source:OneRoom
Tags:anime TV size Ending Deppyforce
BeatmapID:1404452
BeatmapSetID:662752

[Difficulty]
HPDrainRate:4
CircleSize:2.5
OverallDifficulty:4
ApproachRate:5
SliderMultiplier:1.4
SliderTickRate:1

[Events]
//Background and Video events
0,0,"thumb-1920-800555.png",0,0
//Break Periods
//Storyboard Layer 0 (Background)
//Storyboard Layer 1 (Fail)
//Storyboard Layer 2 (Pass)
//Storyboard Layer 3 (Foreground)
//Storyboard Sound Samples

[TimingPoints]
-349,422.535211267606,4,1,0,100,1,0
1341,-100,4,1,0,60,0,1
8101,-100,4,1,0,50,0,0
14862,-100,4,1,0,70,0,1
21622,-100,4,1,0,60,0,0
25003,-100,4,1,0,85,0,0
28383,-100,4,1,0,10,0,0

[Colours]
Combo1 : 255,0,0
Combo2 : 0,255,0
Combo3 : 128,128,255
Combo4 : 128,128,0

[HitObjects]
136,96,284,5,0,0:0:0:0:
136,96,496,2,0,L|64:88,2,70
220,108,1129,1,0,0:0:0:0:
176,180,1341,6,2,L|220:236,1,70,4|0,0:0|0:0,0:0:0:0:
152,288,1763,2,2,L|196:344,1,70,8|0,0:0|0:0,0:0:0:0:
280,344,2186,2,0,L|420:344,2,140,0|8|0,0:0|0:0|0:0,0:0:0:0:
204,312,3242,1,0,0:0:0:0:
168,236,3453,1,8,0:0:0:0:
212,164,3665,2,0,P|281:171|350:163,1,140
432,152,4298,1,8,0:0:0:0:
432,152,4510,1,0,0:0:0:0:
428,236,4721,6,2,L|384:292,1,70,4|0,0:0|0:0,0:0:0:0:
314,249,5143,2,2,L|270:305,1,70,8|0,0:2|0:2,0:2:0:0:
186,305,5566,2,0,L|46:305,2,140,0|8|0,0:0|0:0|0:0,0:0:0:0:
248,248,6622,1,0,0:0:0:0:
284,172,6833,1,8,0:0:0:0:
252,92,7045,2,0,P|183:99|114:91,1,140
28,84,7678,1,8,0:0:0:0:
28,84,7890,1,0,0:0:0:0:
64,160,8101,6,2,L|108:216,1,70,4|0,0:0|0:0,0:0:0:0:
60,280,8523,2,2,L|104:336,1,70,8|0,0:0|0:0,0:0:0:0:
188,332,8946,2,0,L|250:368,2,70,0|0|8,0:0|0:0|0:0,0:0:0:0:
148,256,9580,2,0,L|104:200,1,70
72,124,10003,6,0,L|0:124,2,70,0|8|0,0:0|0:0|0:0,0:0:0:0:
144,80,10636,1,0,0:0:0:0:
224,104,10848,1,2,0:0:0:0:
292,52,11059,1,8,0:0:0:0:
376,55,11270,2,0,P|440:159|292:295,1,350,0|4,0:0|0:0,0:0:0:0:
216,296,12538,1,0,0:0:0:0:
140,264,12749,5,8,0:0:0:0:
140,264,12960,2,2,P|132:194|139:125,1,140,0|0,0:0|0:0,0:0:0:0:
164,44,13594,2,0,L|236:44,2,70,8|0|0,0:0|0:0|0:0,0:0:0:0:
80,48,14228,1,0,0:0:0:0:
0,76,14439,2,0,B|4:160,1,70,8|0,0:0|0:0,0:0:0:0:
72,192,14862,6,2,L|116:248,1,70,4|0,0:0|0:0,0:0:0:0:
40,288,15284,2,2,L|84:344,1,70,8|0,0:0|0:0,0:0:0:0:
168,344,15707,2,0,L|308:344,2,140,0|8|0,0:0|0:0|0:0,0:0:0:0:
96,300,16763,1,0,0:0:0:0:
68,220,16974,1,8,0:0:0:0:
40,140,17186,2,0,P|109:133|178:141,1,140
248,192,17819,1,8,0:0:0:0:
248,192,18031,1,0,0:0:0:0:
324,232,18242,6,2,L|368:176,1,70,0|0,0:0|0:0,0:0:0:0:
356,92,18664,2,2,L|312:36,1,70,8|0,0:0|0:0,0:0:0:0:
228,28,19087,2,0,L|88:28,2,140
296,76,20143,1,0,0:0:0:0:
326,155,20354,1,8,0:0:0:0:
354,235,20566,2,0,P|284:242|215:234,1,140
154,175,21200,1,8,0:0:0:0:
154,175,21411,1,0,0:0:0:0:
236,168,21622,6,2,L|280:224,1,70,4|0,0:0|0:0,0:0:0:0:
352,184,22044,2,2,L|396:240,1,70,8|0,0:0|0:0,0:0:0:0:
440,308,22467,2,0,L|512:308,2,70,0|0|8,0:0|0:0|0:0,0:0:0:0:
360,340,23101,2,4,P|290:347|221:339,1,140
176,268,23735,6,0,L|176:196,2,70,8|0|0,0:0|0:0|0:0,0:0:0:0:
136,344,24369,1,0,0:0:0:0:
80,280,24580,1,8,0:0:0:0:
24,216,24791,2,0,P|17:146|25:77,1,140,4|0,0:0|0:0,0:0:0:0:
108,84,25425,6,0,L|108:12,2,70,8|0|0,0:0|0:0|0:0,0:0:0:0:
176,132,26059,2,0,L|176:202,1,70,0|8,0:0|0:0,0:0:0:0:
180,284,26481,2,2,P|249:291|318:284,1,140,0|0,0:0|0:0,0:0:0:0:
400,260,27115,2,0,L|400:190,2,70,8|0|2,0:0|0:0|0:0,0:0:0:0:
424,340,27749,1,0,0:0:0:0:
488,284,27960,2,0,L|488:214,1,70,8|0,0:0|0:0,0:0:0:0:
256,192,28383,12,4,30496,0:0:0:0:
