osu file format v14

[General]
AudioFilename: audio.mp3
AudioLeadIn: 0
PreviewTime: 738
Countdown: 0
SampleSet: Normal
StackLeniency: 0.7
Mode: 1
LetterboxInBreaks: 0
WidescreenStoryboard: 1

[Editor]
Bookmarks: 953,14667,31810
DistanceSpacing: 0.9
BeatDivisor: 4
GridSize: 16
TimelineZoom: 2.968002

[Metadata]
Title:Shunkashuutou*Egao Biyori (Cut Ver.)
TitleUnicode:春夏秋冬*笑顔日和 (Cut Ver.)
Artist:Hanasaka Yui (CV: M.A.O)
ArtistUnicode:花坂結衣 (CV: M・A・O)
Creator:yuki_momoiro722
Version:Oni
Source:One Room サードシーズン
Tags:taiko japanese anime pop jpop j-pop oneroom ワンルーム third 3rd season カントク kantoku 市道真央 ichimichi mao version
BeatmapID:2620287
BeatmapSetID:1260473

[Difficulty]
HPDrainRate:7
CircleSize:2
OverallDifficulty:5.5
ApproachRate:10
SliderMultiplier:1.4
SliderTickRate:1

[Events]
//Background and Video events
0,0,"bg.jpg",0,-136
//Break Periods
//Storyboard Layer 0 (Background)
//Storyboard Layer 1 (Fail)
//Storyboard Layer 2 (Pass)
//Storyboard Layer 3 (Foreground)
//Storyboard Layer 4 (Overlay)
//Storyboard Sound Samples

[TimingPoints]
953,428.571428571429,4,1,0,80,1,0
6738,-102.040816326531,4,1,0,80,0,0
6845,-104.166666666667,4,1,0,80,0,0
6953,-106.382978723404,4,1,0,80,0,0
7167,-108.695652173913,4,1,0,80,0,0
7381,-111.111111111111,4,1,0,80,0,0
7810,-100,4,1,0,80,0,0
11667,-98.0392156862745,4,1,0,80,0,0
11881,-96.1538461538461,4,1,0,80,0,0
12095,-94.3396226415094,4,1,0,80,0,0
12310,-96.1538461538461,4,1,0,80,0,0
12417,-98.0392156862745,4,1,0,80,0,0
12524,-100,4,1,0,80,0,0
12738,-96.1538461538461,4,1,0,80,0,0
12953,-92.5925925925926,4,1,0,80,0,0
13274,-100,4,1,0,80,0,0
13381,-96.1538461538461,4,1,0,80,0,0
13595,-92.5925925925926,4,1,0,80,0,0
14024,-94.3396226415094,4,1,0,80,0,0
14238,-96.1538461538461,4,1,0,80,0,0
14453,-98.0392156862745,4,1,0,80,0,0
14667,-100,4,1,0,80,0,0
20453,-101.694915254237,4,1,0,80,0,0
20560,-103.448275862069,4,1,0,80,0,0
20667,-105.263157894737,4,1,0,80,0,0
21095,-107.142857142857,4,1,0,80,0,0
21203,-109.090909090909,4,1,0,80,0,0
21310,-111.111111111111,4,1,0,80,0,0
21524,-100,4,1,0,80,0,0
21738,-111.111111111111,4,1,0,80,0,0
22381,-100,4,1,0,80,0,0
22810,-111.111111111111,4,1,0,80,0,0
23238,-100,4,1,0,80,0,0
23453,-111.111111111111,4,1,0,80,0,0
23881,-100,4,1,0,80,0,0
24310,-98.8142292490119,4,1,0,80,0,0
24524,-97.65625,4,1,0,80,0,0
24738,-96.5250965250965,4,1,0,80,0,0
24845,-95.4198473282443,4,1,0,80,0,0
24953,-94.3396226415094,4,1,0,80,0,0
25167,-95.9488272921109,4,1,0,80,0,0
25381,-97.6138828633406,4,1,0,80,0,0
25595,-99.3377483443709,4,1,0,80,0,0
25703,-101.123595505618,4,1,0,80,0,0
25810,-102.974828375286,4,1,0,80,0,0
26024,-104.895104895105,4,1,0,80,0,0
26131,-106.888361045131,4,1,0,80,0,0
26238,-108.958837772397,4,1,0,80,0,0
26453,-111.111111111111,4,1,0,80,0,0
26667,-94.3396226415094,4,1,0,80,0,0
27095,-95.9488272921109,4,1,0,80,0,0
27310,-97.6138828633406,4,1,0,80,0,0
27417,-99.3377483443709,4,1,0,80,0,0
27524,-101.123595505618,4,1,0,80,0,0
27738,-102.974828375286,4,1,0,80,0,0
27845,-104.895104895105,4,1,0,80,0,0
27953,-106.888361045131,4,1,0,80,0,0
28060,-108.958837772397,4,1,0,80,0,0
28167,-111.111111111111,4,1,0,80,0,0
28381,-94.3396226415094,4,1,0,80,0,0
28810,-96.1538461538461,4,1,0,80,0,0
29024,-98.0392156862745,4,1,0,80,0,0
29131,-100,4,1,0,80,0,0
29238,-102.040816326531,4,1,0,80,0,0
29453,-104.166666666667,4,1,0,80,0,0
29560,-106.382978723404,4,1,0,80,0,0
29667,-108.695652173913,4,1,0,80,0,0
29881,-111.111111111111,4,1,0,80,0,0
30095,-109.090909090909,4,1,0,80,0,0
30524,-105.263157894737,4,1,0,80,0,0
30738,-103.448275862069,4,1,0,80,0,0
30953,-101.694915254237,4,1,0,80,0,0
31060,-100,4,1,0,80,0,0
31167,-98.3606557377049,4,1,0,80,0,0
31274,-96.7741935483871,4,1,0,80,0,0
31381,-95.2380952380952,4,1,0,80,0,0
31488,-93.75,4,1,0,80,0,0
31595,-92.3076923076923,4,1,0,80,0,0
31810,-90.9090909090909,4,1,0,80,0,1
31917,-100,4,1,0,80,0,1
37274,-98.5221674876847,4,1,0,80,0,1
37381,-97.0873786407767,4,1,0,80,0,1
37595,-95.6937799043062,4,1,0,80,0,1
37810,-94.3396226415094,4,1,0,80,0,1
37917,-97.0873786407767,4,1,0,80,0,1
38024,-100,4,1,0,80,0,1
38238,-94.3396226415094,4,1,0,80,0,1
38345,-97.0873786407767,4,1,0,80,0,1
38453,-100,4,1,0,80,0,1
38667,-90.9090909090909,4,1,0,80,0,1
38774,-100,4,1,0,80,0,1
43810,-99.009900990099,4,1,0,80,0,1
44024,-98.0392156862745,4,1,0,80,0,1
44238,-97.0873786407767,4,1,0,80,0,1
44453,-96.1538461538461,4,1,0,80,0,1
44667,-95.2380952380952,4,1,0,80,0,1
44881,-94.3396226415094,4,1,0,80,0,1
45095,-93.4579439252336,4,1,0,80,0,1
45310,-92.5925925925926,4,1,0,80,0,1
45524,428.571428571429,4,1,0,50,1,8
46274,-100,4,1,0,50,0,0
46381,428.571428571429,4,1,0,50,1,0
46809,-100,4,1,0,48,0,0
47238,-100,4,1,0,47,0,0
47666,-100,4,1,0,45,0,0
48095,-100,4,1,0,43,0,0
48523,-100,4,1,0,42,0,0
48952,-100,4,1,0,40,0,0
49381,-100,4,1,0,38,0,0
49809,-100,4,1,0,37,0,0
50238,-100,4,1,0,35,0,0
50666,-100,4,1,0,33,0,0
51095,-100,4,1,0,32,0,0
51523,-100,4,1,0,30,0,0
51952,-100,4,1,0,28,0,0
52381,-100,4,1,0,27,0,0
52809,-100,4,1,0,25,0,0
53238,-100,4,1,0,23,0,0
53666,-100,4,1,0,22,0,0
54095,-100,4,1,0,20,0,0

[HitObjects]
256,192,953,5,4,0:0:0:0:
256,192,1167,1,0,0:0:0:0:
256,192,1274,1,0,0:0:0:0:
256,192,1381,1,8,0:0:0:0:
256,192,1595,1,0,0:0:0:0:
256,192,1810,1,8,0:0:0:0:
256,192,2131,1,0,0:0:0:0:
256,192,2238,1,8,0:0:0:0:
256,192,2453,1,8,0:0:0:0:
256,192,2667,1,0,0:0:0:0:
256,192,2881,1,0,0:0:0:0:
256,192,2988,1,0,0:0:0:0:
256,192,3095,1,8,0:0:0:0:
256,192,3310,1,0,0:0:0:0:
256,192,3524,1,0,0:0:0:0:
256,192,3738,1,8,0:0:0:0:
256,192,3845,1,0,0:0:0:0:
256,192,3953,1,8,0:0:0:0:
256,192,4167,1,8,0:0:0:0:
256,192,4381,1,0,0:0:0:0:
256,192,4810,1,8,0:0:0:0:
256,192,5024,1,0,0:0:0:0:
256,192,5238,1,8,0:0:0:0:
256,192,5345,1,0,0:0:0:0:
256,192,5453,1,0,0:0:0:0:
256,192,5667,1,8,0:0:0:0:
256,192,5881,1,8,0:0:0:0:
256,192,5988,1,8,0:0:0:0:
256,192,6095,1,0,0:0:0:0:
256,192,6310,1,0,0:0:0:0:
256,192,6524,1,8,0:0:0:0:
256,192,6738,1,0,0:0:0:0:
256,192,6845,1,8,0:0:0:0:
256,192,6953,1,0,0:0:0:0:
256,192,7167,1,0,0:0:0:0:
256,192,7381,1,8,0:0:0:0:
256,192,7810,1,4,0:0:0:0:
256,192,8024,1,0,0:0:0:0:
256,192,8238,1,8,0:0:0:0:
256,192,8453,1,8,0:0:0:0:
256,192,8560,1,8,0:0:0:0:
256,192,8667,1,0,0:0:0:0:
256,192,8881,1,0,0:0:0:0:
256,192,9095,1,8,0:0:0:0:
256,192,9310,1,8,0:0:0:0:
256,192,9417,1,0,0:0:0:0:
256,192,9524,1,8,0:0:0:0:
256,192,9631,1,8,0:0:0:0:
256,192,9738,1,0,0:0:0:0:
256,192,9953,1,8,0:0:0:0:
256,192,10167,1,0,0:0:0:0:
256,192,10381,1,0,0:0:0:0:
256,192,10488,1,0,0:0:0:0:
256,192,10595,1,0,0:0:0:0:
256,192,10810,1,8,0:0:0:0:
256,192,11024,1,8,0:0:0:0:
256,192,11238,1,4,0:0:0:0:
256,192,11667,1,8,0:0:0:0:
256,192,11881,1,0,0:0:0:0:
256,192,12095,1,8,0:0:0:0:
256,192,12310,1,8,0:0:0:0:
256,192,12417,1,8,0:0:0:0:
256,192,12524,1,0,0:0:0:0:
256,192,12738,1,0,0:0:0:0:
256,192,12953,1,12,0:0:0:0:
256,192,13274,1,0,0:0:0:0:
256,192,13381,1,8,0:0:0:0:
256,192,13595,1,4,0:0:0:0:
256,192,14024,1,8,0:0:0:0:
256,192,14238,1,8,0:0:0:0:
256,192,14453,1,8,0:0:0:0:
256,192,14667,1,4,0:0:0:0:
256,192,14881,1,0,0:0:0:0:
256,192,14988,1,0,0:0:0:0:
256,192,15095,1,8,0:0:0:0:
256,192,15310,1,0,0:0:0:0:
256,192,15524,1,8,0:0:0:0:
256,192,15845,1,0,0:0:0:0:
256,192,15953,1,8,0:0:0:0:
256,192,16167,1,8,0:0:0:0:
256,192,16381,1,0,0:0:0:0:
256,192,16595,1,0,0:0:0:0:
256,192,16703,1,0,0:0:0:0:
256,192,16810,1,8,0:0:0:0:
256,192,17024,1,0,0:0:0:0:
256,192,17238,1,0,0:0:0:0:
256,192,17453,1,8,0:0:0:0:
256,192,17560,1,0,0:0:0:0:
256,192,17667,1,8,0:0:0:0:
256,192,17881,1,8,0:0:0:0:
256,192,18310,1,8,0:0:0:0:
256,192,18524,1,0,0:0:0:0:
256,192,18738,1,8,0:0:0:0:
256,192,18845,1,8,0:0:0:0:
256,192,18953,1,0,0:0:0:0:
256,192,19167,1,0,0:0:0:0:
256,192,19381,1,8,0:0:0:0:
256,192,19595,1,8,0:0:0:0:
256,192,19703,1,0,0:0:0:0:
256,192,19810,1,0,0:0:0:0:
256,192,20024,1,0,0:0:0:0:
256,192,20238,1,8,0:0:0:0:
256,192,20453,1,0,0:0:0:0:
256,192,20560,1,8,0:0:0:0:
256,192,20667,1,0,0:0:0:0:
256,192,21095,1,8,0:0:0:0:
256,192,21203,1,0,0:0:0:0:
256,192,21310,1,8,0:0:0:0:
256,192,21524,1,4,0:0:0:0:
256,192,21738,1,0,0:0:0:0:
256,192,21845,1,0,0:0:0:0:
256,192,21953,1,8,0:0:0:0:
256,192,22167,1,8,0:0:0:0:
256,192,22381,1,4,0:0:0:0:
256,192,22810,1,8,0:0:0:0:
256,192,23024,1,0,0:0:0:0:
256,192,23238,1,4,0:0:0:0:
256,192,23453,1,8,0:0:0:0:
256,192,23560,1,8,0:0:0:0:
256,192,23667,1,8,0:0:0:0:
256,192,23881,1,4,0:0:0:0:
256,192,24310,1,8,0:0:0:0:
256,192,24524,1,0,0:0:0:0:
256,192,24738,1,0,0:0:0:0:
256,192,24845,1,0,0:0:0:0:
256,192,24953,1,12,0:0:0:0:
256,192,25167,1,0,0:0:0:0:
256,192,25381,1,8,0:0:0:0:
256,192,25595,1,0,0:0:0:0:
256,192,25703,1,8,0:0:0:0:
256,192,25810,1,0,0:0:0:0:
256,192,26024,1,0,0:0:0:0:
256,192,26131,1,0,0:0:0:0:
256,192,26238,1,8,0:0:0:0:
256,192,26453,1,0,0:0:0:0:
256,192,26667,1,12,0:0:0:0:
256,192,27095,1,8,0:0:0:0:
256,192,27310,1,0,0:0:0:0:
256,192,27417,1,0,0:0:0:0:
256,192,27524,1,0,0:0:0:0:
256,192,27738,1,0,0:0:0:0:
256,192,27845,1,0,0:0:0:0:
256,192,27953,1,8,0:0:0:0:
256,192,28060,1,8,0:0:0:0:
256,192,28167,1,0,0:0:0:0:
256,192,28381,1,12,0:0:0:0:
256,192,28810,1,8,0:0:0:0:
256,192,29024,1,0,0:0:0:0:
256,192,29131,1,8,0:0:0:0:
256,192,29238,1,0,0:0:0:0:
256,192,29453,1,8,0:0:0:0:
256,192,29560,1,0,0:0:0:0:
256,192,29667,1,8,0:0:0:0:
256,192,29881,1,0,0:0:0:0:
256,192,30095,1,8,0:0:0:0:
256,192,30524,1,0,0:0:0:0:
256,192,30738,1,0,0:0:0:0:
256,192,30953,1,0,0:0:0:0:
256,192,31060,1,0,0:0:0:0:
256,192,31167,1,0,0:0:0:0:
256,192,31274,1,0,0:0:0:0:
256,192,31381,1,8,0:0:0:0:
256,192,31488,1,8,0:0:0:0:
256,192,31595,1,8,0:0:0:0:
256,192,31810,1,4,0:0:0:0:
256,192,32238,1,8,0:0:0:0:
256,192,32453,1,0,0:0:0:0:
256,192,32560,1,8,0:0:0:0:
256,192,32667,1,0,0:0:0:0:
256,192,32881,1,0,0:0:0:0:
256,192,33095,1,8,0:0:0:0:
256,192,33310,1,0,0:0:0:0:
256,192,33417,1,0,0:0:0:0:
256,192,33524,1,8,0:0:0:0:
256,192,33738,1,0,0:0:0:0:
256,192,33953,1,8,0:0:0:0:
256,192,34167,1,0,0:0:0:0:
256,192,34381,1,0,0:0:0:0:
256,192,34488,1,0,0:0:0:0:
256,192,34595,1,0,0:0:0:0:
256,192,34810,1,8,0:0:0:0:
256,192,35024,1,8,0:0:0:0:
256,192,35238,1,0,0:0:0:0:
256,192,35453,1,0,0:0:0:0:
256,192,35560,1,0,0:0:0:0:
256,192,35667,1,8,0:0:0:0:
256,192,35881,1,8,0:0:0:0:
256,192,36310,1,8,0:0:0:0:
256,192,36524,1,0,0:0:0:0:
256,192,36738,1,8,0:0:0:0:
256,192,36953,1,0,0:0:0:0:
256,192,37274,1,0,0:0:0:0:
256,192,37381,1,8,0:0:0:0:
256,192,37595,1,0,0:0:0:0:
256,192,37810,1,8,0:0:0:0:
256,192,37917,1,8,0:0:0:0:
256,192,38024,1,0,0:0:0:0:
256,192,38238,1,8,0:0:0:0:
256,192,38345,1,8,0:0:0:0:
256,192,38453,1,8,0:0:0:0:
256,192,38667,1,4,0:0:0:0:
256,192,39095,1,8,0:0:0:0:
256,192,39310,1,0,0:0:0:0:
256,192,39417,1,8,0:0:0:0:
256,192,39524,1,0,0:0:0:0:
256,192,39738,1,0,0:0:0:0:
256,192,39953,1,8,0:0:0:0:
256,192,40167,1,0,0:0:0:0:
256,192,40274,1,0,0:0:0:0:
256,192,40381,1,8,0:0:0:0:
256,192,40595,1,0,0:0:0:0:
256,192,40810,1,8,0:0:0:0:
256,192,41024,1,0,0:0:0:0:
256,192,41238,1,0,0:0:0:0:
256,192,41345,1,0,0:0:0:0:
256,192,41453,1,0,0:0:0:0:
256,192,41667,1,8,0:0:0:0:
256,192,41881,1,8,0:0:0:0:
256,192,42095,1,4,0:0:0:0:
256,192,42310,1,0,0:0:0:0:
256,192,42417,1,0,0:0:0:0:
256,192,42524,1,8,0:0:0:0:
256,192,42738,1,8,0:0:0:0:
256,192,43167,1,8,0:0:0:0:
256,192,43381,1,0,0:0:0:0:
256,192,43595,1,8,0:0:0:0:
256,192,43810,1,0,0:0:0:0:
256,192,44024,1,0,0:0:0:0:
256,192,44238,1,0,0:0:0:0:
256,192,44453,1,0,0:0:0:0:
256,192,44667,1,8,0:0:0:0:
256,192,44881,1,8,0:0:0:0:
256,192,45095,1,8,0:0:0:0:
256,192,45310,1,8,0:0:0:0:
256,192,46381,1,0,0:0:0:0:
256,192,46595,8,0,54095,0:0:0:0:
