osu file format v14

[General]
AudioFilename: audio.mp3
AudioLeadIn: 0
PreviewTime: 738
Countdown: 0
SampleSet: Normal
StackLeniency: 0.7
Mode: 1
LetterboxInBreaks: 0
WidescreenStoryboard: 1

[Editor]
Bookmarks: 953,14667,31810
DistanceSpacing: 0.9
BeatDivisor: 4
GridSize: 16
TimelineZoom: 1.6

[Metadata]
Title:Shunkashuutou*Egao Biyori (Cut Ver.)
TitleUnicode:春夏秋冬*笑顔日和 (Cut Ver.)
Artist:Hanasaka Yui (CV: M.A.O)
ArtistUnicode:花坂結衣 (CV: M・A・O)
Creator:yuki_momoiro722
Version:Muzukashii
Source:One Room サードシーズン
Tags:taiko japanese anime pop jpop j-pop oneroom ワンルーム third 3rd season カントク kantoku 市道真央 ichimichi mao version
BeatmapID:2620291
BeatmapSetID:1260473

[Difficulty]
HPDrainRate:8
CircleSize:2
OverallDifficulty:5
ApproachRate:10
SliderMultiplier:1.4
SliderTickRate:1

[Events]
//Background and Video events
0,0,"bg.jpg",0,-136
//Break Periods
//Storyboard Layer 0 (Background)
//Storyboard Layer 1 (Fail)
//Storyboard Layer 2 (Pass)
//Storyboard Layer 3 (Foreground)
//Storyboard Layer 4 (Overlay)
//Storyboard Sound Samples

[TimingPoints]
953,428.571428571429,4,1,0,80,1,0
31810,-100,4,1,0,80,0,1
45524,428.571428571429,4,1,0,50,1,8
46274,-100,4,1,0,50,0,0
46381,428.571428571429,4,1,0,50,1,0
46809,-100,4,1,0,48,0,0
47238,-100,4,1,0,47,0,0
47666,-100,4,1,0,45,0,0
48095,-100,4,1,0,43,0,0
48523,-100,4,1,0,42,0,0
48952,-100,4,1,0,40,0,0
49381,-100,4,1,0,38,0,0
49809,-100,4,1,0,37,0,0
50238,-100,4,1,0,35,0,0
50666,-100,4,1,0,33,0,0
51095,-100,4,1,0,32,0,0
51523,-100,4,1,0,30,0,0
51952,-100,4,1,0,28,0,0
52381,-100,4,1,0,27,0,0
52809,-100,4,1,0,25,0,0
53238,-100,4,1,0,23,0,0
53666,-100,4,1,0,22,0,0
54095,-100,4,1,0,20,0,0

[HitObjects]
256,192,953,5,4,0:0:0:0:
256,192,1167,1,0,0:0:0:0:
256,192,1381,1,8,0:0:0:0:
256,192,1595,1,0,0:0:0:0:
256,192,1810,1,8,0:0:0:0:
256,192,2131,1,8,0:0:0:0:
256,192,2238,1,8,0:0:0:0:
256,192,2453,1,8,0:0:0:0:
256,192,2667,1,0,0:0:0:0:
256,192,3095,1,8,0:0:0:0:
256,192,3310,1,0,0:0:0:0:
256,192,3524,1,0,0:0:0:0:
256,192,3631,1,0,0:0:0:0:
256,192,3738,1,0,0:0:0:0:
256,192,3953,1,8,0:0:0:0:
256,192,4167,1,8,0:0:0:0:
256,192,4381,1,0,0:0:0:0:
256,192,4810,1,8,0:0:0:0:
256,192,5024,1,0,0:0:0:0:
256,192,5238,1,8,0:0:0:0:
256,192,5345,1,8,0:0:0:0:
256,192,5453,1,8,0:0:0:0:
256,192,5667,1,8,0:0:0:0:
256,192,5881,1,0,0:0:0:0:
256,192,6524,1,8,0:0:0:0:
256,192,6738,1,0,0:0:0:0:
256,192,6845,1,0,0:0:0:0:
256,192,6953,1,0,0:0:0:0:
256,192,7167,1,0,0:0:0:0:
256,192,7381,1,8,0:0:0:0:
256,192,7810,1,4,0:0:0:0:
256,192,8238,1,8,0:0:0:0:
256,192,8453,1,8,0:0:0:0:
256,192,8667,1,0,0:0:0:0:
256,192,9095,1,0,0:0:0:0:
256,192,9310,1,0,0:0:0:0:
256,192,9524,1,8,0:0:0:0:
256,192,9738,1,8,0:0:0:0:
256,192,9953,1,0,0:0:0:0:
256,192,10381,1,0,0:0:0:0:
256,192,10810,1,8,0:0:0:0:
256,192,11024,1,8,0:0:0:0:
256,192,11238,1,4,0:0:0:0:
256,192,11881,1,8,0:0:0:0:
256,192,12095,1,0,0:0:0:0:
256,192,12310,1,0,0:0:0:0:
256,192,12738,1,8,0:0:0:0:
256,192,12953,1,12,0:0:0:0:
256,192,13381,1,8,0:0:0:0:
256,192,13595,1,4,0:0:0:0:
256,192,14024,1,8,0:0:0:0:
256,192,14238,1,8,0:0:0:0:
256,192,14667,1,4,0:0:0:0:
256,192,14881,1,0,0:0:0:0:
256,192,15095,1,8,0:0:0:0:
256,192,15310,1,0,0:0:0:0:
256,192,15524,1,8,0:0:0:0:
256,192,15845,1,8,0:0:0:0:
256,192,15953,1,8,0:0:0:0:
256,192,16167,1,8,0:0:0:0:
256,192,16381,1,0,0:0:0:0:
256,192,16810,1,8,0:0:0:0:
256,192,17024,1,0,0:0:0:0:
256,192,17238,1,0,0:0:0:0:
256,192,17345,1,0,0:0:0:0:
256,192,17453,1,0,0:0:0:0:
256,192,17667,1,8,0:0:0:0:
256,192,17881,1,8,0:0:0:0:
256,192,18310,1,0,0:0:0:0:
256,192,18524,1,8,0:0:0:0:
256,192,18738,1,0,0:0:0:0:
256,192,18845,1,0,0:0:0:0:
256,192,18953,1,0,0:0:0:0:
256,192,19167,1,0,0:0:0:0:
256,192,19381,1,8,0:0:0:0:
256,192,19595,1,8,0:0:0:0:
256,192,20238,1,8,0:0:0:0:
256,192,20453,1,0,0:0:0:0:
256,192,20560,1,0,0:0:0:0:
256,192,20667,1,0,0:0:0:0:
256,192,20881,1,0,0:0:0:0:
256,192,21095,1,8,0:0:0:0:
256,192,21310,1,0,0:0:0:0:
256,192,21524,1,4,0:0:0:0:
256,192,21953,1,8,0:0:0:0:
256,192,22167,1,0,0:0:0:0:
256,192,22381,1,4,0:0:0:0:
256,192,22810,1,8,0:0:0:0:
256,192,23024,1,0,0:0:0:0:
256,192,23238,1,4,0:0:0:0:
256,192,23667,1,8,0:0:0:0:
256,192,23881,1,4,0:0:0:0:
256,192,24524,1,0,0:0:0:0:
256,192,24953,1,12,0:0:0:0:
256,192,25381,1,8,0:0:0:0:
256,192,25595,1,0,0:0:0:0:
256,192,25703,1,0,0:0:0:0:
256,192,25810,1,0,0:0:0:0:
256,192,26024,1,0,0:0:0:0:
256,192,26238,1,8,0:0:0:0:
256,192,26453,1,0,0:0:0:0:
256,192,26667,1,12,0:0:0:0:
256,192,27095,1,8,0:0:0:0:
256,192,27310,1,8,0:0:0:0:
256,192,27524,1,0,0:0:0:0:
256,192,27738,1,0,0:0:0:0:
256,192,27953,1,8,0:0:0:0:
256,192,28381,1,12,0:0:0:0:
256,192,28809,1,8,0:0:0:0:
256,192,29024,1,0,0:0:0:0:
256,192,29131,1,0,0:0:0:0:
256,192,29238,1,0,0:0:0:0:
256,192,29452,1,8,0:0:0:0:
256,192,29666,1,8,0:0:0:0:
256,192,29881,1,0,0:0:0:0:
256,192,30095,1,8,0:0:0:0:
256,192,30523,1,0,0:0:0:0:
256,192,30738,1,0,0:0:0:0:
256,192,30952,1,0,0:0:0:0:
256,192,31167,1,0,0:0:0:0:
256,192,31381,1,8,0:0:0:0:
256,192,31488,1,8,0:0:0:0:
256,192,31595,1,8,0:0:0:0:
256,192,31809,1,4,0:0:0:0:
256,192,32238,1,8,0:0:0:0:
256,192,32453,1,0,0:0:0:0:
256,192,32881,1,0,0:0:0:0:
256,192,33095,1,8,0:0:0:0:
256,192,33310,1,0,0:0:0:0:
256,192,33524,1,8,0:0:0:0:
256,192,33953,1,8,0:0:0:0:
256,192,34167,1,0,0:0:0:0:
256,192,34381,1,0,0:0:0:0:
256,192,34488,1,0,0:0:0:0:
256,192,34595,1,0,0:0:0:0:
256,192,34810,1,8,0:0:0:0:
256,192,35024,1,8,0:0:0:0:
256,192,35238,1,0,0:0:0:0:
256,192,35453,1,8,0:0:0:0:
256,192,35560,1,8,0:0:0:0:
256,192,35667,1,8,0:0:0:0:
256,192,35881,1,8,0:0:0:0:
256,192,36310,1,0,0:0:0:0:
256,192,36524,1,8,0:0:0:0:
256,192,36738,1,8,0:0:0:0:
256,192,37381,1,8,0:0:0:0:
256,192,37595,1,0,0:0:0:0:
256,192,37810,1,0,0:0:0:0:
256,192,37917,1,0,0:0:0:0:
256,192,38024,1,0,0:0:0:0:
256,192,38238,1,8,0:0:0:0:
256,192,38667,1,4,0:0:0:0:
256,192,39096,1,8,0:0:0:0:
256,192,39311,1,0,0:0:0:0:
256,192,39739,1,0,0:0:0:0:
256,192,39953,1,8,0:0:0:0:
256,192,40168,1,0,0:0:0:0:
256,192,40382,1,8,0:0:0:0:
256,192,40811,1,8,0:0:0:0:
256,192,41025,1,0,0:0:0:0:
256,192,41239,1,0,0:0:0:0:
256,192,41346,1,0,0:0:0:0:
256,192,41453,1,0,0:0:0:0:
256,192,41668,1,8,0:0:0:0:
256,192,41882,1,8,0:0:0:0:
256,192,42096,1,4,0:0:0:0:
256,192,42311,1,8,0:0:0:0:
256,192,42418,1,8,0:0:0:0:
256,192,42525,1,8,0:0:0:0:
256,192,42739,1,8,0:0:0:0:
256,192,43168,1,0,0:0:0:0:
256,192,43382,1,0,0:0:0:0:
256,192,43596,1,8,0:0:0:0:
256,192,43810,1,0,0:0:0:0:
256,192,44239,1,0,0:0:0:0:
256,192,44453,1,0,0:0:0:0:
256,192,44668,1,8,0:0:0:0:
256,192,44881,1,8,0:0:0:0:
256,192,45096,1,8,0:0:0:0:
256,192,45310,1,8,0:0:0:0:
256,192,46381,1,0,0:0:0:0:
256,192,46595,8,0,54095,0:0:0:0:
