osu file format v14

[General]
AudioFilename: audio.ogg
AudioLeadIn: 0
PreviewTime: 4830
Countdown: 0
SampleSet: Soft
StackLeniency: 0.7
Mode: 0
LetterboxInBreaks: 0
WidescreenStoryboard: 1

[Editor]
DistanceSpacing: 1.3
BeatDivisor: 8
GridSize: 16
TimelineZoom: 1

[Metadata]
Title:Shunkashuutou * Egao Biyori (TV Size)
TitleUnicode:春夏秋冬*笑顔日和 (TV Size)
Artist:Hanasaka Yui (CV: M.A.O)
ArtistUnicode:花坂結衣 (CV: M・A・O)
Creator:midorijeon
Version:Hard
Source:OneRoom サードシーズン
Tags:one room season 3 tv size カントク kantoku japanese pop jpop j-pop anime
BeatmapID:4461455
BeatmapSetID:1435947

[Difficulty]
HPDrainRate:4
CircleSize:4
OverallDifficulty:5
ApproachRate:7
SliderMultiplier:1.5
SliderTickRate:1

[Events]
//Background and Video events
0,0,"2.jpg",0,0
//Break Periods
//Storyboard Layer 0 (Background)
//Storyboard Layer 1 (Fail)
//Storyboard Layer 2 (Pass)
//Storyboard Layer 3 (Foreground)
//Storyboard Layer 4 (Overlay)
//Storyboard Sound Samples

[TimingPoints]
-1705,428.571428571429,4,2,1,20,1,0
437,-100,4,2,1,25,0,0
866,-100,4,2,1,30,0,0
1294,-100,4,2,1,35,0,0
1723,-100,4,2,1,40,0,0
2151,-100,4,2,1,45,0,0
2580,-100,4,2,1,50,0,0
3008,-100,4,2,1,55,0,0
3437,-100,4,2,1,5,0,0
3866,-100,4,2,1,65,0,0
4295,-100,4,2,1,45,0,0
4402,-100,4,2,1,49,0,0
4509,-100,4,2,1,54,0,0
4616,-100,4,2,1,58,0,0
4723,-100,4,2,1,63,0,0
4830,-100,4,2,1,67,0,0
4937,-100,4,2,1,71,0,0
5045,-100,4,2,1,76,0,0
5152,-100,4,2,1,80,0,0
5366,-100,4,2,2,80,0,0
5580,-100,4,2,1,80,0,0
5795,-100,4,2,2,80,0,0
6009,-100,4,2,1,80,0,0
6652,-100,4,2,2,80,0,0
6866,-100,4,2,1,80,0,0
7509,-100,4,2,2,80,0,0
7616,-100,4,2,1,80,0,0
7937,-100,4,2,2,80,0,0
8152,-100,4,2,1,80,0,0
8366,-100,4,2,2,80,0,0
8580,-100,4,2,1,80,0,0
8795,-100,4,2,2,80,0,0
9009,-100,4,2,1,80,0,0
9223,-100,4,2,2,80,0,0
9437,-100,4,2,1,80,0,0
10080,-100,4,2,2,80,0,0
10187,-100,4,2,1,80,0,0
10295,-100,4,2,1,80,0,0
12223,-100,4,2,2,80,0,0
12437,-100,4,2,1,80,0,0
12652,-100,4,2,2,80,0,0
12866,-100,4,2,1,80,0,0
13187,-100,4,2,1,5,0,0
13295,-100,4,2,1,80,0,0
13509,-100,4,2,2,80,0,0
13723,-100,4,2,1,80,0,0
13937,-100,4,2,2,80,0,0
14152,-100,4,2,1,80,0,0
15223,-100,4,2,2,80,0,0
15330,-100,4,2,1,80,0,0
15437,-100,4,2,4,80,0,0
15652,-100,4,2,2,80,0,0
15866,-100,4,2,1,80,0,0
16080,-100,4,2,2,80,0,0
16295,-100,4,2,1,80,0,0
16509,-100,4,2,2,80,0,0
16937,-100,4,2,2,80,0,0
17045,-100,4,2,1,80,0,0
17152,-100,4,2,1,80,0,0
17473,-100,4,2,1,5,0,0
17580,-100,4,2,1,80,0,0
17795,-100,4,2,2,80,0,0
18223,-100,4,2,7,80,0,0
18437,-100,4,2,1,80,0,0
18652,-100,4,2,7,80,0,0
18866,-100,4,2,1,80,0,0
19080,-100,4,2,2,80,0,0
19295,-100,4,2,4,80,0,0
19509,-100,4,2,2,80,0,0
19723,-100,4,2,1,80,0,0
20366,-100,4,2,2,80,0,0
20580,-100,4,2,1,80,0,0
21652,-100,4,2,2,80,0,0
21866,-100,4,2,1,80,0,0
22080,-100,4,2,2,80,0,0
22723,-100,4,2,1,80,0,0
22937,-100,4,2,2,80,0,0
23152,-100,4,2,1,80,0,0
23366,-100,4,2,2,80,0,0
23580,-100,4,2,1,80,0,0
23795,-100,4,2,2,80,0,0
24009,-100,4,2,1,80,0,0
25509,-100,4,2,2,80,0,0
25723,-100,4,2,1,80,0,0
25937,-100,4,2,2,80,0,0
26152,-100,4,2,1,80,0,0
26366,-100,4,2,2,80,0,0
26580,-100,4,2,4,80,0,0
26795,-100,4,2,1,80,0,0
27330,-100,4,2,1,5,0,0
27437,-100,4,2,1,80,0,0
27652,-100,4,2,2,80,0,0
27866,-100,4,2,1,80,0,0
28080,-100,4,2,2,80,0,0
28509,-100,4,2,1,80,0,0
29045,-100,4,2,1,5,0,0
29152,-100,4,2,1,80,0,0
29795,-100,4,2,2,80,0,0
30652,-100,4,2,2,80,0,0
30759,-100,4,2,1,80,0,0
30866,-200,4,2,1,65,0,0
32580,-200,4,2,1,5,0,0

[Colours]
Combo1 : 128,64,64
Combo2 : 255,224,119
Combo3 : 97,52,7
Combo4 : 255,176,98

[HitObjects]
256,192,437,12,0,3437,0:0:0:0:
440,298,4295,5,2,0:0:0:0:
422,295,4402,1,2,0:0:0:0:
403,293,4509,1,2,0:0:0:0:
385,291,4616,1,2,0:0:0:0:
366,288,4723,2,0,L|328:283,3,37.5,2|2|2|2,0:0|0:0|0:0|0:0,0:0:0:0:
287,309,5152,6,0,P|250:314|216:299,1,75.0000000000015,6|2,1:1|0:0,0:0:0:0:
122,326,5580,2,0,P|99:296|94:260,1,75.0000000000015,10|2,1:2|0:0,0:0:0:0:
135,171,6009,2,0,B|181:165|181:165|197:177|197:177|242:172,2,112.5,2|2|2,1:2|2:2|0:0,0:0:0:0:
38,185,6866,6,0,B|50:86|50:86|75:77|89:56,1,150.000000000001,2|8,1:2|1:2,0:0:0:0:
176,6,7509,1,2,0:0:0:0:
176,6,7616,1,2,0:0:0:0:
176,6,7723,2,0,L|275:19,1,75,2|2,1:2|0:0,0:0:0:0:
309,91,8152,1,10,1:2:0:0:
405,79,8366,1,2,0:0:0:0:
501,67,8580,6,0,L|487:166,1,75,2|2,1:2|0:0,0:0:0:0:
414,200,9009,2,0,L|423:274,1,75,10|2,1:2|0:0,0:0:0:0:
451,367,9437,2,0,B|412:381|378:358|378:358|346:337|308:349,1,150.000000000001,2|10,1:2|1:2,0:0:0:0:
218,369,10080,5,2,0:0:0:0:
218,369,10187,1,2,0:0:0:0:
218,369,10295,2,0,P|213:332|228:298,1,75.0000000000015,2|2,1:2|2:3,0:0:0:0:
297,230,10723,2,0,P|311:196|306:159,1,75.0000000000015,8|2,1:2|2:3,0:0:0:0:
258,74,11152,2,0,L|109:54,1,150,2|8,1:2|1:2,0:0:0:0:
83,247,12009,6,0,L|182:233,1,75,6|2,1:2|0:0,0:0:0:0:
253,224,12437,1,10,1:2:0:0:
241,320,12652,1,2,0:0:0:0:
337,308,12866,2,0,B|383:302|383:302|399:314|399:314|444:309,1,112.5,2|0,1:2|0:0,0:0:0:0:
493,317,13295,6,0,L|479:218,1,75,10|2,1:2|0:0,0:0:0:0:
406,183,13723,1,2,1:2:0:0:
406,183,13937,1,2,0:0:0:0:
465,107,14152,2,0,L|451:8,1,75,10|2,1:2|2:3,0:0:0:0:
373,87,14580,6,0,L|224:67,1,150,2|10,1:2|1:2,0:0:0:0:
149,21,15223,1,2,0:0:0:0:
149,21,15330,1,2,0:0:0:0:
149,21,15438,2,0,P|134:54|139:91,1,75.0000000000015,6|2,1:2|0:0,0:0:0:0:
207,160,15866,2,0,L|196:234,1,75,10|2,1:2|0:0,0:0:0:0:
186,334,16295,1,2,1:2:0:0:
186,334,16509,2,0,L|111:323,1,75,2|8,2:2|1:2,0:0:0:0:
29,369,16937,5,2,0:0:0:0:
29,369,17045,1,2,0:0:0:0:
29,369,17152,2,0,B|19:296|19:296|36:285|42:267,1,112.5,6|0,1:2|0:0,0:0:0:0:
64,222,17580,1,10,1:2:0:0:
160,237,17795,2,0,L|235:248,1,75,6|0,0:0|1:2,0:0:0:0:
330,263,18223,1,10,0:0:0:0:
342,167,18438,1,10,1:2:0:0:
354,71,18652,1,10,0:0:0:0:
258,59,18866,6,0,L|183:48,1,75,6|2,1:2|0:0,0:0:0:0:
86,34,19295,2,0,L|96:108,1,75,14|2,1:2|0:0,0:0:0:0:
111,204,19723,2,0,L|0:188,2,112.5,2|2|2,1:2|2:2|0:0,0:0:0:0:
188,144,20580,6,0,B|249:136|249:136|270:152|270:152|331:145,1,150.000000000001,2|8,1:2|1:2,0:0:0:0:
435,136,21223,1,2,0:3:0:0:
435,136,21330,1,2,0:0:0:0:
435,136,21437,2,0,L|422:235,1,75,2|2,1:2|0:0,0:0:0:0:
412,307,21866,1,10,1:2:0:0:
334,248,22080,6,0,B|295:234|261:257|261:257|229:278|191:266,1,150.000000000001,2|2,2:2|0:0,0:0:0:0:
95,287,22723,2,0,P|90:250|105:216,1,75.0000000000015,10|2,1:2|0:0,0:0:0:0:
179,153,23152,1,2,1:2:0:0:
179,153,23366,1,2,0:0:0:0:
166,56,23580,2,0,L|91:65,1,75,10|2,1:2|0:0,0:0:0:0:
252,101,24009,6,0,L|400:81,1,150,2|8,1:2|1:2,0:0:0:0:
427,274,24866,2,0,L|352:263,1,75,2|2,1:2|2:3,0:0:0:0:
275,322,25294,1,10,1:2:0:0:
216,245,25509,6,0,P|195:173|232:111,1,150.000000000001,2|2,2:2|0:0,0:0:0:0:
315,59,26152,1,10,1:2:0:0:
315,59,26366,1,2,0:0:0:0:
228,14,26580,2,0,L|153:24,1,75,6|2,1:2|2:3,0:0:0:0:
57,40,27009,2,0,L|72:152,1,112.5,10|0,1:2|0:0,0:0:0:0:
80,199,27437,5,6,1:2:0:0:
176,187,27652,2,0,L|166:261,1,75,2|10,2:2|1:2,0:0:0:0:
262,249,28080,2,0,B|323:241|323:241|344:257|344:257|405:250,1,150.000000000001,6|2,2:2|2:3,0:0:0:0:
502,238,28723,2,0,P|517:185|489:138,1,112.5,10|0,1:2|0:0,0:0:0:0:
441,129,29152,6,0,B|342:116|342:116|327:138|303:147,1,150.000000000001,6|10,1:2|1:2,0:0:0:0:
257,60,29795,2,0,P|220:55|186:70,1,75.0000000000015,2|0,2:2|1:1,0:0:0:0:
92,43,30223,2,0,P|69:73|64:109,1,75.0000000000015,2|8,2:2|1:2,0:0:0:0:
118,202,30652,5,2,0:2:0:0:
118,202,30759,1,2,0:0:0:0:
118,202,30866,2,1,B|115:233|83:242|83:242|38:231|38:231|13:243|13:270|13:270|33:367|33:367|43:344|69:338,1,300,6|0,1:2|0:0,0:0:0:0:
