osu file format v14

[General]
AudioFilename: audio.mp3
AudioLeadIn: 1000
PreviewTime: 126060
Countdown: 0
SampleSet: Soft
StackLeniency: 0.4
Mode: 0
LetterboxInBreaks: 0
WidescreenStoryboard: 1

[Editor]
Bookmarks: 161203,168275,214560
DistanceSpacing: 1.4
BeatDivisor: 4
GridSize: 16
TimelineZoom: 1.7

[Metadata]
Title:Shunkashuutou * Egao Biyori
TitleUnicode:春夏秋冬*笑顔日和
Artist:Hanasaka Yui (CV: M.A.O)
ArtistUnicode:花坂結衣 (CV: M・A・O)
Creator:Momochikun
Version:Insane
Source:OneRoom サードシーズン
Tags:gaia one room third season ワンルーム japanese anime pop ichimichi mao kantoku 市道真央 ending カントク
BeatmapID:4389202
BeatmapSetID:2093442

[Difficulty]
HPDrainRate:7
CircleSize:4.2
OverallDifficulty:8
ApproachRate:8.5
SliderMultiplier:1.57
SliderTickRate:1

[Events]
//Background and Video events
0,0,"BG.png",0,0
//Break Periods
2,161417,167417
//Storyboard Layer 0 (Background)
//Storyboard Layer 1 (Fail)
//Storyboard Layer 2 (Pass)
//Storyboard Layer 3 (Foreground)
//Storyboard Layer 4 (Overlay)
//Storyboard Sound Samples

[TimingPoints]
275,428.571428571429,4,2,1,60,1,0
275,-117.647058823529,4,2,1,60,0,0
6703,-133.333333333333,4,2,1,40,0,0
7132,-100,4,2,1,70,0,1
7239,-100,4,2,1,70,0,0
13989,-100,4,2,1,45,0,0
14096,-100,4,2,1,10,0,0
15703,-100,4,2,1,60,0,0
29417,-117.647058823529,4,2,1,60,0,0
36275,-100,4,2,1,65,0,0
43132,-125,4,2,1,65,0,0
44417,-125,4,2,1,45,0,0
44846,-100,4,2,1,75,0,1
54703,-100,4,2,1,60,0,1
55132,-100,4,2,1,75,0,1
58346,-100,4,2,1,75,0,0
58560,-100,4,2,1,75,0,1
70560,-125,4,2,1,75,0,1
70989,-125,4,2,1,55,0,1
72275,-117.647058823529,4,2,1,55,0,0
78703,-125,4,2,1,40,0,0
79132,-100,4,2,1,70,0,1
79239,-100,4,2,1,70,0,0
85989,-125,4,2,1,60,0,0
92417,-125,4,2,1,40,0,0
92846,-117.647058823529,4,2,1,60,0,0
106560,-100,4,2,1,65,0,0
113417,-125,4,2,1,65,0,0
114703,-125,4,2,1,45,0,0
115132,-100,4,2,1,75,0,1
124989,-100,4,2,1,60,0,1
125417,-100,4,2,1,75,0,1
128632,-100,4,2,1,75,0,0
128846,-100,4,2,1,75,0,1
141275,-125,4,2,1,50,0,1
142453,-100,4,2,1,70,0,0
142560,-100,4,2,1,75,0,1
142667,-100,4,2,1,65,0,0
156382,-100,4,2,1,35,0,0
156703,-100,4,2,1,45,0,0
157132,-100,4,2,1,55,0,0
157989,-222.222222222222,4,2,1,65,0,0
160775,-153.846153846153,4,2,1,50,0,0
161203,-153.846153846153,4,2,1,30,0,0
168275,-117.647058823529,4,2,1,60,0,0
173203,-100,4,2,1,70,0,1
174917,-142.857142857143,4,2,1,60,0,0
175346,-153.846153846153,4,2,1,30,0,0
175560,-100,4,2,1,75,0,1
190775,-100,4,2,1,65,0,1
192167,-100,4,2,1,75,0,0
192275,-100,4,2,1,75,0,1
192382,-100,4,2,1,65,0,0
204275,-100,4,2,1,50,0,0
204703,-100,4,2,1,55,0,0
205132,-100,4,2,1,60,0,0
205560,-100,4,2,1,65,0,0
206846,-100,4,2,1,45,0,0
206953,-100,4,2,1,40,0,0
209417,-100,4,2,1,30,0,0
211132,-100,4,2,1,20,0,0
212846,-100,4,2,1,10,0,0

[Colours]
Combo1 : 255,183,255
Combo2 : 204,202,170
Combo3 : 255,255,183
Combo4 : 255,185,185

[HitObjects]
180,251,275,6,0,P|146:297|124:328,1,66.7250012726784,2|0,0:0|0:0,0:0:0:0:
67,340,703,1,2,0:0:0:0:
85,214,917,2,0,P|79:166|50:73,1,133.450002545357,2|2,0:0|0:0,0:0:0:0:
119,18,1560,1,2,0:0:0:0:
119,18,1775,1,2,0:0:0:0:
161,113,1989,6,0,P|217:99|248:92,1,66.7250012726784,2|0,0:0|0:0,0:0:0:0:
368,126,2417,1,2,0:0:0:0:
316,187,2632,2,0,P|284:195|252:204,1,66.7250012726784,2|0,0:0|0:0,0:0:0:0:
168,260,3060,1,0,0:0:0:0:
105,313,3275,1,0,0:0:0:0:
199,366,3489,1,2,0:0:0:0:
152,234,3703,6,0,P|160:193|168:155,1,66.7250012726784,2|0,0:0|0:0,0:0:0:0:
122,100,4132,1,2,0:0:0:0:
256,48,4346,1,2,0:0:0:0:
256,48,4453,1,0,0:0:0:0:
256,48,4560,2,0,P|293:56|321:90,1,66.7250012726784,0|2,0:0|0:0,0:0:0:0:
361,139,4989,1,0,0:0:0:0:
235,198,5203,6,0,B|191:186|191:186|155:197|155:197|85:173,1,133.450002545357,2|2,0:0|0:0,0:0:0:0:
54,120,5846,1,0,0:0:0:0:
13,213,6060,2,0,P|0:252|0:284,1,66.7250012726784,2|0,0:0|0:0,0:0:0:0:
107,180,6489,1,0,0:0:0:0:
131,60,6703,6,0,P|84:27|17:28,1,117.750004491806,8|4,0:3|1:0,0:0:0:0:
54,120,7346,5,0,0:0:0:0:
134,190,7560,2,0,P|174:203|218:201,1,78.5,2|0,1:0|0:0,0:0:0:0:
299,138,7989,1,2,1:0:0:0:
273,310,8203,1,0,0:0:0:0:
369,279,8417,2,0,P|386:240|383:189,1,78.5,2|0,1:0|0:0,0:0:0:0:
347,71,8846,6,0,P|295:93|228:86,1,117.75,2|0,1:0|0:0,0:0:0:0:
235,89,9275,1,2,1:0:0:0:
150,169,9489,1,0,0:0:0:0:
150,169,9596,1,0,0:0:0:0:
150,169,9703,2,0,P|139:211|129:248,1,78.5,2|0,1:0|0:0,0:0:0:0:
63,300,10132,1,2,1:0:0:0:
15,146,10346,1,0,0:0:0:0:
237,218,10560,6,0,P|257:151|206:67,1,157,4|2,0:0|0:0,0:0:0:0:
146,285,11203,1,4,0:0:0:0:
146,285,11632,1,2,1:0:0:0:
324,241,11846,1,2,0:0:0:0:
360,64,12060,1,4,0:0:0:0:
360,64,12489,5,0,1:0:0:0:
349,205,12703,1,0,1:0:0:0:
325,50,12917,1,0,1:0:0:0:
192,95,13132,1,0,1:0:0:0:
172,116,13239,1,0,1:0:0:0:
159,143,13346,1,0,1:0:0:0:
154,172,13453,1,0,1:0:0:0:
156,201,13560,2,0,L|166:240,5,26.1666666666667,0|0|0|0|0|0,1:0|1:0|1:0|1:0|1:0|1:0,0:0:0:0:
184,310,13989,5,4,0:0:0:0:
256,192,14096,12,4,15703,1:0:0:0:
169,253,16132,6,0,L|151:329,1,78.5,0|0,1:0|0:0,0:0:0:0:
290,217,16560,2,0,L|272:141,1,78.5,2|0,1:0|0:0,0:0:0:0:
189,114,16989,1,0,1:0:0:0:
328,30,17203,6,0,P|381:94|377:165,1,157,2|2,0:0|0:0,0:0:0:0:
254,275,17846,1,0,1:0:0:0:
285,126,18060,1,2,0:0:0:0:
378,216,18275,5,0,1:0:0:0:
216,187,18489,1,2,0:0:0:0:
256,16,18703,1,8,0:0:0:0:
376,97,18917,1,0,0:0:0:0:
160,135,19132,6,0,P|142:174|146:218,1,78.5,2|0,1:0|0:0,0:0:0:0:
166,291,19560,1,0,1:0:0:0:
325,246,19775,1,0,0:0:0:0:
325,246,19882,1,0,0:0:0:0:
325,246,19989,2,0,P|284:229|250:231,1,78.5,2|0,1:0|0:0,0:0:0:0:
93,334,20417,2,0,P|54:333|21:313,1,78.5,0|0,1:0|0:0,0:0:0:0:
82,165,20846,5,2,1:0:0:0:
132,264,21060,1,0,0:0:0:0:
71,139,21275,2,0,L|53:58,1,78.5,0|0,1:0|0:0,0:0:0:0:
131,24,21703,1,2,1:0:0:0:
210,167,21917,1,0,0:0:0:0:
218,184,22025,1,0,0:0:0:0:
226,201,22132,2,0,L|210:289,1,78.5,8|0,0:0|0:0,0:0:0:0:
145,344,22560,6,0,P|87:360|-3:324,1,157,2|0,1:0|1:0,0:0:0:0:
316,247,23417,1,2,1:0:0:0:
213,278,23632,1,0,0:0:0:0:
341,236,23846,1,0,1:0:0:0:
249,92,24060,1,0,0:0:0:0:
210,175,24275,6,0,P|169:169|131:161,1,78.5,0|0,1:0|0:0,0:0:0:0:
316,149,24704,1,0,1:0:0:0:
365,227,24918,2,0,L|353:311,1,78.5,2|0,0:0|1:0,0:0:0:0:
475,254,25346,1,0,0:0:0:0:
352,125,25560,2,0,P|331:87|333:42,1,78.5,8|0,0:0|0:0,0:0:0:0:
175,28,25989,6,0,B|154:88|195:135|195:135|188:193,1,157,2|0,1:0|1:0,0:0:0:0:
147,253,26632,2,0,P|128:291|133:333,1,78.5,2|0,0:0|1:0,0:0:0:0:
261,362,27060,1,2,0:0:0:0:
261,362,27167,1,0,0:0:0:0:
261,362,27275,1,0,1:0:0:0:
221,193,27489,1,2,0:0:0:0:
136,234,27703,6,0,L|57:249,1,78.5,0|2,1:0|0:0,0:0:0:0:
271,276,28132,2,0,L|348:261,1,78.5,8|2,0:0|0:0,0:0:0:0:
136,234,28560,1,0,1:0:0:0:
296,131,28775,5,8,0:0:0:0:
202,369,28989,1,8,0:0:0:0:
271,276,29203,5,0,1:0:0:0:
271,276,29310,1,0,1:0:0:0:
271,276,29417,2,0,B|239:226|173:241|173:241|199:248|218:266,1,133.450002545357,4|2,1:0|0:0,0:0:0:0:
284,357,30060,1,0,0:0:0:0:
362,340,30275,2,0,B|401:320|393:264|393:264|367:218,1,133.450002545357,8|2,0:0|0:0,0:0:0:0:
343,143,30917,5,0,0:0:0:0:
343,143,31025,1,0,0:0:0:0:
343,143,31132,2,0,P|326:109|328:78,1,66.7250012726784,2|0,0:0|1:0,0:0:0:0:
452,0,31560,2,0,P|452:33|436:61,1,66.7250012726784,2|0,1:0|0:0,0:0:0:0:
274,202,31989,1,8,0:0:0:0:
343,143,32203,2,0,B|259:162|259:162|210:137,1,133.450002545357,0|0,1:0|0:0,0:0:0:0:
138,95,32846,6,0,L|64:124,1,66.7250012726784,2|0,1:0|0:0,0:0:0:0:
9,73,33275,1,0,0:0:0:0:
105,198,33489,2,0,P|125:231|137:260,1,66.7250012726784,2|8,1:0|0:0,0:0:0:0:
279,363,33917,1,0,0:0:0:0:
230,301,34132,2,0,P|189:315|157:324,1,66.7250012726784,0|0,1:0|0:0,0:0:0:0:
31,362,34560,5,2,0:0:0:0:
14,283,34775,1,0,1:0:0:0:
114,181,34989,1,0,0:0:0:0:
97,260,35204,1,0,1:0:0:0:
191,159,35417,2,0,P|265:134|326:146,1,133.450002545357,8|0,0:0|1:0,0:0:0:0:
371,204,36060,1,2,0:0:0:0:
256,48,36275,6,0,B|195:33|146:65|146:65|99:35,1,157,4|0,1:0|1:0,0:0:0:0:
35,88,36917,1,2,0:0:0:0:
198,194,37132,2,0,P|215:157|209:114,1,78.5,0|2,1:0|0:0,0:0:0:0:
104,18,37560,1,8,0:0:0:0:
113,173,37775,5,2,0:0:0:0:
113,173,37882,1,0,0:0:0:0:
113,173,37989,2,0,P|109:216|103:263,1,78.5,0|2,1:0|0:0,0:0:0:0:
273,303,38417,2,0,P|277:260|283:213,1,78.5,0|2,1:0|0:0,0:0:0:0:
208,137,38846,5,0,1:0:0:0:
182,309,39060,1,2,0:0:0:0:
290,202,39275,5,8,0:0:0:0:
125,186,39489,1,2,0:0:0:0:
339,369,39703,5,4,1:2:0:0:
339,369,40132,1,8,0:0:0:0:
227,243,40346,2,0,P|304:225|383:210,1,157,4|2,0:0|1:0,0:0:0:0:
282,96,40989,5,8,0:0:0:0:
219,349,41203,2,0,P|147:362|71:300,1,157,4|0,1:2|1:0,0:0:0:0:
256,192,41846,5,2,1:0:0:0:
162,288,42060,1,0,1:0:0:0:
312,374,42275,1,2,1:0:0:0:
330,351,42382,1,0,1:0:0:0:
341,324,42489,1,0,1:0:0:0:
342,294,42596,1,0,1:0:0:0:
333,266,42703,2,0,L|341:226,5,26.1666666666667,2|0|0|0|0|0,1:0|1:0|1:0|1:0|1:0|1:0,0:0:0:0:
399,177,43132,6,0,B|399:128|375:101|375:101|382:76|394:55,1,125.6,4|8,0:0|0:0,0:0:0:0:
496,19,43775,1,8,0:0:0:0:
484,39,44203,5,8,0:0:0:0:
300,127,44417,1,8,0:0:0:0:
270,123,44524,1,0,1:0:0:0:
242,112,44631,1,0,1:0:0:0:
219,93,44738,1,0,1:0:0:0:
202,69,44846,6,0,P|132:81|75:150,1,157,6|8,1:0|0:0,0:0:0:0:
38,39,45489,1,2,0:0:0:0:
164,180,45703,2,0,P|173:230|180:273,1,78.5,0|2,1:0|0:0,0:0:0:0:
177,257,46025,1,0,0:0:0:0:
177,257,46132,1,8,0:0:0:0:
56,320,46346,1,2,0:0:0:0:
252,361,46560,6,0,B|298:326|359:339|359:339|378:324|390:300,1,157,2|8,1:0|0:0,0:0:0:0:
324,156,47203,1,2,0:0:0:0:
324,156,47310,1,0,0:0:0:0:
324,156,47417,2,0,P|308:194|317:240,1,78.5,0|2,1:0|0:0,0:0:0:0:
476,188,47846,1,8,0:0:0:0:
406,110,48060,1,2,0:0:0:0:
374,341,48275,5,0,1:0:0:0:
269,204,48489,1,2,0:0:0:0:
216,311,48703,1,8,0:0:0:0:
364,181,48917,1,2,0:0:0:0:
294,84,49132,2,0,P|309:38|330:10,1,78.5,0|2,1:0|0:0,0:0:0:0:
269,204,49560,2,0,P|221:231|181:235,1,78.5,8|2,0:0|0:0,0:0:0:0:
35,336,49989,5,2,1:0:0:0:
121,211,50203,1,0,0:0:0:0:
121,211,50310,1,0,0:0:0:0:
121,211,50417,2,0,P|111:252|126:302,1,78.5,8|2,0:0|0:0,0:0:0:0:
121,100,50846,1,0,1:0:0:0:
30,224,51060,1,2,0:0:0:0:
100,21,51275,5,8,0:0:0:0:
237,123,51489,1,2,0:0:0:0:
136,269,51703,6,0,P|127:229|117:186,1,78.5,4|2,0:0|0:0,0:0:0:0:
204,28,52132,1,8,0:0:0:0:
121,100,52346,1,2,0:0:0:0:
256,224,52560,2,0,P|313:240|379:230,1,117.75,2|0,1:0|0:0,0:0:0:0:
392,218,52989,5,8,0:0:0:0:
284,338,53203,1,2,0:0:0:0:
322,125,53417,6,0,P|312:83|281:54,1,78.5,2|2,1:0|0:0,0:0:0:0:
192,281,53846,2,0,P|234:308|275:308,1,78.5,8|0,0:0|0:0,0:0:0:0:
445,141,54275,2,0,B|398:155|398:155|368:139|368:139|283:167,1,157,2|12,1:0|0:0,0:0:0:0:
192,281,54917,5,8,0:0:0:0:
192,281,55025,1,8,0:0:0:0:
192,281,55132,2,0,P|174:242|175:202,1,78.5,4|0,1:0|0:0,0:0:0:0:
190,81,55560,1,8,0:0:0:0:
190,81,55775,1,2,0:0:0:0:
298,163,55989,5,0,1:0:0:0:
253,22,56203,1,2,0:0:0:0:
378,114,56417,1,8,0:0:0:0:
208,216,56632,1,8,0:0:0:0:
338,38,56846,5,4,0:0:0:0:
256,320,57060,1,2,0:0:0:0:
96,192,57275,1,8,0:0:0:0:
378,114,57489,2,0,P|428:168|425:261,1,157,4|8,0:2|0:0,0:0:0:0:
203,351,58132,1,8,0:0:0:0:
259,173,58346,5,8,0:0:0:0:
259,173,58453,1,8,0:0:0:0:
259,173,58560,2,0,L|174:213,1,78.5,4|2,1:0|0:0,0:0:0:0:
358,137,58989,2,0,P|352:178|347:214,1,78.5,8|2,0:0|0:0,0:0:0:0:
309,377,59417,1,0,1:0:0:0:
268,249,59632,5,2,0:0:0:0:
268,249,59739,1,0,0:0:0:0:
268,249,59846,1,8,0:0:0:0:
199,346,60060,1,2,0:0:0:0:
398,274,60275,6,0,P|419:231|426:195,1,78.5,0|2,1:0|0:0,0:0:0:0:
319,80,60703,2,0,P|285:62|246:57,1,78.5,8|2,0:0|0:0,0:0:0:0:
219,66,61025,1,0,0:0:0:0:
219,66,61132,1,0,1:0:0:0:
216,184,61346,1,2,0:0:0:0:
325,230,61560,1,8,0:0:0:0:
407,145,61775,1,2,0:0:0:0:
305,114,61989,5,0,1:0:0:0:
257,286,62203,1,2,0:0:0:0:
238,163,62417,5,8,0:0:0:0:
316,330,62632,1,2,0:0:0:0:
292,169,62846,5,0,1:0:0:0:
234,354,63060,1,2,0:0:0:0:
338,145,63275,5,8,0:0:0:0:
178,294,63489,1,2,0:0:0:0:
316,330,63703,6,0,P|356:340|395:358,1,78.5,4|0,0:0|0:0,0:0:0:0:
361,221,64132,2,0,P|347:184|339:146,1,78.5,8|0,0:0|0:0,0:0:0:0:
338,145,64453,1,0,0:0:0:0:
338,145,64560,1,2,1:0:0:0:
208,87,64775,1,0,0:0:0:0:
149,201,64989,2,0,P|98:230|64:230,1,78.5,8|2,0:0|0:0,0:0:0:0:
256,240,65417,5,4,0:0:0:0:
123,109,65632,1,2,0:0:0:0:
258,29,65846,2,0,P|280:61|282:108,1,78.5,8|2,0:0|0:0,0:0:0:0:
249,284,66275,2,0,P|257:239|262:205,1,78.5,4|0,0:0|0:0,0:0:0:0:
374,112,66703,1,8,0:0:0:0:
344,304,66917,5,0,0:0:0:0:
353,322,67025,1,0,0:0:0:0:
362,340,67132,1,4,0:0:0:0:
256,368,67346,1,2,0:0:0:0:
391,230,67560,1,8,0:0:0:0:
195,102,67775,2,0,B|144:136|82:117|82:117|51:147,1,157,4|2,0:0|0:0,0:0:0:0:
85,280,68417,1,8,0:0:0:0:
250,218,68632,5,8,0:0:0:0:
268,209,68739,1,8,0:0:0:0:
282,195,68846,2,0,P|359:186|431:229,1,157,4|8,1:0|0:0,0:0:0:0:
358,341,69489,2,0,P|339:306|344:256,1,78.5,2|0,0:0|1:0,0:0:0:0:
374,160,69917,1,2,0:0:0:0:
268,209,70132,1,8,0:0:0:0:
297,122,70346,1,2,0:0:0:0:
358,341,70560,5,4,1:0:0:0:
358,341,70989,6,0,P|394:330|424:308,1,62.8
512,268,71417,2,0,P|499:303|499:340,1,62.8
420,207,71846,2,0,P|434:146|385:91,1,125.6,0|2,0:0|1:0,0:0:0:0:
380,83,72703,5,2,1:0:0:0:
314,135,72917,2,0,L|243:120,1,66.7250012726784,2|0,0:0|1:0,0:0:0:0:
106,66,73346,1,2,0:0:0:0:
167,15,73560,2,0,L|232:28,1,66.7250012726784,0|2,1:0|0:0,0:0:0:0:
314,135,73989,6,0,L|292:211,1,66.7250012726784,2|0,1:0|0:0,0:0:0:0:
325,273,74417,1,2,1:0:0:0:
184,238,74632,1,2,0:0:0:0:
184,238,74739,1,0,0:0:0:0:
184,238,74846,2,0,P|150:253|128:284,1,66.7250012726784,0|0,1:0|0:0,0:0:0:0:
110,352,75275,1,0,1:0:0:0:
110,352,75489,1,2,0:0:0:0:
21,226,75703,5,2,1:0:0:0:
82,174,75917,1,2,0:0:0:0:
65,95,76132,1,2,1:0:0:0:
176,193,76346,1,2,0:0:0:0:
176,193,76453,1,0,0:0:0:0:
176,193,76560,2,0,P|202:161|207:124,1,66.7250012726784,0|2,1:0|0:0,0:0:0:0:
192,57,76989,1,0,1:0:0:0:
314,82,77203,6,0,P|300:40|277:20,1,66.7250012726784,2|0,0:0|1:0,0:0:0:0:
192,57,77632,1,0,0:0:0:0:
266,163,77846,2,0,L|281:281,1,100.087501909018,2|0,1:0|0:0,0:0:0:0:
284,285,78275,1,0,1:0:0:0:
379,260,78489,1,0,0:0:0:0:
182,172,78703,6,0,P|172:114|221:59,1,125.6,8|4,0:3|1:0,0:0:0:0:
85,96,79346,5,0,0:0:0:0:
123,220,79560,2,0,P|164:246|196:246,1,78.5,2|0,1:0|0:0,0:0:0:0:
341,168,79989,2,0,P|382:150|416:152,1,78.5,2|0,1:0|0:0,0:0:0:0:
296,276,80417,2,0,L|281:375,1,78.5,2|0,1:0|0:0,0:0:0:0:
256,80,80846,5,2,1:0:0:0:
341,168,81060,1,0,0:0:0:0:
341,168,81167,1,0,0:0:0:0:
341,168,81275,1,2,1:0:0:0:
282,264,81489,1,0,0:0:0:0:
168,148,81703,2,0,P|165:104|181:73,1,78.5,2|0,1:0|0:0,0:0:0:0:
445,205,82132,2,0,P|447:248|431:279,1,78.5,2|0,1:0|0:0,0:0:0:0:
256,352,82560,6,0,P|183:368|108:330,1,157,4|2,0:0|0:0,0:0:0:0:
181,140,83203,1,4,0:0:0:0:
181,140,83632,1,2,1:0:0:0:
359,184,83846,1,2,0:0:0:0:
395,361,84060,1,4,0:0:0:0:
395,361,84489,5,0,1:0:0:0:
293,295,84703,1,0,1:0:0:0:
354,155,84917,1,0,1:0:0:0:
268,46,85132,1,0,1:0:0:0:
239,54,85239,1,0,1:0:0:0:
214,72,85346,1,0,1:0:0:0:
197,95,85453,1,0,1:0:0:0:
184,121,85560,2,0,L|173:159,5,26.1666666666667,0|0|0|0|0|0,1:0|1:0|1:0|1:0|1:0|1:0,0:0:0:0:
147,234,85989,6,0,P|85:242|32:213,1,125.6,4|0,1:0|0:0,0:0:0:0:
31,212,86632,1,0,0:0:0:0:
112,328,86846,2,0,P|150:320|176:315,1,62.8,2|0,0:0|0:0,0:0:0:0:
295,324,87275,1,0,0:0:0:0:
270,208,87489,6,0,P|208:220|146:233,1,125.6,2|0,0:0|0:0,0:0:0:0:
47,192,88132,2,0,L|28:118,1,62.8
131,33,88560,2,0,L|146:93,1,62.8,2|0,0:0|0:0,0:0:0:0:
22,103,88989,1,0,0:0:0:0:
161,122,89203,1,0,0:0:0:0:
70,208,89417,6,0,P|41:260|46:329,1,125.6,2|0,0:0|0:0,0:0:0:0:
280,353,90275,2,0,P|265:317|239:297,1,62.8,2|0,0:0|0:0,0:0:0:0:
182,264,90703,1,0,0:0:0:0:
256,144,90917,5,0,0:0:0:0:
256,144,91132,2,0,L|278:208,2,62.8,2|0|0,0:0|0:0|0:0,0:0:0:0:
186,105,91775,1,0,0:0:0:0:
256,32,91989,2,0,P|314:17|387:0,1,125.6,2|4,0:0|0:0,0:0:0:0:
256,304,92846,5,4,1:0:0:0:
256,304,93275,2,0,P|223:318|192:317,1,66.7250012726784,0|0,1:0|0:0,0:0:0:0:
101,342,93703,2,0,L|80:207,1,133.450002545357,8|2,0:0|0:0,0:0:0:0:
80,210,94239,1,0,0:0:0:0:
80,210,94346,1,0,0:0:0:0:
210,121,94560,5,0,0:0:0:0:
170,238,94775,1,0,1:0:0:0:
129,92,94989,2,0,L|141:25,1,66.7250012726784,0|0,1:0|0:0,0:0:0:0:
256,144,95417,1,8,0:0:0:0:
145,231,95632,2,0,P|88:251|47:320,1,133.450002545357,0|2,1:0|0:0,0:0:0:0:
276,214,96275,6,0,P|308:161|295:79,1,133.450002545357,4|0,0:0|0:0,0:0:0:0:
232,38,96917,1,2,1:0:0:0:
332,11,97132,2,0,P|367:16|404:12,1,66.7250012726784,8|0,0:0|1:0,0:0:0:0:
396,138,97560,1,2,0:0:0:0:
232,127,97775,6,0,P|197:122|160:126,1,66.7250012726784,4|0,0:0|0:0,0:0:0:0:
322,183,98203,1,2,1:0:0:0:
259,42,98417,1,8,0:0:0:0:
227,261,98632,1,4,0:0:0:0:
227,261,99060,5,8,0:0:0:0:
335,52,99275,1,8,0:0:0:0:
158,134,99489,1,8,0:0:0:0:
336,192,99703,6,0,P|391:206|462:174,1,133.450002545357,4|0,1:0|1:0,0:0:0:0:
391,124,100346,1,2,0:0:0:0:
328,289,100560,2,0,P|254:324|192:322,1,133.450002545357,8|0,0:0|1:0,0:0:0:0:
134,271,101203,1,0,0:0:0:0:
57,156,101417,5,0,1:0:0:0:
142,193,101632,1,2,0:0:0:0:
52,309,101846,1,0,1:0:0:0:
134,271,102060,1,2,0:0:0:0:
57,156,102275,2,0,P|42:117|48:79,1,66.7250012726784,8|0,0:0|0:0,0:0:0:0:
140,20,102703,1,0,1:0:0:0:
210,124,102917,5,0,0:0:0:0:
210,124,103025,1,0,0:0:0:0:
210,124,103132,2,0,P|243:142|281:146,1,66.7250012726784,2|0,1:0|0:0,0:0:0:0:
388,75,103560,1,0,1:0:0:0:
343,217,103775,1,2,0:0:0:0:
343,217,103989,2,0,P|333:265|335:303,1,66.7250012726784,8|0,0:0|0:0,0:0:0:0:
458,139,104417,1,0,1:0:0:0:
337,88,104632,1,0,0:0:0:0:
436,250,104846,5,2,1:0:0:0:
406,127,105060,1,0,0:0:0:0:
406,127,105275,2,0,L|480:107,1,66.7250012726784,0|2,1:0|0:0,0:0:0:0:
412,257,105703,2,0,L|347:274,1,66.7250012726784,8|0,0:0|0:0,0:0:0:0:
231,206,106132,2,0,L|295:188,1,66.7250012726784,0|2,1:0|0:0,0:0:0:0:
88,104,106560,6,0,P|54:173|74:268,1,157,4|8,0:0|0:0,0:0:0:0:
159,38,107203,1,2,0:0:0:0:
159,38,107310,1,0,0:0:0:0:
159,38,107417,1,0,1:0:0:0:
199,128,107632,2,0,P|241:142|287:137,1,78.5,2|8,0:0|0:0,0:0:0:0:
429,206,108060,1,2,0:0:0:0:
305,154,108275,6,0,L|296:63,1,78.5,0|2,1:0|0:0,0:0:0:0:
460,205,108703,2,0,L|467:283,1,78.5,8|2,0:0|0:0,0:0:0:0:
467,283,109025,1,0,0:0:0:0:
467,283,109132,1,0,1:0:0:0:
319,230,109346,1,2,0:0:0:0:
374,325,109560,1,8,0:0:0:0:
228,296,109775,1,2,0:0:0:0:
424,120,109989,5,4,1:2:0:0:
424,120,110417,1,8,0:0:0:0:
272,256,110632,2,0,P|194:245|147:156,1,157,4|0,0:0|1:0,0:0:0:0:
39,92,111275,1,8,0:0:0:0:
251,25,111489,6,0,P|240:112|235:188,1,157,4|0,1:2|1:0,0:0:0:0:
256,336,112132,1,2,1:0:0:0:
335,154,112346,1,0,1:0:0:0:
168,249,112561,1,2,1:0:0:0:
145,267,112668,1,0,1:0:0:0:
118,278,112775,1,0,1:0:0:0:
88,279,112882,1,0,1:0:0:0:
60,270,112989,2,0,L|20:278,5,26.1666666666667,2|0|0|0|0|0,1:0|1:0|1:0|1:0|1:0|1:0,0:0:0:0:
0,193,113417,6,0,B|16:107|16:107|61:82,1,125.6,4|8,0:0|0:0,0:0:0:0:
154,43,114060,1,8,0:0:0:0:
139,158,114275,5,2,0:0:0:0:
139,158,114382,1,0,0:0:0:0:
139,158,114489,1,8,0:0:0:0:
316,65,114703,1,8,0:0:0:0:
345,73,114810,1,0,1:0:0:0:
371,89,114917,1,0,1:0:0:0:
394,110,115025,1,0,1:0:0:0:
410,135,115132,6,0,P|398:179|396:229,1,78.5,6|0,1:0|0:0,0:0:0:0:
499,320,115560,2,0,P|510:275|512:225,1,78.5,8|2,0:0|0:0,0:0:0:0:
488,150,115989,1,0,1:0:0:0:
425,292,116203,1,2,0:0:0:0:
425,292,116310,1,0,0:0:0:0:
425,292,116417,1,8,0:0:0:0:
316,265,116632,1,2,0:0:0:0:
338,125,116846,5,0,1:0:0:0:
198,207,117060,1,2,0:0:0:0:
177,96,117275,2,0,L|165:18,1,78.5,8|2,0:0|0:0,0:0:0:0:
307,111,117703,1,0,1:0:0:0:
210,293,117917,5,2,0:0:0:0:
373,166,118132,1,8,0:0:0:0:
185,122,118346,1,2,0:0:0:0:
256,272,118560,5,0,1:0:0:0:
168,210,118775,1,2,0:0:0:0:
278,115,118989,1,8,0:0:0:0:
178,292,119203,1,2,0:0:0:0:
328,327,119417,2,0,P|368:318|397:289,1,78.5,0|2,1:0|0:0,0:0:0:0:
419,184,119846,1,8,0:0:0:0:
477,339,120060,1,2,0:0:0:0:
496,150,120275,6,0,P|482:103|444:74,1,78.5,2|0,1:0|0:0,0:0:0:0:
267,96,120703,2,0,P|307:113|354:110,1,78.5,8|2,0:0|0:0,0:0:0:0:
342,113,121025,1,0,0:0:0:0:
342,113,121132,1,0,1:0:0:0:
495,218,121346,1,2,0:0:0:0:
423,274,121560,2,0,L|405:353,1,78.5,8|2,0:0|0:0,0:0:0:0:
256,192,121989,5,4,0:0:0:0:
98,134,122203,1,2,0:0:0:0:
276,79,122417,1,8,0:0:0:0:
134,253,122632,1,2,0:0:0:0:
200,26,122846,2,0,P|250:33|318:78,1,117.75,2|0,1:0|0:0,0:0:0:0:
321,91,123275,5,8,0:0:0:0:
249,217,123489,1,2,0:0:0:0:
436,124,123703,6,0,P|425:167|421:207,1,78.5,2|2,1:0|0:0,0:0:0:0:
231,333,124132,2,0,P|225:293|216:257,1,78.5,8|0,0:0|0:0,0:0:0:0:
328,35,124560,2,0,B|299:100|299:100|333:135|310:205,1,157,2|12,1:0|0:0,0:0:0:0:
188,301,125203,5,8,0:0:0:0:
188,301,125310,1,8,0:0:0:0:
188,301,125417,2,0,P|145:306|104:282,1,78.5,4|0,1:0|0:0,0:0:0:0:
87,179,125846,1,8,0:0:0:0:
87,179,126060,1,2,0:0:0:0:
332,274,126275,5,0,1:0:0:0:
250,134,126489,1,2,0:0:0:0:
179,310,126703,1,8,0:0:0:0:
341,177,126917,1,8,0:0:0:0:
125,103,127132,5,4,0:0:0:0:
256,288,127346,1,2,0:0:0:0:
400,20,127560,1,8,0:0:0:0:
101,111,127775,2,0,P|123:178|126:272,1,157,4|8,0:2|0:0,0:0:0:0:
256,48,128417,1,8,0:0:0:0:
352,192,128632,5,8,0:0:0:0:
352,192,128739,1,8,0:0:0:0:
352,192,128846,2,0,P|390:178|428:169,1,78.5,4|2,1:0|0:0,0:0:0:0:
480,54,129275,2,0,P|442:68|404:77,1,78.5,8|2,0:0|0:0,0:0:0:0:
256,143,129703,2,0,P|246:184|237:231,1,78.5,0|2,1:0|0:0,0:0:0:0:
239,220,130025,1,0,0:0:0:0:
239,220,130132,1,8,0:0:0:0:
127,269,130346,1,2,0:0:0:0:
171,51,130560,5,0,1:0:0:0:
171,51,130775,1,2,0:0:0:0:
91,117,130989,2,0,P|52:124|5:107,1,78.5,8|2,0:0|0:0,0:0:0:0:
274,176,131417,1,0,1:0:0:0:
202,46,131632,5,2,0:0:0:0:
172,213,131846,1,8,0:0:0:0:
284,94,132060,1,2,0:0:0:0:
155,254,132275,5,0,1:0:0:0:
257,125,132489,1,2,0:0:0:0:
304,335,132703,5,8,0:0:0:0:
175,111,132917,1,2,0:0:0:0:
364,222,133132,5,0,1:0:0:0:
133,286,133346,1,2,0:0:0:0:
279,91,133560,5,8,0:0:0:0:
228,327,133775,1,2,0:0:0:0:
364,222,133989,6,0,P|404:229|442:256,1,78.5,4|0,0:0|0:0,0:0:0:0:
298,125,134417,2,0,P|273:79|276:42,1,78.5,8|0,0:0|0:0,0:0:0:0:
403,107,134846,1,2,1:0:0:0:
191,165,135060,1,0,0:0:0:0:
172,171,135167,1,0,0:0:0:0:
153,178,135275,1,8,0:0:0:0:
230,321,135489,1,2,0:0:0:0:
367,252,135703,6,0,P|388:209|385:172,1,78.5,4|2,0:0|0:0,0:0:0:0:
298,168,136132,1,8,0:0:0:0:
424,331,136346,1,2,0:0:0:0:
347,99,136560,2,0,P|307:89|260:79,1,78.5,4|2,0:0|0:0,0:0:0:0:
99,51,136989,1,8,0:0:0:0:
147,242,137203,5,0,0:0:0:0:
147,242,137310,1,0,0:0:0:0:
147,242,137417,1,4,0:0:0:0:
184,21,137632,1,2,0:0:0:0:
68,142,137846,1,8,0:0:0:0:
312,194,138060,2,0,B|357:159|411:176|411:176|438:155|472:155,1,157,4|2,0:0|0:0,0:0:0:0:
361,30,138703,1,8,0:0:0:0:
215,76,138917,5,8,0:0:0:0:
196,81,139025,1,8,0:0:0:0:
181,94,139132,2,0,P|110:100|45:24,1,157,4|8,1:0|0:0,0:0:0:0:
169,179,139775,2,0,P|174:226|176:263,1,78.5,2|0,0:0|1:0,0:0:0:0:
369,281,140203,1,2,0:0:0:0:
326,192,140417,2,0,P|321:145|319:108,1,78.5,8|0,0:0|0:0,0:0:0:0:
256,352,140846,5,4,1:0:0:0:
256,352,141275,6,0,L|272:282,1,62.8
192,242,141703,2,0,L|176:172,1,62.8
256,128,142132,2,0,B|306:143|306:143|331:133|331:133|386:149,1,125.6,0|4,0:0|1:0,0:0:0:0:
395,155,142989,6,0,P|382:117|389:70,1,78.5,8|0,0:0|0:0,0:0:0:0:
496,254,143417,2,0,P|481:314|475:337,1,78.5,2|0,1:0|0:0,0:0:0:0:
395,155,143846,1,8,0:0:0:0:
409,240,144060,1,0,0:0:0:0:
304,338,144275,5,2,1:0:0:0:
184,276,144489,1,0,0:0:0:0:
269,264,144703,1,8,0:0:0:0:
99,293,144917,1,0,0:0:0:0:
99,293,145025,1,0,0:0:0:0:
99,293,145131,2,0,P|81:255|75:214,1,78.5,2|0,1:0|0:0,0:0:0:0:
146,19,145560,2,0,P|164:57|170:98,1,78.5,8|0,0:0|0:0,0:0:0:0:
99,293,145989,5,2,1:0:0:0:
99,293,146417,1,8,0:0:0:0:
200,204,146632,1,0,0:0:0:0:
145,128,146846,2,0,L|69:107,1,78.5,2|0,1:0|0:0,0:0:0:0:
257,62,147275,2,0,L|332:82,1,78.5,8|0,0:0|0:0,0:0:0:0:
157,217,147703,6,0,L|81:237,1,78.5,2|0,1:0|0:0,0:0:0:0:
81,237,148025,1,0,0:0:0:0:
81,237,148132,1,8,0:0:0:0:
140,329,148346,1,0,0:0:0:0:
223,275,148560,1,2,1:0:0:0:
298,364,148775,5,8,0:0:0:0:
459,167,148989,1,8,0:0:0:0:
383,90,149203,5,8,0:0:0:0:
383,90,149310,1,8,0:0:0:0:
383,90,149417,2,0,P|341:98|309:121,1,78.5,4|2,1:0|0:0,0:0:0:0:
200,220,149846,1,8,0:0:0:0:
170,222,149953,1,0,0:0:0:0:
143,213,150060,1,2,0:0:0:0:
121,194,150167,1,0,0:0:0:0:
108,167,150275,6,0,L|57:139,1,39.25,2|0,1:0|0:0,0:0:0:0:
39,64,150489,2,0,L|97:75,1,39.25,2|0,0:0|0:0,0:0:0:0:
182,43,150703,2,0,L|152:16,1,39.25,8|0,0:0|0:0,0:0:0:0:
267,80,150917,2,0,L|255:124,1,39.25,2|0,0:0|0:0,0:0:0:0:
200,220,151132,6,0,P|206:261|213:303,1,78.5,4|0,1:2|0:0,0:0:0:0:
233,318,151453,1,2,0:0:0:0:
233,318,151560,1,8,0:0:0:0:
312,104,151775,2,0,B|254:90|208:123|208:123|181:106|163:78,1,157,2|2,0:0|0:0,0:0:0:0:
256,16,152417,1,8,0:0:0:0:
344,198,152632,1,2,0:0:0:0:
167,67,152846,5,4,1:2:0:0:
361,101,153060,1,2,0:0:0:0:
183,267,153275,1,8,0:0:0:0:
278,27,153489,5,4,1:2:0:0:
278,27,153917,1,0,1:0:0:0:
300,34,154025,1,0,1:0:0:0:
321,43,154132,1,8,0:0:0:0:
193,149,154346,6,0,B|127:193|96:143|29:218,1,157,4|0,0:0|1:0,0:0:0:0:
125,333,154989,2,0,P|145:294|145:256,1,78.5,8|2,0:0|0:0,0:0:0:0:
85,92,155417,1,0,1:0:0:0:
138,243,155632,1,8,0:0:0:0:
206,128,155846,5,8,0:0:0:0:
91,346,156060,1,8,0:0:0:0:
291,298,156275,5,4,1:2:0:0:
313,290,156382,1,0,1:2:0:0:
335,283,156489,1,0,1:2:0:0:
357,276,156596,1,0,1:2:0:0:
366,254,156703,5,8,1:2:0:0:
388,246,156810,1,0,1:2:0:0:
410,239,156917,1,0,1:2:0:0:
432,232,157024,1,0,1:2:0:0:
454,223,157132,5,8,1:2:0:0:
475,200,157239,1,0,1:2:0:0:
487,171,157346,1,8,1:2:0:0:
486,139,157453,1,0,1:2:0:0:
476,109,157560,2,0,L|480:69,5,26.1666666666667,8|0|0|8|0|0,1:0|1:0|1:0|1:0|1:0|1:0,0:0:0:0:
368,31,157989,6,0,B|319:44|271:14|271:14|225:70|158:46|158:46|84:66|75:130|75:130|98:157|100:196,1,423.899987063599,4|0,0:0|0:0,0:0:0:0:
50,351,160775,6,0,P|25:308|32:245,1,102.049995328522,2|0,0:0|0:0,0:0:0:0:
385,226,168275,6,0,L|369:315,1,66.7250012726784,2|0,0:0|0:0,0:0:0:0:
271,215,168703,2,0,L|282:149,1,66.7250012726784,0|2,0:0|0:0,0:0:0:0:
189,46,169132,2,0,P|158:102|183:179,1,133.450002545357,0|2,0:0|0:0,0:0:0:0:
288,128,169775,1,0,0:0:0:0:
205,29,169989,6,0,P|167:41|125:51,1,66.7250012726784,0|2,0:0|0:0,0:0:0:0:
310,118,170417,2,0,P|374:98|438:82,1,133.450002545357,0|2,0:0|0:0,0:0:0:0:
438,82,171060,1,0,0:0:0:0:
414,189,171275,1,0,0:0:0:0:
505,137,171489,1,0,0:0:0:0:
389,297,171703,5,4,0:0:0:0:
389,297,172989,5,0,0:0:0:0:
310,115,173203,2,0,B|358:132|358:132|392:117|392:117|461:142,1,157,4|0,0:0|1:0,0:0:0:0:
256,32,173846,5,8,0:0:0:0:
192,238,174060,2,0,P|122:255|40:204,1,157,4|0,0:0|1:0,0:0:0:0:
103,58,174703,1,12,0:2:0:0:
274,197,174917,6,0,P|278:252|242:307,1,109.899996646118,2|0,0:0|0:0,0:0:0:0:
204,122,175560,2,0,P|241:93|288:92,1,78.5,4|0,1:0|0:0,0:0:0:0:
462,168,175989,2,0,L|381:190,1,78.5,0|2,1:0|0:0,0:0:0:0:
386,188,176310,1,0,0:0:0:0:
386,188,176417,1,8,0:0:0:0:
193,92,176632,1,2,0:0:0:0:
100,158,176846,6,0,P|112:198|111:239,1,78.5,0|2,1:0|0:0,0:0:0:0:
179,58,177275,1,8,0:0:0:0:
220,272,177489,1,2,0:0:0:0:
220,272,177596,1,0,0:0:0:0:
220,272,177703,1,0,1:0:0:0:
131,142,177917,5,2,0:0:0:0:
275,200,178132,1,8,0:0:0:0:
160,343,178346,1,2,0:0:0:0:
229,95,178560,5,0,1:0:0:0:
325,297,178775,1,2,0:0:0:0:
167,212,178989,5,8,0:0:0:0:
399,133,179203,1,2,0:0:0:0:
249,243,179417,5,0,1:0:0:0:
306,39,179632,1,2,0:0:0:0:
431,287,179846,5,8,0:0:0:0:
231,128,180060,1,2,0:0:0:0:
457,181,180275,6,0,P|474:142|470:104,1,78.5,4|0,0:0|0:0,0:0:0:0:
330,267,180703,2,0,P|292:291|267:338,1,78.5,8|0,0:0|0:0,0:0:0:0:
273,318,181025,1,0,0:0:0:0:
273,318,181132,1,2,1:0:0:0:
144,202,181346,1,0,0:0:0:0:
330,267,181560,1,8,0:0:0:0:
156,179,181775,1,2,0:0:0:0:
344,242,181989,6,0,L|420:225,1,78.5,4|2,0:0|0:0,0:0:0:0:
171,83,182417,2,0,L|95:100,1,78.5,8|2,0:0|0:0,0:0:0:0:
227,309,182846,2,0,P|262:250|253:191,1,117.75,4|0,0:2|0:0,0:0:0:0:
248,177,183275,5,8,0:0:0:0:
200,33,183489,1,0,0:0:0:0:
361,219,183703,5,4,0:0:0:0:
290,17,183917,1,2,0:0:0:0:
157,105,184132,1,8,0:0:0:0:
455,146,184346,1,4,0:0:0:0:
393,233,184560,2,0,P|406:280|407:320,1,78.5,0|0,1:0|0:0,0:0:0:0:
482,125,184989,2,0,P|469:78|468:38,1,78.5,8|8,0:0|0:0,0:0:0:0:
480,18,185310,5,8,0:0:0:0:
480,18,185417,2,0,P|406:28|339:102,1,157,4|8,1:0|0:0,0:0:0:0:
303,188,186060,2,0,P|272:212|234:223,1,78.5,2|0,0:0|1:0,0:0:0:0:
137,148,186489,1,2,0:0:0:0:
333,199,186703,2,0,L|320:278,1,78.5,8|2,0:0|0:0,0:0:0:0:
399,368,187132,5,4,0:0:0:0:
234,223,187346,1,2,0:0:0:0:
435,123,187560,2,0,L|422:202,1,78.5,8|2,0:0|0:0,0:0:0:0:
422,200,187882,1,0,0:0:0:0:
422,200,187989,1,0,1:0:0:0:
334,21,188203,5,2,0:0:0:0:
435,123,188417,1,8,0:0:0:0:
275,228,188632,1,2,0:0:0:0:
133,196,188846,6,0,P|95:147|100:75,1,117.75,4|0,0:0|0:0,0:0:0:0:
93,93,189275,1,8,0:0:0:0:
54,283,189489,1,0,0:0:0:0:
54,283,189596,1,0,0:0:0:0:
54,283,189703,2,0,P|62:328|63:361,1,78.5,4|0,1:2|0:0,0:0:0:0:
155,190,190132,2,0,P|197:181|237:166,1,78.5,8|0,0:0|0:0,0:0:0:0:
401,71,190560,5,4,1:2:0:0:
261,252,190775,1,0,1:0:0:0:
425,333,190989,1,0,1:0:0:0:
325,127,191203,1,0,1:0:0:0:
478,169,191417,1,4,1:2:0:0:
496,192,191524,1,0,1:0:0:0:
507,219,191631,1,0,1:0:0:0:
508,249,191738,1,0,1:0:0:0:
499,277,191845,2,0,L|507:317,5,26.1666666666667,0|0|0|0|0|0,1:0|1:0|1:0|1:0|1:0|1:0,0:0:0:0:
406,358,192275,6,0,B|367:368|367:368|341:356|341:356|287:373|252:334,1,157,6|12,1:0|0:0,0:0:0:0:
197,269,192917,2,0,P|155:276|121:302,1,78.5,2|0,0:0|1:0,0:0:0:0:
67,359,193346,1,2,0:0:0:0:
105,203,193560,2,0,P|126:152|125:116,1,78.5,8|2,0:0|0:0,0:0:0:0:
77,14,193989,6,0,P|140:54|224:39,1,157,2|8,1:0|0:0,0:0:0:0:
218,42,194632,1,2,0:0:0:0:
326,135,194846,1,0,1:0:0:0:
334,152,194953,1,2,0:0:0:0:
342,169,195060,1,0,0:0:0:0:
208,259,195275,1,8,0:0:0:0:
200,276,195382,1,2,0:0:0:0:
192,293,195489,1,0,0:0:0:0:
326,341,195703,5,0,1:0:0:0:
409,361,195917,1,2,0:0:0:0:
469,298,196132,2,0,P|482:253|482:218,1,78.5,8|2,0:0|0:0,0:0:0:0:
400,71,196560,2,0,P|387:116|387:151,1,78.5,0|2,1:0|0:0,0:0:0:0:
469,298,196989,1,8,0:0:0:0:
256,240,197203,6,0,P|185:229|94:281,1,157,2|0,0:0|0:0,0:0:0:0:
256,352,197846,2,0,P|296:357|334:347,1,78.5,8|0,0:0|0:0,0:0:0:0:
430,225,198275,2,0,L|440:177,3,39.25,2|0|0|0,1:0|0:0|0:0|0:0,0:0:0:0:
410,153,198703,2,0,L|420:105,3,39.25,8|0|0|0,0:0|0:0|0:0|0:0,0:0:0:0:
427,71,199132,6,0,P|387:80|344:68,1,78.5,4|0,0:2|0:0,0:0:0:0:
279,23,199560,1,8,0:0:0:0:
192,128,199775,1,2,0:0:0:0:
237,211,199989,1,0,1:0:0:0:
245,228,200096,1,2,0:0:0:0:
253,245,200203,1,0,0:0:0:0:
113,90,200417,1,8,0:0:0:0:
96,82,200524,1,2,0:0:0:0:
79,74,200631,1,0,0:0:0:0:
294,140,200846,5,2,1:0:0:0:
186,36,201060,1,0,0:0:0:0:
151,181,201275,1,8,0:0:0:0:
315,122,201489,2,0,P|353:130|392:133,1,78.5,2|0,0:0|1:0,0:0:0:0:
392,133,201810,1,2,0:0:0:0:
392,133,201917,1,0,0:0:0:0:
470,271,202132,2,0,P|431:262|392:259,1,78.5,8|2,0:0|0:0,0:0:0:0:
188,202,202560,6,0,P|151:271|179:350,1,157,4|10,0:0|0:0,0:0:0:0:
313,291,203203,1,0,0:0:0:0:
256,144,203417,2,0,P|260:105|267:58,1,78.5,2|0,1:0|0:0,0:0:0:0:
71,211,203846,2,0,P|65:249|61:288,1,78.5,8|2,0:0|0:0,0:0:0:0:
148,350,204275,5,8,0:0:0:0:
190,248,204489,1,8,0:0:0:0:
365,316,204703,1,8,0:0:0:0:
392,133,204917,1,8,0:0:0:0:
256,48,205132,5,10,0:0:0:0:
354,228,205346,1,8,0:0:0:0:
407,98,205560,1,8,0:0:0:0:
190,248,205775,1,10,0:0:0:0:
256,192,206846,5,4,0:0:0:0:
256,192,206953,12,0,214560,0:0:0:0:
