osu file format v14

[General]
AudioFilename: audio.mp3
AudioLeadIn: 0
PreviewTime: 20
Countdown: 0
SampleSet: None
StackLeniency: 0.7
Mode: 0
LetterboxInBreaks: 0
WidescreenStoryboard: 1

[Editor]
DistanceSpacing: 1.2
BeatDivisor: 2
GridSize: 8
TimelineZoom: 1

[Metadata]
Title:Harumachi Clover (TV Size)
TitleUnicode:春待ちクローバー (TV Size)
Artist:Hanasaka Yui (CV: M.A.O)
ArtistUnicode:花坂結衣 (CV: M・A・O)
Creator:p4905
Version:Hard
Source:OneRoom
Tags:harumachi clover Michiyo tvsize tv size kantoku カントク one room ワンルーム
BeatmapID:1887530
BeatmapSetID:904145

[Difficulty]
HPDrainRate:4
CircleSize:4
OverallDifficulty:6
ApproachRate:7.5
SliderMultiplier:1.4
SliderTickRate:1

[Events]
//Background and Video events
0,0,"1234.jpg",0,0
//Break Periods
//Storyboard Layer 0 (Background)
//Storyboard Layer 1 (Fail)
//Storyboard Layer 2 (Pass)
//Storyboard Layer 3 (Foreground)
//Storyboard Sound Samples

[TimingPoints]
20,422.535211267606,4,3,0,100,1,0
15020,-100,4,3,0,100,0,1
19879,-100,4,3,0,100,0,1
26217,-100,4,3,0,100,0,0
31126,-100,4,3,0,5,0,0

[Colours]
Combo1 : 255,255,255
Combo2 : 255,128,255
Combo3 : 128,255,0
Combo4 : 227,11,244

[HitObjects]
253,47,654,5,4,0:0:0:0:
253,102,865,1,4,0:0:0:0:
253,157,1076,1,4,0:0:0:0:
253,212,1287,1,4,0:0:0:0:
253,268,1499,1,4,0:0:0:0:
351,304,1710,6,4,L|372:194,1,70
367,152,2132,2,4,L|337:88,1,70
179,84,2555,6,4,L|148:165,1,70
157,237,2977,2,4,L|175:304,1,70
254,297,3400,5,4,0:0:0:0:
255,213,3611,1,4,0:0:0:0:
255,128,3823,1,4,0:0:0:0:
255,44,4034,2,12,L|380:117,1,140
433,68,4879,6,12,L|415:161,1,70
333,196,5301,1,4,0:0:0:0:
256,268,5513,1,4,0:0:0:0:
179,196,5724,1,4,0:0:0:0:
102,124,5935,2,12,L|88:55,2,70
69,224,6569,1,4,0:0:0:0:
129,251,6780,6,12,L|238:310,2,70
285,318,7414,2,6,L|479:237,1,210
366,135,8259,5,4,0:0:0:0:
251,74,8470,2,4,L|185:137,1,70
88,62,8893,1,4,0:0:0:0:
88,62,9104,5,4,0:0:0:0:
61,181,9315,2,12,L|137:257,1,70
190,289,9738,1,4,0:0:0:0:
287,309,9949,1,12,0:0:0:0:
363,187,10372,6,4,L|402:109,2,70
305,227,11006,1,4,0:0:0:0:
235,227,11217,1,4,0:0:0:0:
165,226,11428,1,4,0:0:0:0:
95,228,11639,2,12,L|16:228,1,70
143,299,12273,1,12,0:0:0:0:
264,229,12696,1,12,0:0:0:0:
220,94,13118,5,4,0:0:0:0:
151,83,13330,1,12,0:0:0:0:
173,149,13541,1,4,0:0:0:0:
103,140,13752,1,12,0:0:0:0:
128,205,13963,1,4,0:0:0:0:
58,195,14175,1,12,0:0:0:0:
82,260,14386,1,4,0:0:0:0:
12,249,14597,1,12,0:0:0:0:
196,207,15231,6,4,L|258:137,1,70
338,118,15654,2,4,L|382:207,1,70
333,256,16076,1,4,0:0:0:0:
206,145,16499,5,4,0:0:0:0:
206,145,16710,1,0,0:0:0:0:
353,64,16921,5,4,0:0:0:0:
353,64,17132,1,0,0:0:0:0:
418,218,17344,5,4,0:0:0:0:
418,218,17555,1,0,0:0:0:0:
261,158,17766,5,4,0:0:0:0:
261,158,17977,1,0,0:0:0:0:
152,286,18189,5,4,0:0:0:0:
152,286,18400,1,0,0:0:0:0:
90,129,18611,2,12,L|108:51,1,70
189,52,19034,2,12,L|268:115,1,70
304,153,19456,1,4,0:0:0:0:
201,286,19879,5,4,0:0:0:0:
201,286,20090,1,0,0:0:0:0:
151,125,20301,5,4,0:0:0:0:
151,125,20512,1,0,0:0:0:0:
316,93,20724,5,4,0:0:0:0:
316,93,20935,1,0,0:0:0:0:
356,255,21146,5,4,0:0:0:0:
356,255,21358,1,0,0:0:0:0:
224,149,21569,5,4,0:0:0:0:
224,149,21780,1,0,0:0:0:0:
385,103,21991,2,12,L|440:182,1,70
378,229,22414,2,12,L|301:263,1,70
265,188,22837,2,12,L|306:101,1,70
345,191,23259,1,4,0:0:0:0:
378,267,23470,1,4,0:0:0:0:
266,298,23893,6,12,L|192:227,1,70
206,166,24315,2,12,L|246:93,1,70
307,154,24738,1,4,0:0:0:0:
364,215,24949,1,4,0:0:0:0:
347,297,25161,2,12,L|85:60,1,350
301,105,26851,6,12,L|266:172,1,70
240,252,27273,2,12,L|322:229,2,70
138,174,28118,2,12,L|83:103,2,70
256,192,28752,5,12,0:0:0:0:
256,192,28963,12,4,32132,0:0:0:0:
