osu file format v14

[General]
AudioFilename: audio.mp3
AudioLeadIn: 0
PreviewTime: 20
Countdown: 0
SampleSet: Normal
StackLeniency: 0.7
Mode: 0
LetterboxInBreaks: 0
WidescreenStoryboard: 1

[Editor]
DistanceSpacing: 1.8
BeatDivisor: 2
GridSize: 8
TimelineZoom: 1

[Metadata]
Title:Harumachi Clover (TV Size)
TitleUnicode:春待ちクローバー (TV Size)
Artist:Hanasaka Yui (CV: M.A.O)
ArtistUnicode:花坂結衣 (CV: M・A・O)
Creator:p4905
Version:Collab Blooming
Source:OneRoom
Tags:harumachi clover Michiyo tvsize tv size kantoku カントク one room ワンルーム
BeatmapID:1887848
BeatmapSetID:904145

[Difficulty]
HPDrainRate:5
CircleSize:6
OverallDifficulty:8
ApproachRate:9.2
SliderMultiplier:1.4
SliderTickRate:1

[Events]
//Background and Video events
0,0,"1234.jpg",0,0
//Break Periods
//Storyboard Layer 0 (Background)
//Storyboard Layer 1 (Fail)
//Storyboard Layer 2 (Pass)
//Storyboard Layer 3 (Foreground)
//Storyboard Sound Samples

[TimingPoints]
20,422.535211267606,4,1,0,100,1,0
11428,-133.333333333333,4,1,0,100,0,0
14597,-100,4,1,0,100,0,0
15020,-100,4,1,0,100,0,1
25161,-133.333333333333,4,1,0,100,0,1
26639,-100,4,1,0,100,0,0
28752,-666.666666666667,4,1,0,100,0,0
31921,-666.666666666667,4,1,0,20,0,0

[Colours]
Combo1 : 255,255,255
Combo2 : 255,128,255
Combo3 : 128,255,0
Combo4 : 226,29,221

[HitObjects]
200,112,653,5,0,0:0:0:0:
304,136,865,1,0,0:0:0:0:
200,168,1076,1,0,0:0:0:0:
304,192,1287,1,0,0:0:0:0:
200,224,1499,1,0,0:0:0:0:
256,64,1710,5,4,0:0:0:0:
312,248,1921,1,4,0:0:0:0:
256,88,2132,5,4,0:0:0:0:
200,248,2344,1,4,0:0:0:0:
256,64,2555,2,4,L|256:152,1,70
149,246,2977,1,4,0:0:0:0:
346,137,3189,1,4,0:0:0:0:
184,136,3400,5,4,0:0:0:0:
315,242,3611,1,4,0:0:0:0:
210,76,3823,1,4,0:0:0:0:
224,248,4034,2,6,L|72:56,1,210
328,280,4879,5,4,0:0:0:0:
368,144,5090,1,4,0:0:0:0:
272,248,5301,5,4,0:0:0:0:
416,184,5513,1,4,0:0:0:0:
384,280,5724,5,4,0:0:0:0:
312,144,5935,1,4,0:0:0:0:
216,264,6146,1,4,0:0:0:0:
256,144,6358,5,4,0:0:0:0:
328,288,6569,1,4,0:0:0:0:
208,176,6780,1,4,0:0:0:0:
376,256,6992,1,4,0:0:0:0:
168,128,7203,1,4,0:0:0:0:
296,312,7414,6,6,L|127:185,1,210
400,88,8259,5,4,0:0:0:0:
256,192,8470,1,4,0:0:0:0:
424,136,8682,5,4,0:0:0:0:
240,144,8893,1,4,0:0:0:0:
428,198,9104,5,4,0:0:0:0:
228,82,9315,2,6,L|303:128,1,70
159,55,9738,1,4,0:0:0:0:
276,316,9949,2,6,L|261:236,1,70
184,80,10372,5,4,0:0:0:0:
304,88,10583,1,4,0:0:0:0:
192,136,10794,1,4,0:0:0:0:
304,32,11006,1,4,0:0:0:0:
224,176,11217,1,4,0:0:0:0:
376,112,11428,1,4,0:0:0:0:
255,302,11639,2,6,L|498:185,1,262.500010013581
296,152,13118,5,4,0:0:0:0:
296,208,13330,1,4,0:0:0:0:
216,152,13752,5,4,0:0:0:0:
216,216,13963,1,4,0:0:0:0:
160,128,14175,1,4,0:0:0:0:
336,232,14386,1,4,0:0:0:0:
184,72,14597,2,6,L|256:192,1,140,4|4,0:0|0:0,0:0:0:0:
352,104,15231,5,12,0:0:0:0:
432,312,15442,1,12,0:0:0:0:
448,136,15654,5,12,0:0:0:0:
296,320,15865,1,12,0:0:0:0:
216,137,16076,5,12,0:0:0:0:
464,264,16287,1,12,0:0:0:0:
288,80,16499,5,12,0:0:0:0:
328,352,16710,1,12,0:0:0:0:
464,88,16921,5,12,0:0:0:0:
260,328,17132,1,12,0:0:0:0:
226,90,17344,5,12,0:0:0:0:
432,264,17555,2,14,L|264:160,1,140
398,158,18189,1,12,0:0:0:0:
80,64,18400,5,12,0:0:0:0:
272,160,18611,1,12,0:0:0:0:
72,120,18823,5,12,0:0:0:0:
280,104,19034,1,12,0:0:0:0:
64,272,19245,5,12,0:0:0:0:
216,96,19456,1,12,0:0:0:0:
32,224,19668,5,12,0:0:0:0:
224,336,19879,1,12,0:0:0:0:
168,48,20090,5,12,0:0:0:0:
128,272,20301,1,12,0:0:0:0:
88,72,20513,5,12,0:0:0:0:
216,248,20724,1,12,0:0:0:0:
240,56,20935,2,14,L|317:244,1,140
395,38,21569,1,12,0:0:0:0:
224,72,21780,5,4,0:0:0:0:
360,208,21992,1,4,0:0:0:0:
175,111,22203,1,4,0:0:0:0:
304,240,22414,1,4,0:0:0:0:
368,64,22625,5,4,0:0:0:0:
184,240,22837,1,4,0:0:0:0:
168,48,23048,1,4,0:0:0:0:
360,240,23259,1,4,0:0:0:0:
304,96,23470,2,4,L|214:128,1,70
224,304,23893,5,4,0:0:0:0:
96,40,24104,1,4,0:0:0:0:
72,240,24315,1,4,0:0:0:0:
192,48,24527,1,4,0:0:0:0:
40,184,24738,1,4,0:0:0:0:
352,120,24949,1,4,0:0:0:0:
99,100,25161,2,6,L|420:288,1,367.500014019013
256,96,26851,6,4,L|256:176,1,70
152,192,27273,1,4,0:0:0:0:
256,48,27484,1,4,0:0:0:0:
352,192,27696,2,0,L|392:255,1,70
184,264,28118,5,4,0:0:0:0:
256,72,28330,1,4,0:0:0:0:
320,264,28541,1,4,0:0:0:0:
152,144,28752,6,2,L|329:144,1,167.999994873047
