osu file format v14

[General]
AudioFilename: kantoku moe.ogg
AudioLeadIn: 0
PreviewTime: 179
Countdown: 0
SampleSet: Soft
StackLeniency: 0.7
Mode: 3
LetterboxInBreaks: 0
SpecialStyle: 0
WidescreenStoryboard: 0

[Editor]
DistanceSpacing: 1.5
BeatDivisor: 4
GridSize: 16
TimelineZoom: 1

[Metadata]
Title:Harumachi Clover (TV Size)
TitleUnicode:春待ちクローバー (TV Size)
Artist:Hanasaka Yui (CV: M.A.O)
ArtistUnicode:花坂結衣 (CV:M・A・O)
Creator:Ilham
Version:8K Normal
Source:OneRoom
Tags:japanese pop jpop j-pop SMRR-006 anime kantoku カントク typhoon graphics ワンルーム one room 市道真央 Mao Ichimichi 稲葉エミ Emi Inaba 奥井康介 Kosuke Okui ending ed hugged
BeatmapID:1237082
BeatmapSetID:584737

[Difficulty]
HPDrainRate:7
CircleSize:8
OverallDifficulty:7
ApproachRate:0
SliderMultiplier:1.4
SliderTickRate:1

[Events]
//Background and Video events
0,0,"bg.jpg",0,0
//Break Periods
//Storyboard Layer 0 (Background)
//Storyboard Layer 1 (Fail)
//Storyboard Layer 2 (Pass)
//Storyboard Layer 3 (Foreground)
//Storyboard Layer 4 (Overlay)
//Storyboard Sound Samples

[TimingPoints]
-349,422.535211267606,4,2,1,70,1,0

[HitObjects]
480,192,284,5,0,0:0:0:0:
352,192,496,1,0,0:0:0:0:
224,192,707,1,0,0:0:0:0:
288,192,918,1,0,0:0:0:0:
352,192,1129,1,0,0:0:0:0:
32,192,1341,1,4,0:0:0:0:
96,192,1341,1,2,0:0:0:0:
416,192,1341,1,0,0:0:0:0:
224,192,1552,1,0,0:0:0:0:
352,192,1763,1,8,0:0:0:0:
460,192,1763,1,0,0:0:0:0:
160,192,2186,1,2,0:0:0:0:
288,192,2397,1,0,0:0:0:0:
416,192,2608,1,8,0:0:0:0:
480,192,2608,1,0,0:0:0:0:
224,192,2820,1,0,0:0:0:0:
96,192,3031,1,2,0:0:0:0:
352,192,3242,1,0,0:0:0:0:
32,192,3453,1,8,0:0:0:0:
288,192,3453,1,0,0:0:0:0:
416,192,3665,128,0,4298:0:0:0:0:
160,192,3876,1,2,0:0:0:0:
298,192,4298,1,8,0:0:0:0:
480,192,4298,1,0,0:0:0:0:
160,192,4510,1,0,0:0:0:0:
32,192,4721,1,2,0:0:0:0:
352,192,4721,1,0,0:0:0:0:
480,192,4932,1,0,0:0:0:0:
96,192,5143,1,8,0:0:0:0:
298,192,5143,1,0,0:0:0:0:
224,192,5566,1,2,0:0:0:0:
288,192,5777,1,0,0:0:0:0:
96,192,5989,1,8,0:0:0:0:
352,192,5989,1,0,0:0:0:0:
224,192,6200,1,0,0:0:0:0:
416,192,6411,1,2,0:0:0:0:
160,192,6622,1,0,0:0:0:0:
352,192,6834,1,8,0:0:0:0:
480,192,6834,1,0,0:0:0:0:
224,192,7045,128,0,7679:0:0:0:0:
416,192,7256,1,2,0:0:0:0:
96,192,7679,1,8,0:0:0:0:
480,192,7679,1,0,0:0:0:0:
352,192,7890,1,0,0:0:0:0:
288,192,7996,1,0,0:0:0:0:
32,192,8101,1,2,0:0:0:0:
160,192,8101,1,4,0:0:0:0:
213,192,8101,1,0,0:0:0:0:
416,192,8312,1,0,0:0:0:0:
96,192,8524,1,8,0:0:0:0:
352,192,8524,1,0,0:0:0:0:
160,192,8946,1,2,0:0:0:0:
213,192,9158,1,0,0:0:0:0:
96,192,9369,1,8,0:0:0:0:
256,192,9369,1,0,0:0:0:0:
352,192,9580,1,0,0:0:0:0:
32,192,9791,1,2,0:0:0:0:
416,192,9791,1,4,0:0:0:0:
480,192,9791,1,0,0:0:0:0:
288,192,10003,1,0,0:0:0:0:
96,192,10214,1,8,0:0:0:0:
160,192,10214,1,0,0:0:0:0:
358,192,10636,1,2,0:0:0:0:
224,192,10848,1,0,0:0:0:0:
96,192,11059,1,8,0:0:0:0:
460,192,11059,1,0,0:0:0:0:
352,192,11270,1,0,0:0:0:0:
288,192,11376,1,0,0:0:0:0:
42,192,11481,1,2,0:0:0:0:
224,192,11481,1,4,0:0:0:0:
416,192,11481,1,0,0:0:0:0:
160,192,11904,1,8,0:0:0:0:
460,192,11904,1,0,0:0:0:0:
224,192,12327,1,2,0:0:0:0:
416,192,12538,1,0,0:0:0:0:
288,192,12749,1,8,0:0:0:0:
480,192,12749,1,0,0:0:0:0:
160,192,12960,1,2,0:0:0:0:
51,192,13172,1,4,0:0:0:0:
224,192,13172,1,0,0:0:0:0:
416,192,13172,1,0,0:0:0:0:
160,192,13594,1,4,0:0:0:0:
352,192,13594,1,0,0:0:0:0:
460,192,13594,1,0,0:0:0:0:
51,192,14017,1,4,0:0:0:0:
288,192,14017,1,2,0:0:0:0:
416,192,14017,1,0,0:0:0:0:
224,192,14228,1,0,0:0:0:0:
288,192,14334,1,0,0:0:0:0:
352,192,14439,1,2,0:0:0:0:
160,192,14651,1,0,0:0:0:0:
96,192,14756,1,0,0:0:0:0:
32,192,14862,1,2,0:0:0:0:
352,192,14862,1,4,0:0:0:0:
416,192,14862,1,0,0:0:0:0:
288,192,15073,1,0,0:0:0:0:
160,192,15284,1,8,0:0:0:0:
224,192,15284,1,0,0:0:0:0:
96,192,15707,1,2,0:0:0:0:
352,192,15918,1,0,0:0:0:0:
288,192,16129,1,8,0:0:0:0:
460,192,16129,1,0,0:0:0:0:
128,192,16341,1,0,0:0:0:0:
213,192,16552,1,2,0:0:0:0:
384,192,16763,1,0,0:0:0:0:
96,192,16974,1,8,0:0:0:0:
352,192,16974,1,0,0:0:0:0:
160,192,17186,128,0,17820:0:0:0:0:
288,192,17397,1,2,0:0:0:0:
352,192,17820,1,8,0:0:0:0:
480,192,17820,1,0,0:0:0:0:
213,192,18031,1,0,0:0:0:0:
32,192,18242,1,2,0:0:0:0:
96,192,18242,1,4,0:0:0:0:
416,192,18242,1,0,0:0:0:0:
288,192,18453,1,0,0:0:0:0:
352,192,18665,1,8,0:0:0:0:
460,192,18665,1,0,0:0:0:0:
160,192,19087,1,2,0:0:0:0:
416,192,19298,1,0,0:0:0:0:
96,192,19510,1,8,0:0:0:0:
224,192,19510,1,0,0:0:0:0:
288,192,19721,1,0,0:0:0:0:
32,192,19932,1,2,0:0:0:0:
213,192,19932,1,4,0:0:0:0:
416,192,19932,1,0,0:0:0:0:
358,192,20143,1,0,0:0:0:0:
96,192,20355,1,8,0:0:0:0:
256,192,20355,1,0,0:0:0:0:
480,192,20566,1,0,0:0:0:0:
416,192,20672,1,0,0:0:0:0:
358,192,20777,1,2,0:0:0:0:
160,192,20989,1,2,0:0:0:0:
32,192,21200,1,8,0:0:0:0:
224,192,21200,1,0,0:0:0:0:
352,192,21411,1,0,0:0:0:0:
32,192,21622,1,2,0:0:0:0:
288,192,21622,1,4,0:0:0:0:
480,192,21622,1,0,0:0:0:0:
96,192,22045,1,8,0:0:0:0:
469,192,22045,1,0,0:0:0:0:
352,192,22256,1,0,0:0:0:0:
288,192,22362,1,0,0:0:0:0:
224,192,22467,1,8,0:0:0:0:
160,192,22679,1,2,0:0:0:0:
32,192,22890,1,8,0:0:0:0:
224,192,22890,1,0,0:0:0:0:
288,192,23101,128,2,23524:0:0:0:0:
480,192,23101,1,4,0:0:0:0:
352,192,23524,1,2,0:0:0:0:
153,192,23735,1,8,0:0:0:0:
460,192,23735,1,0,0:0:0:0:
213,192,24158,1,2,0:0:0:0:
358,192,24369,1,2,0:0:0:0:
32,192,24580,1,8,0:0:0:0:
224,192,24580,1,0,0:0:0:0:
288,192,24791,1,2,0:0:0:0:
480,192,24791,128,4,26270:0:0:0:0:
160,192,25214,1,2,0:0:0:0:
288,192,25425,1,8,0:0:0:0:
416,192,25636,1,0,0:0:0:0:
96,192,25848,1,8,0:0:0:0:
224,192,26059,1,2,0:0:0:0:
352,192,26270,1,8,0:0:0:0:
32,192,26481,1,2,0:0:0:0:
96,192,26481,1,4,0:0:0:0:
288,192,26481,128,0,26904:0:0:0:0:
213,192,26904,1,2,0:0:0:0:
96,192,27115,1,8,0:0:0:0:
256,192,27115,1,0,0:0:0:0:
416,192,27327,1,0,0:0:0:0:
352,192,27432,1,0,0:0:0:0:
288,192,27538,1,2,0:0:0:0:
160,192,27749,1,2,0:0:0:0:
352,192,27960,1,8,0:0:0:0:
288,192,28066,1,0,0:0:0:0:
224,192,28172,1,0,0:0:0:0:
160,192,28277,1,0,0:0:0:0:
96,192,28383,128,2,29228:0:0:0:0:
416,192,28383,128,4,30496:0:0:0:0:
