osu file format v14

[General]
AudioFilename: kantoku moe.ogg
AudioLeadIn: 0
PreviewTime: 179
Countdown: 0
SampleSet: Soft
StackLeniency: 0.7
Mode: 3
LetterboxInBreaks: 0
SpecialStyle: 0
WidescreenStoryboard: 0

[Editor]
DistanceSpacing: 1.5
BeatDivisor: 4
GridSize: 16
TimelineZoom: 1

[Metadata]
Title:Harumachi Clover (TV Size)
TitleUnicode:春待ちクローバー (TV Size)
Artist:Hanasaka Yui (CV: M.A.O)
ArtistUnicode:花坂結衣 (CV:M・A・O)
Creator:Ilham
Version:8K Easy
Source:OneRoom
Tags:japanese pop jpop j-pop SMRR-006 anime kantoku カントク typhoon graphics ワンルーム one room 市道真央 Mao Ichimichi 稲葉エミ Emi Inaba 奥井康介 Kosuke Okui ending ed hugged
BeatmapID:1237080
BeatmapSetID:584737

[Difficulty]
HPDrainRate:6.5
CircleSize:8
OverallDifficulty:7
ApproachRate:0
SliderMultiplier:1.4
SliderTickRate:1

[Events]
//Background and Video events
0,0,"bg.jpg",0,0
//Break Periods
//Storyboard Layer 0 (Background)
//Storyboard Layer 1 (Fail)
//Storyboard Layer 2 (Pass)
//Storyboard Layer 3 (Foreground)
//Storyboard Layer 4 (Overlay)
//Storyboard Sound Samples

[TimingPoints]
-349,422.535211267606,4,2,1,70,1,0

[HitObjects]
352,192,284,5,0,0:0:0:0:
160,192,496,128,0,918:0:0:0:0:
288,192,918,128,0,1341:0:0:0:0:
32,192,1341,1,4,0:0:0:0:
480,192,1341,1,2,0:0:0:0:
160,192,1763,1,8,0:0:0:0:
288,192,1763,1,0,0:0:0:0:
416,192,2186,1,2,0:0:0:0:
96,192,2608,1,8,0:0:0:0:
352,192,2608,1,0,0:0:0:0:
224,192,3031,1,2,0:0:0:0:
160,192,3453,1,8,0:0:0:0:
480,192,3453,1,0,0:0:0:0:
416,192,3876,1,2,0:0:0:0:
288,192,4087,1,0,0:0:0:0:
160,192,4298,1,8,0:0:0:0:
480,192,4298,1,0,0:0:0:0:
352,192,4721,1,2,0:0:0:0:
96,192,5143,1,8,0:0:0:0:
224,192,5143,1,0,0:0:0:0:
352,192,5566,1,2,0:0:0:0:
160,192,5989,1,8,0:0:0:0:
480,192,5989,1,0,0:0:0:0:
288,192,6411,1,2,0:0:0:0:
96,192,6834,1,8,0:0:0:0:
416,192,6834,1,0,0:0:0:0:
160,192,7256,1,2,0:0:0:0:
288,192,7467,1,0,0:0:0:0:
96,192,7679,1,8,0:0:0:0:
416,192,7679,1,0,0:0:0:0:
32,192,8101,1,2,0:0:0:0:
288,192,8101,1,4,0:0:0:0:
160,192,8524,1,8,0:0:0:0:
416,192,8524,1,0,0:0:0:0:
224,192,8946,1,2,0:0:0:0:
352,192,9158,1,0,0:0:0:0:
96,192,9369,1,8,0:0:0:0:
224,192,9580,128,0,10003:0:0:0:0:
416,192,10003,1,0,0:0:0:0:
160,192,10214,1,8,0:0:0:0:
224,192,10636,1,2,0:0:0:0:
288,192,10848,1,0,0:0:0:0:
352,192,11059,1,8,0:0:0:0:
96,192,11270,128,0,12327:0:0:0:0:
416,192,11904,1,8,0:0:0:0:
352,192,12327,1,2,0:0:0:0:
224,192,12749,1,8,0:0:0:0:
480,192,12749,1,0,0:0:0:0:
288,192,12960,1,2,0:0:0:0:
32,192,13172,1,4,0:0:0:0:
352,192,13172,1,0,0:0:0:0:
96,192,13594,1,4,0:0:0:0:
416,192,13594,1,0,0:0:0:0:
32,192,14017,1,4,0:0:0:0:
288,192,14017,1,2,0:0:0:0:
416,192,14439,1,2,0:0:0:0:
224,192,14651,1,0,0:0:0:0:
32,192,14862,1,2,0:0:0:0:
416,192,14862,1,4,0:0:0:0:
160,192,15284,1,8,0:0:0:0:
480,192,15284,1,0,0:0:0:0:
224,192,15707,1,2,0:0:0:0:
288,192,16129,1,8,0:0:0:0:
416,192,16129,1,0,0:0:0:0:
160,192,16552,1,2,0:0:0:0:
32,192,16974,1,8,0:0:0:0:
352,192,16974,1,0,0:0:0:0:
352,192,17397,1,2,0:0:0:0:
224,192,17608,1,0,0:0:0:0:
96,192,17820,1,8,0:0:0:0:
460,192,17820,1,0,0:0:0:0:
32,192,18242,1,2,0:0:0:0:
416,192,18242,1,4,0:0:0:0:
153,192,18665,1,8,0:0:0:0:
352,192,18665,1,0,0:0:0:0:
288,192,19087,1,2,0:0:0:0:
224,192,19510,1,8,0:0:0:0:
480,192,19510,1,0,0:0:0:0:
32,192,19932,1,2,0:0:0:0:
352,192,19932,1,4,0:0:0:0:
96,192,20355,1,8,0:0:0:0:
480,192,20355,1,0,0:0:0:0:
96,192,20777,1,2,0:0:0:0:
288,192,20989,1,2,0:0:0:0:
160,192,21200,1,8,0:0:0:0:
416,192,21200,1,0,0:0:0:0:
32,192,21622,1,2,0:0:0:0:
384,192,21622,1,4,0:0:0:0:
160,192,22045,1,8,0:0:0:0:
352,192,22045,1,0,0:0:0:0:
224,192,22467,1,8,0:0:0:0:
32,192,22679,1,2,0:0:0:0:
480,192,22890,1,8,0:0:0:0:
160,192,23101,1,2,0:0:0:0:
352,192,23101,128,4,23524:0:0:0:0:
224,192,23524,1,2,0:0:0:0:
96,192,23735,1,8,0:0:0:0:
416,192,23735,1,0,0:0:0:0:
352,192,24158,1,2,0:0:0:0:
96,192,24369,1,2,0:0:0:0:
288,192,24580,1,8,0:0:0:0:
32,192,24791,1,2,0:0:0:0:
480,192,24791,128,4,26270:0:0:0:0:
96,192,25425,1,8,0:0:0:0:
160,192,25848,1,8,0:0:0:0:
224,192,26270,1,8,0:0:0:0:
96,192,26481,1,2,0:0:0:0:
358,192,26481,128,4,26904:0:0:0:0:
288,192,26904,1,2,0:0:0:0:
224,192,27115,1,8,0:0:0:0:
160,192,27327,128,0,27749:0:0:0:0:
480,192,27749,1,2,0:0:0:0:
352,192,27960,128,8,28383:0:0:0:0:
32,192,28383,128,2,30496:0:0:0:0:
416,192,28383,128,4,30496:0:0:0:0:
